osu file format v14

[General]
AudioFilename: LOONATIC.mp3
AudioLeadIn: 0
PreviewTime: 46811
Countdown: 0
SampleSet: Normal
StackLeniency: 0.4
Mode: 1
LetterboxInBreaks: 0
WidescreenStoryboard: 1

[Editor]
DistanceSpacing: 1.2
BeatDivisor: 4
GridSize: 32
TimelineZoom: 2.799999

[Metadata]
Title:LOONATIC
TitleUnicode:LOONATIC
Artist:LOONA/ODD EYE CIRCLE
ArtistUnicode:이달의 소녀 오드아이써클
Creator:Skull Kid
Version:fodase mano kkkkkkkkkk
Source:
Tags:LOOΠΔ Mix&Match kpop
BeatmapID:1705495
BeatmapSetID:813172

[Difficulty]
HPDrainRate:6
CircleSize:4
OverallDifficulty:6
ApproachRate:9
SliderMultiplier:1.4
SliderTickRate:1

[Events]
//Background and Video events
0,0,"BG.jpg",0,54
//Break Periods
//Storyboard Layer 0 (Background)
//Storyboard Layer 1 (Fail)
//Storyboard Layer 2 (Pass)
//Storyboard Layer 3 (Foreground)
//Storyboard Sound Samples

[TimingPoints]
7111,400,4,1,0,50,1,0
9411,-100,4,1,0,60,0,0
22111,-100,4,1,0,70,0,0
22311,-98.0392156862745,4,1,0,70,0,0
22411,-97.0873786407767,4,1,0,70,0,0
22511,-96.1538461538461,4,1,0,70,0,0
22611,-95.2380952380952,4,1,0,70,0,0
22711,-94.3396226415094,4,1,0,70,0,0
22811,-93.4579439252336,4,1,0,70,0,0
22911,-92.5925925925926,4,1,0,70,0,0
23011,-91.743119266055,4,1,0,70,0,0
23111,-90.9090909090909,4,1,0,70,0,0
36111,-92.5925925925926,4,1,0,60,0,0
36711,-94.3396226415094,4,1,0,60,0,0
37111,-96.1538461538461,4,1,0,60,0,0
37311,-98.0392156862745,4,1,0,60,0,0
37511,-100,4,1,0,60,0,0
47011,-100,4,1,0,5,0,0
48611,-100,4,1,0,75,0,0
48711,-86.9565217391304,4,1,0,75,0,1
74311,-86.9565217391304,4,1,0,75,0,0

[Colours]
Combo1 : 166,147,244
Combo2 : 241,114,114

[HitObjects]
256,192,7111,5,0,0:0:0:0:
256,192,7511,1,0,0:0:0:0:
256,192,7911,1,0,0:0:0:0:
256,192,8311,1,0,0:0:0:0:
256,192,8711,1,0,0:0:0:0:
256,192,9011,1,0,0:0:0:0:
256,192,9111,1,0,0:0:0:0:
256,192,9311,1,0,0:0:0:0:
256,192,9511,1,8,0:0:0:0:
256,192,9611,1,8,0:0:0:0:
256,192,9711,1,0,0:0:0:0:
256,192,9811,1,8,0:0:0:0:
256,192,9911,1,0,0:0:0:0:
256,192,10011,1,0,0:0:0:0:
256,192,10111,1,8,0:0:0:0:
256,192,10211,1,8,0:0:0:0:
256,192,10311,1,0,0:0:0:0:
256,192,10711,1,8,0:0:0:0:
256,192,11311,1,0,0:0:0:0:
256,192,11511,1,8,0:0:0:0:
256,192,11911,1,0,0:0:0:0:
256,192,12311,1,8,0:0:0:0:
256,192,12911,1,0,0:0:0:0:
256,192,13111,1,8,0:0:0:0:
256,192,13311,1,0,0:0:0:0:
256,192,13511,1,0,0:0:0:0:
256,192,13911,1,8,0:0:0:0:
256,192,14511,1,0,0:0:0:0:
256,192,14711,1,8,0:0:0:0:
256,192,15111,1,0,0:0:0:0:
256,192,15511,1,8,0:0:0:0:
256,192,15911,1,0,0:0:0:0:
256,192,16111,1,8,0:0:0:0:
256,192,16211,1,0,0:0:0:0:
256,192,16311,1,8,0:0:0:0:
256,192,16511,1,8,0:0:0:0:
256,192,16711,1,0,0:0:0:0:
256,192,17111,1,8,0:0:0:0:
256,192,17511,1,0,0:0:0:0:
256,192,17711,1,0,0:0:0:0:
256,192,17911,1,8,0:0:0:0:
256,192,18111,1,0,0:0:0:0:
256,192,18511,1,0,0:0:0:0:
256,192,18711,1,8,0:0:0:0:
256,192,19111,1,0,0:0:0:0:
256,192,19311,1,0,0:0:0:0:
256,192,19511,1,8,0:0:0:0:
256,192,19711,1,8,0:0:0:0:
256,192,19911,1,0,0:0:0:0:
256,192,20311,1,8,0:0:0:0:
256,192,20911,1,0,0:0:0:0:
256,192,21111,1,8,0:0:0:0:
256,192,21511,1,0,0:0:0:0:
256,192,22311,1,8,0:0:0:0:
256,192,22411,1,8,0:0:0:0:
256,192,22511,1,0,0:0:0:0:
256,192,22611,1,8,0:0:0:0:
256,192,22711,1,0,0:0:0:0:
256,192,22811,1,0,0:0:0:0:
256,192,22911,1,8,0:0:0:0:
256,192,23011,1,8,0:0:0:0:
256,192,23111,1,0,0:0:0:0:
256,192,23311,1,0,0:0:0:0:
256,192,23511,1,8,0:0:0:0:
256,192,23711,1,0,0:0:0:0:
256,192,23811,1,8,0:0:0:0:
256,192,23911,1,0,0:0:0:0:
256,192,24111,1,0,0:0:0:0:
256,192,24311,1,8,0:0:0:0:
256,192,24511,1,8,0:0:0:0:
256,192,24711,1,0,0:0:0:0:
256,192,25111,1,8,0:0:0:0:
256,192,25311,1,0,0:0:0:0:
256,192,25511,1,0,0:0:0:0:
256,192,25711,1,8,0:0:0:0:
256,192,25911,1,0,0:0:0:0:
256,192,26011,1,0,0:0:0:0:
256,192,26111,1,8,0:0:0:0:
256,192,26211,1,8,0:0:0:0:
256,192,26311,1,0,0:0:0:0:
256,192,26511,1,0,0:0:0:0:
256,192,26711,1,8,0:0:0:0:
256,192,26911,1,0,0:0:0:0:
256,192,27011,1,8,0:0:0:0:
256,192,27111,1,0,0:0:0:0:
256,192,27311,1,0,0:0:0:0:
256,192,27511,1,8,0:0:0:0:
256,192,27711,1,8,0:0:0:0:
256,192,27911,1,0,0:0:0:0:
256,192,28311,1,8,0:0:0:0:
256,192,28511,1,0,0:0:0:0:
256,192,28711,1,0,0:0:0:0:
256,192,28911,1,8,0:0:0:0:
256,192,29111,1,0,0:0:0:0:
256,192,29211,1,0,0:0:0:0:
256,192,29311,1,8,0:0:0:0:
256,192,29411,1,8,0:0:0:0:
256,192,29511,1,0,0:0:0:0:
256,192,29711,1,0,0:0:0:0:
256,192,29911,1,8,0:0:0:0:
256,192,30111,1,0,0:0:0:0:
256,192,30211,1,0,0:0:0:0:
256,192,30311,1,8,0:0:0:0:
256,192,30511,1,0,0:0:0:0:
256,192,30711,1,0,0:0:0:0:
256,192,30911,1,8,0:0:0:0:
256,192,31111,1,0,0:0:0:0:
256,192,31311,1,8,0:0:0:0:
256,192,31411,1,0,0:0:0:0:
256,192,31511,1,8,0:0:0:0:
256,192,31711,1,0,0:0:0:0:
256,192,31911,1,8,0:0:0:0:
256,192,32011,1,8,0:0:0:0:
256,192,32111,1,0,0:0:0:0:
256,192,32211,1,0,0:0:0:0:
256,192,32311,1,8,0:0:0:0:
256,192,32511,1,8,0:0:0:0:
256,192,32711,1,0,0:0:0:0:
256,192,33111,1,8,0:0:0:0:
256,192,33311,1,0,0:0:0:0:
256,192,33511,1,8,0:0:0:0:
256,192,33711,1,8,0:0:0:0:
256,192,33811,1,8,0:0:0:0:
256,192,33911,1,0,0:0:0:0:
256,192,34111,1,8,0:0:0:0:
256,192,34311,1,0,0:0:0:0:
256,192,34511,1,0,0:0:0:0:
256,192,34711,1,8,0:0:0:0:
256,192,34911,1,0,0:0:0:0:
256,192,35011,1,0,0:0:0:0:
256,192,35111,1,8,0:0:0:0:
256,192,35211,1,8,0:0:0:0:
256,192,35311,1,0,0:0:0:0:
256,192,35411,1,8,0:0:0:0:
256,192,35511,1,0,0:0:0:0:
256,192,35611,1,0,0:0:0:0:
256,192,35711,1,8,0:0:0:0:
256,192,35811,1,8,0:0:0:0:
256,192,35911,1,0,0:0:0:0:
256,192,36311,1,0,0:0:0:0:
256,192,36711,1,0,0:0:0:0:
256,192,37111,1,0,0:0:0:0:
256,192,37311,1,8,0:0:0:0:
256,192,37511,1,0,0:0:0:0:
256,192,37911,1,8,0:0:0:0:
256,192,38311,1,0,0:0:0:0:
256,192,38511,1,0,0:0:0:0:
256,192,38711,1,8,0:0:0:0:
256,192,38911,1,8,0:0:0:0:
256,192,39111,1,0,0:0:0:0:
256,192,39511,1,0,0:0:0:0:
256,192,39911,1,0,0:0:0:0:
256,192,40311,1,0,0:0:0:0:
256,192,40511,1,8,0:0:0:0:
256,192,40711,1,0,0:0:0:0:
256,192,41111,1,8,0:0:0:0:
256,192,41311,1,0,0:0:0:0:
256,192,41511,1,8,0:0:0:0:
256,192,41711,1,8,0:0:0:0:
256,192,41911,1,8,0:0:0:0:
256,192,42311,1,0,0:0:0:0:
256,192,42711,1,8,0:0:0:0:
256,192,43111,1,0,0:0:0:0:
256,192,43511,1,8,0:0:0:0:
256,192,43711,1,0,0:0:0:0:
256,192,44111,1,0,0:0:0:0:
256,192,44311,1,8,0:0:0:0:
256,192,44711,1,0,0:0:0:0:
256,192,44911,1,0,0:0:0:0:
256,192,45111,1,8,0:0:0:0:
256,192,45311,1,8,0:0:0:0:
256,192,45511,1,0,0:0:0:0:
256,192,46311,1,0,0:0:0:0:
256,192,46511,1,8,0:0:0:0:
256,192,46711,1,0,0:0:0:0:
256,192,46911,1,4,0:0:0:0:
256,192,47111,12,0,48511,0:0:0:0:
256,192,48711,5,4,0:0:0:0:
256,192,48911,1,8,0:0:0:0:
256,192,49011,1,8,0:0:0:0:
256,192,49111,1,0,0:0:0:0:
256,192,49311,1,0,0:0:0:0:
256,192,49511,1,8,0:0:0:0:
256,192,49711,1,0,0:0:0:0:
256,192,49811,1,0,0:0:0:0:
256,192,49911,1,0,0:0:0:0:
256,192,50111,1,8,0:0:0:0:
256,192,50311,1,0,0:0:0:0:
256,192,50511,1,8,0:0:0:0:
256,192,50611,1,0,0:0:0:0:
256,192,50711,1,8,0:0:0:0:
256,192,50911,1,0,0:0:0:0:
256,192,51111,1,8,0:0:0:0:
256,192,51211,1,8,0:0:0:0:
256,192,51311,1,0,0:0:0:0:
256,192,51411,1,0,0:0:0:0:
256,192,51511,1,8,0:0:0:0:
256,192,51711,1,8,0:0:0:0:
256,192,51911,1,0,0:0:0:0:
256,192,52111,1,0,0:0:0:0:
256,192,52311,1,8,0:0:0:0:
256,192,52511,1,0,0:0:0:0:
256,192,52611,1,0,0:0:0:0:
256,192,52711,1,0,0:0:0:0:
256,192,52911,1,8,0:0:0:0:
256,192,53111,1,0,0:0:0:0:
256,192,53311,1,8,0:0:0:0:
256,192,53511,1,0,0:0:0:0:
256,192,53711,1,0,0:0:0:0:
256,192,53911,1,8,0:0:0:0:
256,192,54111,1,0,0:0:0:0:
256,192,54211,1,0,0:0:0:0:
256,192,54311,1,0,0:0:0:0:
256,192,54511,1,8,0:0:0:0:
256,192,54711,1,0,0:0:0:0:
256,192,54811,1,0,0:0:0:0:
256,192,54911,1,8,0:0:0:0:
256,192,55011,1,8,0:0:0:0:
256,192,55111,1,0,0:0:0:0:
256,192,55311,1,8,0:0:0:0:
256,192,55411,1,0,0:0:0:0:
256,192,55511,1,8,0:0:0:0:
256,192,55711,1,0,0:0:0:0:
256,192,55911,1,8,0:0:0:0:
256,192,56111,1,0,0:0:0:0:
256,192,56211,1,0,0:0:0:0:
256,192,56311,1,0,0:0:0:0:
256,192,56511,1,8,0:0:0:0:
256,192,56711,1,0,0:0:0:0:
256,192,56911,1,8,0:0:0:0:
256,192,57011,1,8,0:0:0:0:
256,192,57111,1,0,0:0:0:0:
256,192,57311,1,0,0:0:0:0:
256,192,57511,1,8,0:0:0:0:
256,192,57611,1,8,0:0:0:0:
256,192,57711,1,0,0:0:0:0:
256,192,57811,1,0,0:0:0:0:
256,192,57911,1,8,0:0:0:0:
256,192,58111,1,8,0:0:0:0:
256,192,58311,1,0,0:0:0:0:
256,192,58511,1,0,0:0:0:0:
256,192,58711,1,8,0:0:0:0:
256,192,58911,1,0,0:0:0:0:
256,192,59011,1,0,0:0:0:0:
256,192,59111,1,0,0:0:0:0:
256,192,59311,1,8,0:0:0:0:
256,192,59511,1,0,0:0:0:0:
256,192,59611,1,0,0:0:0:0:
256,192,59711,1,8,0:0:0:0:
256,192,59811,1,8,0:0:0:0:
256,192,59911,1,0,0:0:0:0:
256,192,60111,1,0,0:0:0:0:
256,192,60311,1,8,0:0:0:0:
256,192,60511,1,0,0:0:0:0:
256,192,60611,1,0,0:0:0:0:
256,192,60711,1,8,0:0:0:0:
256,192,60811,1,8,0:0:0:0:
256,192,60911,1,0,0:0:0:0:
256,192,61011,1,8,0:0:0:0:
256,192,61111,1,0,0:0:0:0:
256,192,61211,1,0,0:0:0:0:
256,192,61311,1,8,0:0:0:0:
256,192,61411,1,8,0:0:0:0:
256,192,61511,1,4,0:0:0:0:
256,192,61711,1,0,0:0:0:0:
256,192,61911,1,8,0:0:0:0:
256,192,62111,1,0,0:0:0:0:
256,192,62211,1,0,0:0:0:0:
256,192,62311,1,0,0:0:0:0:
256,192,62511,1,8,0:0:0:0:
256,192,62711,1,0,0:0:0:0:
256,192,62911,1,8,0:0:0:0:
256,192,63011,1,8,0:0:0:0:
256,192,63111,1,0,0:0:0:0:
256,192,63311,1,0,0:0:0:0:
256,192,63511,1,8,0:0:0:0:
256,192,63711,1,0,0:0:0:0:
256,192,63811,1,0,0:0:0:0:
256,192,63911,1,8,0:0:0:0:
256,192,64011,1,8,0:0:0:0:
256,192,64111,1,0,0:0:0:0:
256,192,64311,1,8,0:0:0:0:
256,192,64411,1,0,0:0:0:0:
256,192,64511,1,8,0:0:0:0:
256,192,64711,1,0,0:0:0:0:
256,192,64911,1,0,0:0:0:0:
256,192,65111,1,8,0:0:0:0:
256,192,65311,1,0,0:0:0:0:
256,192,65411,1,0,0:0:0:0:
256,192,65511,1,0,0:0:0:0:
256,192,65711,1,8,0:0:0:0:
256,192,65911,1,0,0:0:0:0:
256,192,66111,1,8,0:0:0:0:
256,192,66211,1,8,0:0:0:0:
256,192,66311,1,0,0:0:0:0:
256,192,66511,1,0,0:0:0:0:
256,192,66711,1,8,0:0:0:0:
256,192,66811,1,8,0:0:0:0:
256,192,66911,1,0,0:0:0:0:
256,192,67011,1,0,0:0:0:0:
256,192,67111,1,8,0:0:0:0:
256,192,67311,1,0,0:0:0:0:
256,192,67411,1,0,0:0:0:0:
256,192,67511,1,8,0:0:0:0:
256,192,67611,1,0,0:0:0:0:
256,192,67711,1,8,0:0:0:0:
256,192,67811,1,8,0:0:0:0:
256,192,67911,1,0,0:0:0:0:
256,192,68111,1,8,0:0:0:0:
256,192,68211,1,8,0:0:0:0:
256,192,68311,1,0,0:0:0:0:
256,192,68511,1,0,0:0:0:0:
256,192,68711,1,8,0:0:0:0:
256,192,68911,1,0,0:0:0:0:
256,192,69011,1,0,0:0:0:0:
256,192,69111,1,0,0:0:0:0:
256,192,69311,1,8,0:0:0:0:
256,192,69511,1,0,0:0:0:0:
256,192,69711,1,8,0:0:0:0:
256,192,69811,1,0,0:0:0:0:
256,192,69911,1,8,0:0:0:0:
256,192,70111,1,0,0:0:0:0:
256,192,70311,1,8,0:0:0:0:
256,192,70411,1,8,0:0:0:0:
256,192,70511,1,0,0:0:0:0:
256,192,70611,1,0,0:0:0:0:
256,192,70711,1,8,0:0:0:0:
256,192,70911,1,8,0:0:0:0:
256,192,71111,1,0,0:0:0:0:
256,192,71311,1,0,0:0:0:0:
256,192,71511,1,8,0:0:0:0:
256,192,71711,1,0,0:0:0:0:
256,192,71811,1,0,0:0:0:0:
256,192,71911,1,0,0:0:0:0:
256,192,72111,1,8,0:0:0:0:
256,192,72311,1,0,0:0:0:0:
256,192,72411,1,0,0:0:0:0:
256,192,72511,1,8,0:0:0:0:
256,192,72611,1,8,0:0:0:0:
256,192,72711,1,0,0:0:0:0:
256,192,72911,1,0,0:0:0:0:
256,192,73111,1,8,0:0:0:0:
256,192,73311,1,8,0:0:0:0:
256,192,73511,1,0,0:0:0:0:
256,192,73711,1,8,0:0:0:0:
256,192,73811,1,0,0:0:0:0:
256,192,73911,1,8,0:0:0:0:
256,192,74111,1,8,0:0:0:0:
256,192,74311,1,4,0:0:0:0:
