osu file format v14

[General]
AudioFilename: audio.mp3
AudioLeadIn: 0
PreviewTime: 54131
Countdown: 0
SampleSet: Normal
StackLeniency: 0.7
Mode: 0
LetterboxInBreaks: 0
WidescreenStoryboard: 1

[Editor]
DistanceSpacing: 1
BeatDivisor: 8
GridSize: 4
TimelineZoom: 1

[Metadata]
Title:Around You
TitleUnicode:다녀가요
Artist:LOONA/HyunJin
ArtistUnicode:이달의 소녀/현진
Creator:kayiedee
Version:So I’m silently leaving again
Source:
Tags:Blockberry Creative LOOΠΔ
BeatmapID:1627113
BeatmapSetID:774125

[Difficulty]
HPDrainRate:7
CircleSize:3.6
OverallDifficulty:6
ApproachRate:7.2
SliderMultiplier:1.7
SliderTickRate:1

[Events]
//Background and Video events
0,0,"Hyunjin.jpg",0,0
//Break Periods
2,159988,165975
//Storyboard Layer 0 (Background)
//Storyboard Layer 1 (Fail)
//Storyboard Layer 2 (Pass)
//Storyboard Layer 3 (Foreground)
//Storyboard Sound Samples

[TimingPoints]
560,857.142857142857,4,1,0,30,1,0
560,-133.333333333333,4,1,0,30,0,0
14274,-166.666666666667,4,1,0,30,0,0
41702,-100,4,1,0,30,0,0
55417,-83.3333333333333,4,1,0,30,0,0
82845,-166.666666666667,4,1,0,30,0,0
89702,-100,4,1,0,30,0,0
116274,-66.6666666666667,4,1,0,30,0,0
117131,-83.3333333333333,4,1,0,30,0,0
144559,-100,4,1,0,30,0,0
159988,857.142857142857,4,1,0,30,1,0
159988,-166.666666666667,4,1,0,30,0,0
166845,-166.666666666667,4,1,0,30,0,0
170273,-133.333333333333,4,1,0,30,0,0
172630,-100,4,1,0,30,0,0
173702,-74.0740740740741,4,1,0,30,0,0
197702,923.076923076923,4,1,0,30,1,0
197702,-133.333333333333,4,1,0,30,0,0

[Colours]
Combo1 : 55,65,5
Combo2 : 112,84,129
Combo3 : 205,175,145
Combo4 : 155,165,195

[HitObjects]
20,240,560,6,0,P|96:228|164:208,1,127.500004863739
228,328,2060,2,0,P|181:315|134:308,2,95.6250036478044
368,332,3988,6,0,P|312:264|280:280,1,127.500004863739
236,192,5488,2,0,P|296:184|340:168,1,95.6250036478044
420,80,6559,1,0,0:0:0:0:
374,65,6773,1,0,0:0:0:0:
326,60,6987,1,0,0:0:0:0:
327,61,7417,6,0,P|375:53|435:45,1,95.6250036478044
452,48,8274,1,0,0:0:0:0:
160,28,8702,1,0,0:0:0:0:
248,104,8917,2,0,P|212:64|168:32,1,95.6250036478044
48,120,9988,1,0,0:0:0:0:
168,142,10202,2,0,P|116:125|62:119,1,95.6250036478044
232,328,13417,5,0,0:0:0:0:
239,297,13631,1,0,0:0:0:0:
236,265,13845,1,0,0:0:0:0:
236,265,14274,6,0,P|184:268|128:274,1,101.999996887207
60,216,15559,1,0,0:0:0:0:
60,216,15774,2,0,P|48:172|60:128,2,76.4999976654054
140,176,17274,1,0,0:0:0:0:
140,176,17702,6,0,P|192:168|256:160,1,101.999996887207
224,80,18988,1,0,0:0:0:0:
224,80,19202,2,0,P|185:74|137:68,2,76.4999976654054
296,36,20702,1,0,0:0:0:0:
296,36,21131,6,0,P|352:40|388:72,1,101.999996887207
308,188,22417,1,0,0:0:0:0:
308,188,22631,2,0,P|312:136|318:108,2,76.4999976654054
380,224,24131,2,0,L|427:219,1,25.4999992218018
312,264,24559,6,0,P|248:236|232:196,1,101.999996887207
244,332,25845,1,0,0:0:0:0:
244,332,26059,2,0,P|204:324|176:320,1,50.9999984436036
132,276,26702,2,0,P|92:284|64:288,1,50.9999984436036
32,216,27345,2,0,L|28:172,1,25.4999992218018
32,188,27988,6,0,P|88:172|136:164,1,101.999996887207
200,80,29274,1,0,0:0:0:0:
108,48,29488,2,0,P|150:58|184:71,1,76.4999976654053
212,180,30559,1,0,0:0:0:0:
305,147,30773,2,0,P|262:157|228:170,1,76.4999976654053
380,80,32274,6,0,P|388:116|392:148,1,50.9999984436036
472,168,32917,2,0,P|466:192|461:217,1,50.9999984436036
376,228,33559,2,0,P|383:252|392:276,1,50.9999984436036
408,300,34202,1,0,0:0:0:0:
312,364,34417,1,0,0:0:0:0:
332,344,34631,1,0,0:0:0:0:
245,316,34845,6,0,P|188:312|144:312,1,101.999996887207
44,228,36131,1,0,0:0:0:0:
61,331,36345,2,0,P|57:287|49:243,1,76.4999976654053
136,224,37417,1,0,0:0:0:0:
153,121,37631,2,0,P|149:165|141:209,1,76.4999976654053
102,48,39131,6,0,P|80:56|52:60,1,50.9999984436036
172,8,39774,1,0,0:0:0:0:
172,8,41274,5,0,0:0:0:0:
172,8,41488,1,0,0:0:0:0:
172,8,41702,2,0,P|180:64|184:112,1,85
288,92,42345,1,0,0:0:0:0:
288,92,42559,2,0,P|266:144|246:188,1,85
164,180,43202,1,0,0:0:0:0:
224,252,43417,2,0,P|176:260|140:288,1,85
292,344,44059,2,0,P|304:292|324:244,1,85
380,216,44702,2,0,P|396:248|400:264,1,42.5
308,184,45131,6,0,P|392:176|448:164,1,127.5
512,92,45988,2,0,P|449:86|407:77,1,85
264,104,46631,1,0,0:0:0:0:
354,39,46845,2,0,P|305:79|269:102,1,85
184,24,47702,2,0,P|180:55|176:76,1,42.5
132,152,48131,1,0,0:0:0:0:
116,120,48345,1,0,0:0:0:0:
0,188,48559,6,0,P|48:196|84:224,1,85
208,340,49202,1,0,0:0:0:0:
124,304,49417,2,0,P|154:266|197:249,1,85
359,199,50059,1,0,0:0:0:0:
286,254,50274,2,0,P|268:208|275:163,1,85
248,84,51131,6,0,P|216:80|184:76,1,42.5
324,44,51559,2,0,P|332:80|336:108,1,63.75
340,136,51988,1,0,0:0:0:0:
340,136,54345,5,0,0:0:0:0:
341,114,54452,1,0,0:0:0:0:
343,93,54559,1,0,0:0:0:0:
416,192,54774,1,0,0:0:0:0:
286,254,54988,2,0,P|280:220|266:186,1,63.75
244,168,55417,6,0,P|184:172|132:177,1,101.999996887207
148,96,56059,1,0,0:0:0:0:
72,232,56274,2,0,P|48:228|16:216,1,50.9999984436036
228,170,56702,1,0,0:0:0:0:
141,176,56916,1,0,0:0:0:0:
235,258,57131,2,0,B|268:256|304:248,1,50.9999984436036
228,170,57559,1,0,0:0:0:0:
147,264,57774,2,0,B|149:297|157:333,1,50.9999984436036
336,266,58202,1,0,0:0:0:0:
235,258,58416,1,0,0:0:0:0:
234,257,58630,1,0,0:0:0:0:
340,348,58845,6,0,P|396:328|420:272,1,101.999996887207
316,136,59488,1,0,0:0:0:0:
343,164,59702,2,0,P|339:228|335:272,1,101.999996887207
456,80,60345,1,0,0:0:0:0:
429,108,60559,2,0,P|431:140|433:162,1,50.9999984436036
368,44,60988,1,0,0:0:0:0:
232,60,61202,2,0,P|276:52|348:44,1,101.999996887207
200,168,61845,2,0,P|162:163|128:154,1,50.9999984436036
120,150,62167,1,0,0:0:0:0:
120,150,62274,6,0,P|124:193|129:253,1,101.999996887207
32,120,62917,1,0,0:0:0:0:
32,120,63131,2,0,P|27:163|22:223,1,101.999996887207
52,304,63774,2,0,P|16:300|-12:300,1,50.9999984436036
152,336,64202,1,0,0:0:0:0:
152,336,64417,2,0,P|177:334|202:331,1,50.9999984436036
260,260,64845,2,0,P|292:296|344:300,1,101.999996887207
400,240,65488,1,0,0:0:0:0:
228,170,65702,6,0,P|173:187|119:214,1,101.999996887207
312,104,66345,2,0,P|255:91|195:87,1,101.999996887207
312,188,66988,1,0,0:0:0:0:
400,84,67202,1,0,0:0:0:0:
272,120,67417,1,0,0:0:0:0:
439,151,67631,1,0,0:0:0:0:
321,39,67845,1,0,0:0:0:0:
390,232,68059,1,0,0:0:0:0:
415,229,68167,1,0,0:0:0:0:
440,227,68274,1,0,0:0:0:0:
400,84,68488,1,0,0:0:0:0:
312,188,68702,2,0,P|300:228|308:268,1,76.4999976654053
316,292,69131,6,0,P|272:288|208:284,1,101.999996887207
112,208,69774,1,0,0:0:0:0:
112,208,69988,2,0,P|156:204|220:200,1,101.999996887207
292,136,70631,1,0,0:0:0:0:
292,136,70845,2,0,P|300:104|304:76,1,50.9999984436036
368,32,71274,1,0,0:0:0:0:
232,0,71488,2,0,P|204:24|212:92,1,101.999996887207
138,133,72131,2,0,P|125:111|116:88,1,50.9999984436036
232,192,72559,6,0,B|184:196|180:224|120:220,1,101.999996887207
236,276,73202,1,0,0:0:0:0:
236,276,73417,2,0,B|284:280|288:308|348:304,1,101.999996887207
336,224,74059,1,0,0:0:0:0:
336,104,74274,2,0,P|364:128|356:196,1,101.999996887207
248,112,74917,1,0,0:0:0:0:
388,32,75131,2,0,P|420:28|456:24,1,50.9999984436036
476,186,75559,1,0,0:0:0:0:
336,104,75774,1,0,0:0:0:0:
336,104,75881,1,0,0:0:0:0:
336,104,75988,6,0,P|272:96|220:92,1,101.999996887207
120,212,76631,1,0,0:0:0:0:
192,176,76845,2,0,P|162:188|138:199,1,50.9999984436036
276,280,77274,2,0,P|252:269|229:259,1,50.9999984436036
344,336,77702,2,0,P|364:296|348:232,1,101.999996887207
424,96,78345,1,0,0:0:0:0:
424,96,78559,2,0,P|413:145|434:190,1,101.999996887207
472,12,79202,1,0,0:0:0:0:
472,12,79309,1,0,0:0:0:0:
472,12,79417,6,0,P|416:4|360:0,2,101.999996887207
424,96,80702,1,0,0:0:0:0:
288,128,80917,2,0,P|313:125|338:122,1,50.9999984436036
244,44,81345,1,0,0:0:0:0:
288,228,81559,1,0,0:0:0:0:
334,70,81774,1,0,0:0:0:0:
197,201,81988,2,0,P|180:276|168:360,1,152.999995330811
288,228,82738,1,0,0:0:0:0:
288,228,82845,6,0,P|332:280|332:160,1,305.999990661621
332,160,86274,6,0,P|388:152|436:136,1,101.999996887207
416,260,87559,1,0,0:0:0:0:
288,228,87988,2,0,P|340:249|390:259,1,101.999996887207
256,312,89702,6,0,B|176:300|184:352|88:336,1,170
128,252,90774,1,0,0:0:0:0:
52,232,90988,2,0,P|84:236|108:244,1,42.5
196,176,91417,2,0,P|164:172|140:164,1,42.5
104,92,91845,2,0,P|64:84|4:88,1,85
156,264,92488,1,0,0:0:0:0:
156,264,92702,2,0,P|168:220|164:192,1,63.75
154,169,93131,6,0,P|203:163|289:157,1,127.5
324,80,93988,2,0,P|351:119|373:157,1,85
464,144,94631,2,0,P|443:187|421:225,1,85
478,297,95274,2,0,P|429:301|386:300,1,85
248,240,95917,1,0,0:0:0:0:
348,196,96131,1,0,0:0:0:0:
336,228,96345,1,0,0:0:0:0:
292,336,96559,6,0,P|236:324|156:316,1,127.5
248,240,97417,2,0,P|284:236|308:232,1,42.5
360,164,97845,1,0,0:0:0:0:
416,284,98059,1,0,0:0:0:0:
416,284,98274,2,0,P|428:228|440:192,1,85
360,164,99131,1,0,0:0:0:0:
332,48,99345,2,0,P|344:88|352:130,1,85
248,240,99988,5,0,0:0:0:0:
168,120,100202,2,0,P|216:104|256:112,1,85
96,196,100845,2,0,P|88:148|76:100,1,85
160,284,101488,1,0,0:0:0:0:
160,284,101702,2,0,P|164:260|170:236,2,42.5
248,240,102345,1,0,0:0:0:0:
400,208,102559,2,0,B|340:208|344:244|276:244,1,127.5
396,296,103417,5,0,0:0:0:0:
512,312,103631,2,0,P|468:292|428:288,1,85
336,184,104274,2,0,P|336:205|338:226,1,42.5
420,200,104702,1,0,0:0:0:0:
444,88,104917,1,0,0:0:0:0:
444,88,105131,2,0,P|433:128|426:170,1,85
336,36,105774,1,0,0:0:0:0:
444,0,105988,2,0,P|403:10|363:25,1,85
260,104,106631,1,0,0:0:0:0:
128,16,106845,6,0,P|168:0|212:16,1,85
96,80,107488,2,0,P|62:53|53:7,1,85
266,66,108131,2,0,P|269:45|272:24,1,42.5
168,76,108559,2,0,P|176:136|180:176,1,85
168,76,109417,1,0,0:0:0:0:
144,180,109631,1,0,0:0:0:0:
0,156,109845,1,0,0:0:0:0:
30,147,110059,1,0,0:0:0:0:
76,232,110274,6,0,P|136:264|200:244,1,127.5
276,184,111131,1,0,0:0:0:0:
276,184,111559,1,0,0:0:0:0:
296,296,111774,1,0,0:0:0:0:
296,296,111988,2,0,P|291:253|282:212,1,85
404,236,112845,1,0,0:0:0:0:
384,348,113059,1,0,0:0:0:0:
384,348,113274,2,0,P|388:305|397:264,1,85
328,220,116274,6,0,P|404:236|460:136,1,191.250007295609
400,56,117131,6,0,P|388:108|380:164,2,101.999996887207
216,140,118202,1,0,0:0:0:0:
312,76,118417,1,0,0:0:0:0:
312,76,118631,1,0,0:0:0:0:
308,220,118845,2,0,P|300:180|292:148,1,50.9999984436036
216,140,119274,1,0,0:0:0:0:
212,272,119488,2,0,P|225:233|234:201,1,50.9999984436036
191,115,119917,1,0,0:0:0:0:
102,269,120131,2,0,P|132:242|156:219,1,50.9999984436036
56,92,120559,6,0,P|64:156|68:216,1,101.999996887207
196,36,121202,1,0,0:0:0:0:
164,48,121417,2,0,P|156:112|152:172,1,101.999996887207
293,118,122059,1,0,0:0:0:0:
293,118,122274,2,0,P|269:111|244:108,1,50.9999984436036
376,52,122702,1,0,0:0:0:0:
360,192,122917,2,0,P|410:185|459:170,1,101.999996887207
313,266,123559,2,0,P|289:259|264:256,1,50.9999984436036
360,344,123881,1,0,0:0:0:0:
360,344,123988,6,0,P|404:348|456:300,1,101.999996887207
412,220,124631,2,0,P|367:214|325:254,1,101.999996887207
248,208,125274,2,0,P|240:184|236:148,1,50.9999984436036
324,48,125702,2,0,P|320:112|316:152,1,101.999996887207
392,248,126345,1,0,0:0:0:0:
412,220,126559,2,0,P|407:169|404:118,1,101.999996887207
250,52,127202,1,0,0:0:0:0:
250,52,127309,1,0,0:0:0:0:
250,52,127417,6,0,B|298:32|334:36|334:36|326:44|318:56,1,101.999996887207
236,158,128059,2,0,B|172:158|204:134|120:134,1,101.999996887207
248,28,128702,2,0,P|244:56|232:84,1,50.9999984436036
136,216,129131,1,0,0:0:0:0:
72,76,129345,1,0,0:0:0:0:
152,248,129559,1,0,0:0:0:0:
170,56,129774,2,0,L|172:104,2,25.4999992218018
149,292,130202,1,0,0:0:0:0:
288,96,130416,1,0,0:0:0:0:
138,185,130631,1,0,0:0:0:0:
317,201,130845,6,0,P|388:184|440:176,1,101.999996887207
492,296,131488,1,0,0:0:0:0:
492,296,131702,2,0,P|468:304|400:260,1,101.999996887207
368,176,132345,1,0,0:0:0:0:
312,304,132559,2,0,P|304:272|300:232,2,50.9999984436036
268,384,133202,2,0,P|180:376|144:372,1,101.999996887207
100,312,133845,2,0,P|56:316|38:318,1,50.9999984436036
128,208,134274,6,0,P|160:248|192:296,1,101.999996887207
84,120,134917,1,0,0:0:0:0:
84,120,135131,2,0,P|134:125|191:136,1,101.999996887207
336,200,135774,2,0,P|352:180|356:168,1,25.4999992218018
272,64,135988,2,0,B|260:48|260:48|273:109|274:144,1,101.999996887207
432,176,136631,2,0,P|412:128|360:100,1,101.999996887207
372,256,137274,1,0,0:0:0:0:
504,272,137488,1,0,0:0:0:0:
504,272,137595,1,0,0:0:0:0:
500,272,137702,6,0,P|440:256|376:252,1,101.999996887207
301,187,138345,2,0,P|337:183|369:175,1,50.9999984436036
224,224,138774,2,0,P|245:253|268:276,1,50.9999984436036
230,138,139202,1,0,0:0:0:0:
153,175,139417,2,0,P|127:233|111:288,1,101.999996887207
20,76,140059,1,0,0:0:0:0:
20,76,140274,2,0,P|41:122|56:170,1,101.999996887207
116,269,140917,1,0,0:0:0:0:
116,269,141024,1,0,0:0:0:0:
116,269,141131,6,0,P|56:261|-4:257,2,101.999996887207
200,120,142417,1,0,0:0:0:0:
264,192,142631,2,0,P|268:232|268:264,1,50.9999984436036
170,212,143059,1,0,0:0:0:0:
294,100,143274,1,0,0:0:0:0:
328,263,143488,1,0,0:0:0:0:
200,120,143702,1,0,0:0:0:0:
298,355,143917,1,0,0:0:0:0:
357,172,144131,1,0,0:0:0:0:
357,172,144559,6,0,L|408:167,1,42.5
332,196,145202,2,0,L|383:191,1,42.5
307,220,145845,1,0,0:0:0:0:
307,220,146059,2,0,B|208:208|248:276|136:256,1,170
172,176,147131,1,0,0:0:0:0:
172,176,147988,6,0,L|167:128,1,42.5
204,152,148631,2,0,L|196:54,1,85
236,128,149274,1,0,0:0:0:0:
236,128,149488,2,0,B|335:116|295:184|407:164,1,170
256,212,150559,1,0,0:0:0:0:
256,212,151417,6,0,L|158:219,1,85
280,244,152059,2,0,L|182:251,1,85
304,276,152702,1,0,0:0:0:0:
304,276,152917,2,0,P|356:304|364:216,1,170
256,212,153988,1,0,0:0:0:0:
256,212,154845,6,0,P|212:208|168:180,1,85
180,240,155488,2,0,P|161:199|163:147,1,85
236,68,156131,2,0,P|240:88|244:124,1,42.5
264,104,166845,6,0,B|352:88|332:144|404:180|469:118|469:118|424:128|384:112,1,305.999990661621
284,196,170273,6,0,P|208:188|176:60,1,223.125008511544
200,36,171880,1,0,0:0:0:0:
200,36,171988,1,0,0:0:0:0:
200,36,172630,6,0,P|204:28|208:12,2,21.25
264,104,173059,1,0,0:0:0:0:
140,108,173273,2,0,P|108:96|76:72,1,63.75
0,200,173702,6,0,P|64:192|128:188,1,114.750000437737
200,196,174345,1,0,0:0:0:0:
300,128,174559,2,0,P|224:136|200:184,1,114.750000437737
344,208,175202,1,0,0:0:0:0:
380,76,175416,2,0,P|388:112|392:136,1,57.3750002188683
480,152,175845,1,0,0:0:0:0:
480,152,176059,2,0,P|470:225|461:272,1,114.750000437737
344,208,176702,1,0,0:0:0:0:
388,104,176916,2,0,P|392:122|394:134,1,28.6875001094341
320,36,177130,2,0,P|376:8|444:24,1,114.750000437737
264,104,177773,2,0,P|207:109|157:82,1,114.750000437737
60,180,178416,2,0,P|96:172|120:168,1,57.3750002188683
200,196,178845,1,0,0:0:0:0:
108,256,179059,1,0,0:0:0:0:
108,256,179273,1,0,0:0:0:0:
256,316,179488,2,0,B|328:312|312:288|380:284,1,114.750000437737
268,144,180130,2,0,P|260:188|260:212,1,57.3750002188683
268,232,180452,1,0,0:0:0:0:
268,232,180559,2,0,P|212:228|152:220,1,114.750000437737
16,320,181202,2,0,P|72:316|132:308,1,114.750000437737
236,364,181845,2,0,P|220:332|212:300,1,57.3750002188683
300,240,182273,2,0,B|312:216|312:216|304:276|304:320,1,114.750000437737
464,312,182916,1,0,0:0:0:0:
400,188,183130,2,0,B|388:164|388:164|396:224|396:268,1,114.750000437737
460,112,183773,1,0,0:0:0:0:
380,80,183988,2,0,B|326:82|342:106|270:110,1,114.750000437737
212,44,184630,2,0,P|188:76|192:152,1,114.750000437737
272,108,185273,1,0,0:0:0:0:
92,88,185488,1,0,0:0:0:0:
288,196,185702,1,0,0:0:0:0:
63,171,185916,1,0,0:0:0:0:
192,8,186130,1,0,0:0:0:0:
165,254,186345,1,0,0:0:0:0:
159,225,186452,1,0,0:0:0:0:
156,197,186559,1,0,0:0:0:0:
288,196,186773,1,0,0:0:0:0:
228,320,186988,2,0,P|184:340|140:336,1,86.0625003283024
116,320,187416,2,0,P|84:308|48:300,2,57.3750002188683
273,218,188273,2,0,P|218:233|165:254,1,114.750000437737
316,296,188916,1,0,0:0:0:0:
396,328,189130,2,0,P|368:320|342:310,1,57.3750002188683
424,144,189559,1,0,0:0:0:0:
500,212,189773,2,0,P|443:226|388:234,1,114.750000437737
288,196,190416,2,0,P|276:164|272:136,1,57.3750002188683
396,40,190845,2,0,P|385:96|364:149,1,114.750000437737
240,60,191488,1,0,0:0:0:0:
261,85,191702,2,0,P|279:138|287:195,1,114.750000437737
156,52,192345,1,0,0:0:0:0:
184,132,192559,2,0,B|156:139|126:134|126:134|102:153|76:160,1,114.750000437737
287,195,193202,2,0,B|314:202|344:197|344:197|368:216|394:223,1,114.750000437737
316,116,193845,1,0,0:0:0:0:
423,53,194059,1,0,0:0:0:0:
423,53,194166,1,0,0:0:0:0:
423,53,194273,2,0,P|366:53|324:90,1,114.750000437737
184,156,194916,2,0,P|240:156|282:193,1,114.750000437737
312,284,195559,1,0,0:0:0:0:
212,236,195773,1,0,0:0:0:0:
312,284,195988,2,0,P|364:272|428:264,1,114.750000437737
256,360,196630,1,0,0:0:0:0:
256,360,196845,2,0,P|204:348|140:340,1,114.750000437737
12,296,197504,1,0,0:0:0:0:
14,267,197595,1,0,0:0:0:0:
20,240,197702,6,0,P|96:228|164:208,1,127.500004863739
240,128,199086,6,0,P|178:111|115:102,1,127.500004863739
144,214,200471,1,0,0:0:0:0:
144,214,201394,1,0,0:0:0:0:
256,192,202317,12,0,207394,0:0:0:0:
