osu file format v14

[General]
AudioFilename: audio.mp3
AudioLeadIn: 0
PreviewTime: 54154
Countdown: 0
SampleSet: Soft
StackLeniency: 0.7
Mode: 3
LetterboxInBreaks: 0
SpecialStyle: 0
WidescreenStoryboard: 1

[Editor]
DistanceSpacing: 2.4
BeatDivisor: 4
GridSize: 32
TimelineZoom: 1.650005

[Metadata]
Title:Around You
TitleUnicode:다녀가요
Artist:LOONA/HyunJin
ArtistUnicode:이달의 소녀/현진
Creator:Ucitysm
Version:Normal
Source:
Tags:SuperStar kim hyun-jin 김현진 LOOΠΔ/ girl of the month idarui sonyeo dalso bbc blockberrycreative orbit 오빛 k-pop korean ballad melancholy kpop adult contemporary soul melancholia sophisti piano pop indoroid tigerinity himitsuhiketsu zirconescalus monotree 모노트리 lee joo hyung 이주
BeatmapID:3966614
BeatmapSetID:1921680

[Difficulty]
HPDrainRate:7
CircleSize:4
OverallDifficulty:7
ApproachRate:5
SliderMultiplier:1.4
SliderTickRate:1

[Events]
//Background and Video events
0,0,"around_you.jpg",0,0
//Break Periods
//Storyboard Layer 0 (Background)
//Storyboard Layer 1 (Fail)
//Storyboard Layer 2 (Pass)
//Storyboard Layer 3 (Foreground)
//Storyboard Layer 4 (Overlay)
//Storyboard Sound Samples
Sample,368,0,"F6R.wav",50
Sample,1225,0,"F6R.wav",70
Sample,1868,0,"F6R.wav",50
Sample,2510,0,"F6R.wav",50
Sample,3153,0,"F6R.wav",70
Sample,3796,0,"D#6R_Eb6R.wav",50
Sample,4653,0,"D#6R_Eb6R.wav",50
Sample,5296,0,"D#6R_Eb6R.wav",50
Sample,5939,0,"D#6R_Eb6R.wav",50
Sample,6582,0,"B5R.wav",50
Sample,6582,0,"D#6R_Eb6R.wav",50
Sample,7225,0,"C#6R_Db6R.wav",50
Sample,7225,0,"F6R.wav",50
Sample,8082,0,"F6R.wav",70
Sample,8725,0,"F6R.wav",50
Sample,9367,0,"F6R.wav",50
Sample,10010,0,"F6R.wav",70
Sample,10653,0,"B5R.wav",50
Sample,10653,0,"D#6R_Eb6R.wav",50
Sample,14082,0,"F5R.wav",50
Sample,14939,0,"F5R.wav",50
Sample,15582,0,"F5R.wav",50
Sample,16225,0,"F5R.wav",50
Sample,16653,0,"F#4R_Gb4R.wav",25
Sample,16867,0,"F5R.wav",50
Sample,17510,0,"B4R.wav",50
Sample,17510,0,"D#5R_Eb5R.wav",50
Sample,18367,0,"B4R.wav",50
Sample,18367,0,"D#5R_Eb5R.wav",50
Sample,19010,0,"D#5R_Eb5R.wav",50
Sample,19653,0,"D#5R_Eb5R.wav",50
Sample,20082,0,"E4R.wav",25
Sample,20296,0,"D#5R_Eb5R.wav",50
Sample,20939,0,"C#5R_Db5R.wav",50
Sample,20939,0,"F5R.wav",50
Sample,21796,0,"F5R.wav",50
Sample,22439,0,"F5R.wav",50
Sample,23082,0,"F5R.wav",50
Sample,23510,0,"F#4R_Gb4R.wav",25
Sample,23725,0,"F5R.wav",50
Sample,24367,0,"B4R.wav",50
Sample,24367,0,"D#5R_Eb5R.wav",50
Sample,25225,0,"D#5R_Eb5R.wav",50
Sample,25653,0,"E4R.wav",25
Sample,25867,0,"D#5R_Eb5R.wav",50
Sample,26296,0,"E4R.wav",25
Sample,26510,0,"D#5R_Eb5R.wav",50
Sample,27796,0,"F#4R_Gb4R.wav",50
Sample,27796,0,"C#5R_Db5R.wav",50
Sample,27796,0,"F5R.wav",50
Sample,28653,0,"F5R.wav",50
Sample,29028,0,"A#8R_Bb8R.wav",50
Sample,29296,0,"F5R.wav",50
Sample,29939,0,"F5R.wav",50
Sample,30367,0,"F#4R_Gb4R.wav",25
Sample,30421,0,"F8R.wav",50
Sample,30582,0,"F5R.wav",50
Sample,31225,0,"E4R.wav",50
Sample,31225,0,"B4R.wav",50
Sample,31225,0,"D#5R_Eb5R.wav",50
Sample,32082,0,"B4R.wav",50
Sample,32082,0,"D#5R_Eb5R.wav",50
Sample,32725,0,"D#5R_Eb5R.wav",50
Sample,33153,0,"E4R.wav",25
Sample,33367,0,"D#5R_Eb5R.wav",50
Sample,33796,0,"E4R.wav",25
Sample,34010,0,"D#5R_Eb5R.wav",50
Sample,34653,0,"B3R.wav",50
Sample,34653,0,"F#5R_Gb5R.wav",50
Sample,34653,0,"A5R.wav",50
Sample,35510,0,"A5R.wav",50
Sample,35885,0,"G#8R_Ab8R.wav",50
Sample,36153,0,"F#5R_Gb5R.wav",50
Sample,36153,0,"A5R.wav",50
Sample,36796,0,"A5R.wav",50
Sample,37439,0,"F#5R_Gb5R.wav",50
Sample,37439,0,"A5R.wav",50
Sample,38082,0,"B4R.wav",50
Sample,38082,0,"F#5R_Gb5R.wav",50
Sample,38939,0,"F#5R_Gb5R.wav",50
Sample,39582,0,"F5R.wav",50
Sample,41510,0,"D#5R_Eb5R.wav",50
Sample,41510,0,"A#5R_Bb5R.wav",50
Sample,42367,0,"D#5R_Eb5R.wav",50
Sample,42367,0,"A#5R_Bb5R.wav",50
Sample,43010,0,"F5R.wav",50
Sample,43653,0,"F5R.wav",50
Sample,44296,0,"F5R.wav",50
Sample,44939,0,"C#5R_Db5R.wav",50
Sample,44939,0,"F5R.wav",50
Sample,45582,0,"C#8R_Db8R.wav",50
Sample,45796,0,"F5R.wav",50
Sample,46439,0,"C#5R_Db5R.wav",50
Sample,46439,0,"G#5R_Ab5R.wav",50
Sample,47082,0,"G#5R_Ab5R.wav",50
Sample,47725,0,"C#5R_Db5R.wav",50
Sample,47725,0,"G#5R_Ab5R.wav",50
Sample,48367,0,"F#5R_Gb5R.wav",50
Sample,48367,0,"A5R.wav",50
Sample,49225,0,"A3R.wav",20
Sample,49225,0,"F#5R_Gb5R.wav",50
Sample,49225,0,"A5R.wav",50
Sample,49867,0,"A5R.wav",50
Sample,50510,0,"A5R.wav",50
Sample,50939,0,"B3R.wav",25
Sample,51153,0,"F#5R_Gb5R.wav",50
Sample,51153,0,"A5R.wav",50
Sample,51796,0,"B4R.wav",50
Sample,51796,0,"F#5R_Gb5R.wav",50
Sample,55225,0,"G#4S_Ab4S_s.wav",50
Sample,55225,0,"A#4S_Bb4S_s.wav",50
Sample,56082,0,"G#4S_Ab4S_s.wav",70
Sample,56082,0,"B4S_s.wav",70
Sample,56296,0,"A#4S_Bb4S_s.wav",70
Sample,56939,0,"G#4S_Ab4S_s.wav",70
Sample,56939,0,"A#4S_Bb4S_s.wav",70
Sample,57796,0,"F#4S_Gb4S_s.wav",70
Sample,57796,0,"G#4S_Ab4S_s.wav",70
Sample,57796,0,"C#5S_Db5S_s.wav",70
Sample,58225,0,"F#3S_Gb3S_s.wav",70
Sample,58653,0,"B4S_s.wav",70
Sample,59510,0,"C#5S_Db5S_s.wav",70
Sample,59510,0,"G5S_s.wav",70
Sample,60367,0,"A#4S_Bb4S_s.wav",70
Sample,60367,0,"D#5S_Eb5S_s.wav",70
Sample,61225,0,"A#4S_Bb4S_s.wav",70
Sample,61225,0,"D#5S_Eb5S_s.wav",70
Sample,62082,0,"B4S_s.wav",70
Sample,62082,0,"D#5S_Eb5S_s.wav",70
Sample,62082,0,"F#5S_Gb5S_s.wav",70
Sample,62939,0,"D#5S_Eb5S_s.wav",70
Sample,62939,0,"F#5S_Gb5S_s.wav",70
Sample,63367,0,"G#3S_Ab3S_s.wav",70
Sample,63367,0,"D#4S_Eb4S_s.wav",70
Sample,63796,0,"D#5S_Eb5S_s.wav",70
Sample,63796,0,"F#5S_Gb5S_s.wav",70
Sample,64653,0,"D#5S_Eb5S_s.wav",70
Sample,64653,0,"F#5S_Gb5S_s.wav",70
Sample,65082,0,"D#4S_Eb4S_s.wav",70
Sample,65510,0,"D5S_s.wav",70
Sample,65510,0,"F#5S_Gb5S_s.wav",70
Sample,66367,0,"B4S_s.wav",70
Sample,66367,0,"D5S_s.wav",70
Sample,66367,0,"F#5S_Gb5S_s.wav",70
Sample,67225,0,"F#5S_Gb5S_s.wav",70
Sample,68082,0,"B4S_s.wav",70
Sample,68082,0,"G#5S_Ab5S_s.wav",70
Sample,68939,0,"G#4S_Ab4S_s.wav",70
Sample,68939,0,"A#4S_Bb4S_s.wav",70
Sample,69796,0,"G#4S_Ab4S_s.wav",70
Sample,69796,0,"B4S_s.wav",70
Sample,70010,0,"A#4S_Bb4S_s.wav",70
Sample,70225,0,"C#4S_Db4S_s.wav",70
Sample,70653,0,"G#4S_Ab4S_s.wav",70
Sample,70653,0,"A#4S_Bb4S_s.wav",70
Sample,71510,0,"F#4S_Gb4S_s.wav",70
Sample,71510,0,"G#4S_Ab4S_s.wav",70
Sample,71510,0,"C#5S_Db5S_s.wav",70
Sample,71939,0,"C#4S_Db4S_s.wav",70
Sample,72367,0,"B4S_s.wav",70
Sample,73225,0,"C#5S_Db5S_s.wav",70
Sample,73225,0,"G5S_s.wav",70
Sample,74082,0,"A#4S_Bb4S_s.wav",70
Sample,74082,0,"D#5S_Eb5S_s.wav",70
Sample,74939,0,"A#4S_Bb4S_s.wav",70
Sample,74939,0,"D#5S_Eb5S_s.wav",70
Sample,75367,0,"G3S_s.wav",70
Sample,75796,0,"B4S_s.wav",70
Sample,75796,0,"D#5S_Eb5S_s.wav",70
Sample,75796,0,"F#5S_Gb5S_s.wav",70
Sample,76653,0,"D#5S_Eb5S_s.wav",70
Sample,76653,0,"F#5S_Gb5S_s.wav",70
Sample,77082,0,"G#3S_Ab3S_s.wav",70
Sample,77082,0,"D#4S_Eb4S_s.wav",70
Sample,77510,0,"D#5S_Eb5S_s.wav",70
Sample,77510,0,"F#5S_Gb5S_s.wav",70
Sample,78367,0,"D#5S_Eb5S_s.wav",70
Sample,78367,0,"F#5S_Gb5S_s.wav",70
Sample,78796,0,"D#4S_Eb4S_s.wav",70
Sample,79225,0,"A5S.wav",70
Sample,80510,0,"E5S.wav",70
Sample,81796,0,"F#5S_Gb5S.wav",70
Sample,82600,0,"A4S.wav",70
Sample,82707,0,"F#5S_Gb5S.wav",70
Sample,86082,0,"B4R.wav",50
Sample,86082,0,"D5R.wav",50
Sample,86082,0,"A5R.wav",50
Sample,87796,0,"B4R.wav",50
Sample,87796,0,"D#5R_Eb5R.wav",50
Sample,87796,0,"F#5R_Gb5R.wav",50
Sample,88653,0,"D#5R_Eb5R.wav",50
Sample,88653,0,"C#6R_Db6R.wav",50
Sample,89510,0,"C#5R_Db5R.wav",50
Sample,89510,0,"F5R.wav",50
Sample,90367,0,"C#5R_Db5R.wav",50
Sample,90367,0,"F5R.wav",50
Sample,91010,0,"F5R.wav",50
Sample,91653,0,"F5R.wav",50
Sample,92082,0,"F#4R_Gb4R.wav",25
Sample,92296,0,"F5R.wav",50
Sample,92939,0,"B4R.wav",50
Sample,92939,0,"D#5R_Eb5R.wav",50
Sample,93796,0,"B4R.wav",50
Sample,93796,0,"D#5R_Eb5R.wav",50
Sample,94439,0,"D#5R_Eb5R.wav",50
Sample,95082,0,"D#5R_Eb5R.wav",50
Sample,95510,0,"E4R.wav",25
Sample,95725,0,"D#5R_Eb5R.wav",50
Sample,96367,0,"C#5R_Db5R.wav",50
Sample,96367,0,"F5R.wav",50
Sample,97225,0,"C#5R_Db5R.wav",50
Sample,97225,0,"F5R.wav",50
Sample,97867,0,"F5R.wav",50
Sample,98510,0,"F5R.wav",50
Sample,98939,0,"F#4R_Gb4R.wav",25
Sample,99153,0,"F5R.wav",50
Sample,99796,0,"B4R.wav",50
Sample,99796,0,"D#5R_Eb5R.wav",50
Sample,100653,0,"B4R.wav",50
Sample,100653,0,"D#5R_Eb5R.wav",50
Sample,101082,0,"E4R.wav",25
Sample,101296,0,"D#5R_Eb5R.wav",50
Sample,101725,0,"E4R.wav",25
Sample,101939,0,"D#5R_Eb5R.wav",50
Sample,102367,0,"C#8R_Db8R.wav",50
Sample,103225,0,"F#4R_Gb4R.wav",50
Sample,103225,0,"C#5R_Db5R.wav",50
Sample,103225,0,"F5R.wav",50
Sample,104082,0,"C#5R_Db5R.wav",50
Sample,104082,0,"F5R.wav",50
Sample,104457,0,"A#8R_Bb8R.wav",50
Sample,104725,0,"F5R.wav",50
Sample,105367,0,"F5R.wav",50
Sample,105796,0,"F#4R_Gb4R.wav",25
Sample,105850,0,"F8R.wav",50
Sample,106010,0,"F5R.wav",50
Sample,106653,0,"E4R.wav",50
Sample,106653,0,"B4R.wav",50
Sample,106653,0,"D#5R_Eb5R.wav",50
Sample,107510,0,"B4R.wav",50
Sample,107510,0,"D#5R_Eb5R.wav",50
Sample,108153,0,"D#5R_Eb5R.wav",50
Sample,108582,0,"E4R.wav",25
Sample,108796,0,"D#5R_Eb5R.wav",50
Sample,109225,0,"E4R.wav",25
Sample,109439,0,"D#5R_Eb5R.wav",50
Sample,110082,0,"B3R.wav",50
Sample,110082,0,"F#5R_Gb5R.wav",50
Sample,110082,0,"A5R.wav",50
Sample,110939,0,"F#5R_Gb5R.wav",50
Sample,110939,0,"A5R.wav",50
Sample,111314,0,"G#8R_Ab8R.wav",50
Sample,111582,0,"F#5R_Gb5R.wav",50
Sample,111582,0,"A5R.wav",50
Sample,112225,0,"A5R.wav",50
Sample,112653,0,"F#8R_Gb8R.wav",50
Sample,112867,0,"F#5R_Gb5R.wav",50
Sample,112867,0,"A5R.wav",50
Sample,113510,0,"B4R.wav",50
Sample,113510,0,"F#5R_Gb5R.wav",50
Sample,115225,0,"F#5S_Gb5S_s.wav",70
Sample,116082,0,"B4S_s.wav",70
Sample,116082,0,"G#5S_Ab5S_s.wav",70
Sample,116939,0,"G#4S_Ab4S_s.wav",70
Sample,116939,0,"A#4S_Bb4S_s.wav",70
Sample,117796,0,"G#4S_Ab4S_s.wav",70
Sample,117796,0,"B4S_s.wav",70
Sample,118010,0,"A#4S_Bb4S_s.wav",70
Sample,118653,0,"G#4S_Ab4S_s.wav",70
Sample,118653,0,"A#4S_Bb4S_s.wav",70
Sample,119510,0,"F#4S_Gb4S_s.wav",70
Sample,119510,0,"G#4S_Ab4S_s.wav",70
Sample,119510,0,"C#5S_Db5S_s.wav",70
Sample,119939,0,"F#3S_Gb3S_s.wav",70
Sample,120367,0,"B4S_s.wav",70
Sample,121225,0,"C#5S_Db5S_s.wav",70
Sample,121225,0,"G5S_s.wav",70
Sample,122082,0,"A#4S_Bb4S_s.wav",70
Sample,122082,0,"D#5S_Eb5S_s.wav",70
Sample,122939,0,"A#4S_Bb4S_s.wav",70
Sample,122939,0,"D#5S_Eb5S_s.wav",70
Sample,123796,0,"B4S_s.wav",70
Sample,123796,0,"D#5S_Eb5S_s.wav",70
Sample,123796,0,"F#5S_Gb5S_s.wav",70
Sample,124653,0,"D#5S_Eb5S_s.wav",70
Sample,124653,0,"F#5S_Gb5S_s.wav",70
Sample,125082,0,"G#3S_Ab3S_s.wav",70
Sample,125082,0,"D#4S_Eb4S_s.wav",70
Sample,125510,0,"D#5S_Eb5S_s.wav",70
Sample,125510,0,"F#5S_Gb5S_s.wav",70
Sample,126367,0,"D#5S_Eb5S_s.wav",70
Sample,126367,0,"F#5S_Gb5S_s.wav",70
Sample,126796,0,"D#4S_Eb4S_s.wav",70
Sample,127225,0,"D5S_s.wav",70
Sample,127225,0,"F#5S_Gb5S_s.wav",70
Sample,128082,0,"B4S_s.wav",70
Sample,128082,0,"D5S_s.wav",70
Sample,128082,0,"F#5S_Gb5S_s.wav",70
Sample,128939,0,"F#5S_Gb5S_s.wav",70
Sample,129796,0,"B4S_s.wav",70
Sample,129796,0,"G#5S_Ab5S_s.wav",70
Sample,130653,0,"G#4S_Ab4S_s.wav",70
Sample,130653,0,"A#4S_Bb4S_s.wav",70
Sample,131510,0,"G#4S_Ab4S_s.wav",70
Sample,131510,0,"B4S_s.wav",70
Sample,131725,0,"A#4S_Bb4S_s.wav",70
Sample,131939,0,"C#4S_Db4S_s.wav",70
Sample,132367,0,"G#4S_Ab4S_s.wav",70
Sample,132367,0,"A#4S_Bb4S_s.wav",70
Sample,133225,0,"F#4S_Gb4S_s.wav",70
Sample,133225,0,"G#4S_Ab4S_s.wav",70
Sample,133225,0,"C#5S_Db5S_s.wav",70
Sample,133653,0,"C#4S_Db4S_s.wav",70
Sample,134082,0,"B4S_s.wav",70
Sample,134939,0,"C#5S_Db5S_s.wav",70
Sample,134939,0,"G5S_s.wav",70
Sample,135796,0,"A#4S_Bb4S_s.wav",70
Sample,135796,0,"D#5S_Eb5S_s.wav",70
Sample,136653,0,"A#4S_Bb4S_s.wav",70
Sample,136653,0,"D#5S_Eb5S_s.wav",70
Sample,137082,0,"G3S_s.wav",70
Sample,137510,0,"B4S_s.wav",70
Sample,137510,0,"D#5S_Eb5S_s.wav",70
Sample,137510,0,"F#5S_Gb5S_s.wav",70
Sample,138367,0,"D#5S_Eb5S_s.wav",70
Sample,138367,0,"F#5S_Gb5S_s.wav",70
Sample,138796,0,"G#3S_Ab3S_s.wav",70
Sample,138796,0,"D#4S_Eb4S_s.wav",70
Sample,139225,0,"D#5S_Eb5S_s.wav",70
Sample,139225,0,"F#5S_Gb5S_s.wav",70
Sample,140082,0,"D#5S_Eb5S_s.wav",70
Sample,140082,0,"F#5S_Gb5S_s.wav",70
Sample,140510,0,"D#4S_Eb4S_s.wav",70
Sample,140939,0,"A5S.wav",70
Sample,142653,0,"G#4S_Ab4S.wav",70
Sample,142653,0,"C#5S_Db5S.wav",70
Sample,143510,0,"F#5S_Gb5S.wav",70
Sample,144260,0,"D5S.wav",70
Sample,144314,0,"E5S.wav",70
Sample,144796,0,"E5S.wav",70
Sample,145010,0,"B4S.wav",70
Sample,145010,0,"E5S.wav",70
Sample,145439,0,"B4S.wav",70
Sample,145653,0,"F5S.wav",70
Sample,145653,0,"A#5S_Bb5S.wav",70
Sample,147653,0,"F#4S_Gb4S.wav",70
Sample,147725,0,"A4S.wav",70
Sample,148225,0,"B4S.wav",70
Sample,148439,0,"E5S.wav",70
Sample,149296,0,"F4S.wav",70
Sample,149296,0,"A#4S_Bb4S.wav",70
Sample,151225,0,"F#5S_Gb5S.wav",70
Sample,151225,0,"A5S.wav",70
Sample,151867,0,"E5S.wav",70
Sample,151867,0,"G#5S_Ab5S.wav",70
Sample,152725,0,"C#5S_Db5S.wav",70
Sample,152725,0,"E5S.wav",70
Sample,153582,0,"E5S.wav",70
Sample,153582,0,"A5S.wav",70
Sample,154653,0,"D#5S_Eb5S.wav",70
Sample,154653,0,"F#5S_Gb5S.wav",70
Sample,156153,0,"D#5R_Eb5R.wav",50
Sample,156153,0,"F#5R_Gb5R.wav",50
Sample,159850,0,"D#6R_Eb6R.wav",40
Sample,159850,0,"A#6R_Bb6R.wav",40
Sample,161457,0,"B5R.wav",40
Sample,161618,0,"F6R.wav",40
Sample,163279,0,"A#5R_Bb5R.wav",40
Sample,163279,0,"F6R.wav",40
Sample,164939,0,"C#5R_Db5R.wav",40
Sample,164939,0,"F5R.wav",40
Sample,165797,0,"F#5R_Gb5R.wav",40
Sample,166547,0,"B4R.wav",50
Sample,166600,0,"D5R.wav",50
Sample,166707,0,"A5R.wav",50
Sample,168261,0,"F#3R_Gb3R.wav",50
Sample,170029,0,"B4R.wav",50
Sample,170136,0,"F5R.wav",50
Sample,171689,0,"F#5R_Gb5R.wav",50
Sample,171743,0,"B5R.wav",50
Sample,171797,0,"C#6R_Db6R.wav",50
Sample,171797,0,"F#6R_Gb6R.wav",50
Sample,173404,0,"F6R.wav",60
Sample,173511,0,"G#4S_Ab4S_s.wav",70
Sample,173511,0,"A#4S_Bb4S_s.wav",70
Sample,174368,0,"G#4S_Ab4S_s.wav",70
Sample,174368,0,"B4S_s.wav",70
Sample,174582,0,"A#4S_Bb4S_s.wav",70
Sample,175225,0,"G#4S_Ab4S_s.wav",70
Sample,175225,0,"A#4S_Bb4S_s.wav",70
Sample,176082,0,"F#4S_Gb4S_s.wav",70
Sample,176082,0,"G#4S_Ab4S_s.wav",70
Sample,176082,0,"C#5S_Db5S_s.wav",70
Sample,176511,0,"F#3S_Gb3S_s.wav",70
Sample,176939,0,"B4S_s.wav",70
Sample,177797,0,"C#5S_Db5S_s.wav",70
Sample,177797,0,"G5S_s.wav",70
Sample,178654,0,"A#4S_Bb4S_s.wav",70
Sample,178654,0,"D#5S_Eb5S_s.wav",70
Sample,179511,0,"A#4S_Bb4S_s.wav",70
Sample,179511,0,"D#5S_Eb5S_s.wav",70
Sample,180368,0,"B4S_s.wav",70
Sample,180368,0,"D#5S_Eb5S_s.wav",70
Sample,180368,0,"F#5S_Gb5S_s.wav",70
Sample,181225,0,"D#5S_Eb5S_s.wav",70
Sample,181225,0,"F#5S_Gb5S_s.wav",70
Sample,181654,0,"G#3S_Ab3S_s.wav",70
Sample,181654,0,"D#4S_Eb4S_s.wav",70
Sample,182082,0,"D#5S_Eb5S_s.wav",70
Sample,182082,0,"F#5S_Gb5S_s.wav",70
Sample,182939,0,"D#5S_Eb5S_s.wav",70
Sample,182939,0,"F#5S_Gb5S_s.wav",70
Sample,183368,0,"D#4S_Eb4S_s.wav",70
Sample,183797,0,"D5S_s.wav",70
Sample,183797,0,"F#5S_Gb5S_s.wav",70
Sample,184654,0,"B4S_s.wav",70
Sample,184654,0,"D5S_s.wav",70
Sample,184654,0,"F#5S_Gb5S_s.wav",70
Sample,185511,0,"F#5S_Gb5S_s.wav",70
Sample,186368,0,"B4S_s.wav",70
Sample,186368,0,"G#5S_Ab5S_s.wav",70
Sample,187225,0,"G#4S_Ab4S_s.wav",70
Sample,187225,0,"A#4S_Bb4S_s.wav",70
Sample,188082,0,"G#4S_Ab4S_s.wav",70
Sample,188082,0,"B4S_s.wav",70
Sample,188297,0,"A#4S_Bb4S_s.wav",70
Sample,188511,0,"F#3S_Gb3S_s.wav",70
Sample,188511,0,"C#4S_Db4S_s.wav",70
Sample,188939,0,"G#4S_Ab4S_s.wav",70
Sample,188939,0,"A#4S_Bb4S_s.wav",70
Sample,189797,0,"F#4S_Gb4S_s.wav",70
Sample,189797,0,"G#4S_Ab4S_s.wav",70
Sample,189797,0,"C#5S_Db5S_s.wav",70
Sample,190225,0,"C#4S_Db4S_s.wav",70
Sample,190654,0,"B4S_s.wav",70
Sample,191511,0,"C#5S_Db5S_s.wav",70
Sample,191511,0,"G5S_s.wav",70
Sample,192368,0,"A#4S_Bb4S_s.wav",70
Sample,192368,0,"D#5S_Eb5S_s.wav",70
Sample,193225,0,"A#4S_Bb4S_s.wav",70
Sample,193225,0,"D#5S_Eb5S_s.wav",70
Sample,193654,0,"G3S_s.wav",70
Sample,194082,0,"B4S_s.wav",70
Sample,194082,0,"D#5S_Eb5S_s.wav",70
Sample,194082,0,"F#5S_Gb5S_s.wav",70
Sample,194939,0,"D#5S_Eb5S_s.wav",70
Sample,194939,0,"F#5S_Gb5S_s.wav",70
Sample,195368,0,"G#3S_Ab3S_s.wav",70
Sample,195368,0,"D#4S_Eb4S_s.wav",70
Sample,195797,0,"D#5S_Eb5S_s.wav",70
Sample,195797,0,"F#5S_Gb5S_s.wav",70
Sample,196654,0,"D#5S_Eb5S_s.wav",70
Sample,196654,0,"F#5S_Gb5S_s.wav",70
Sample,197082,0,"D#4S_Eb4S_s.wav",70
Sample,197511,0,"A5S.wav",70
Sample,198881,0,"E5S.wav",70
Sample,200249,0,"F#5S_Gb5S.wav",70
Sample,201053,0,"cymbal_weak.wav",40
Sample,201154,0,"A4S.wav",70
Sample,201168,0,"cymbal_weak.wav",40
Sample,201218,0,"E5S.wav",70
Sample,201533,0,"A5S.wav",70
Sample,202608,0,"A4S.wav",70
Sample,202782,0,"B4S.wav",70
Sample,202956,0,"C#5S_Db5S.wav",70
Sample,203131,0,"D5S.wav",70
Sample,203275,0,"E5S.wav",70
Sample,203449,0,"F#5S_Gb5S.wav",70
Sample,203623,0,"A5S.wav",50
Sample,203821,0,"B5S.wav",50
Sample,204112,0,"C#6S_Db6S.wav",50
Sample,204397,0,"D6S.wav",50
Sample,204683,0,"E6S.wav",50
Sample,205077,0,"A6S.wav",50
Sample,205472,0,"B6S.wav",50
Sample,206007,0,"E7S.wav",40
Sample,207059,0,"A7S.wav",45

[TimingPoints]
368,857.142857142857,4,2,1,50,1,0
55225,-100.0,4,2,1,50,0,1
82653,-100.0,4,2,1,50,0,0
116939,-100.0,4,2,1,50,0,1
156153,-100.0,4,2,1,50,0,0
159797,857.142857142857,4,2,1,50,1,0
173511,-100.0,4,2,1,50,0,1
197511,923.076923076923,4,2,1,50,1,0
197511,-92.5925925925926,4,2,1,50,0,0
198434,895.522388059701,4,2,1,50,1,0
198434,-96.1538461538461,4,2,1,50,0,0
198881,923.076923076923,4,2,1,50,1,0
198881,-92.5925925925926,4,2,1,50,0,0
199802,895.522388059702,4,2,1,50,1,0
199802,-96.1538461538461,4,2,1,50,0,0
200249,1034.48275862069,4,2,1,50,1,0
200249,-82.6446280991736,4,2,1,50,0,0
201283,800.0,4,2,1,50,1,0
201283,-107.52688172043,4,2,1,50,0,0
202083,1052.63157894737,4,2,1,50,1,0
202083,-81.3008130081301,4,2,1,50,0,0
202608,697.674418604652,4,2,1,50,1,0
202608,-123.456790123457,4,2,1,50,0,0
203131,576.923076923077,4,2,1,50,1,0
203131,-149.253731343284,4,2,1,50,0,0
203275,697.674418604651,4,2,1,50,1,0
203275,-123.456790123457,4,2,1,50,0,0
203623,789.473684210526,4,2,1,50,1,0
203623,-108.695652173913,4,2,1,50,0,0
203821,582.524271844661,4,2,1,50,1,0
203821,-147.058823529412,4,2,1,50,0,0
204112,571.428571428572,4,2,1,50,1,0
204112,-149.253731343284,4,2,1,50,0,0
204683,789.473684210528,4,2,1,50,1,0
204683,-108.695652173913,4,2,1,50,0,0
205472,1071.42857142857,4,2,1,50,1,0
205472,-80.0,4,2,1,50,0,0
206007,1052.63157894737,4,2,1,50,1,0
206007,-81.3008130081301,4,2,1,50,0,0
207059,1052.63157894737,4,2,1,50,1,0
207059,-81.3008130081301,4,2,1,50,0,0

[HitObjects]
64,192,368,1,0,0:0:0:50:F#5R_Gb5R.wav
192,192,368,1,0,0:0:0:50:C#6R_Db6R.wav
320,192,1225,1,0,0:0:0:50:C#6R_Db6R.wav
320,192,1868,1,0,0:0:0:50:C#6R_Db6R.wav
320,192,2510,1,0,0:0:0:50:C#6R_Db6R.wav
320,192,3153,1,0,0:0:0:50:C#6R_Db6R.wav
192,192,3796,1,0,0:0:0:50:E5R.wav
448,192,3796,1,0,0:0:0:50:B5R.wav
192,192,4653,1,0,0:0:0:50:B5R.wav
192,192,5296,1,0,0:0:0:50:B5R.wav
192,192,5939,1,0,0:0:0:50:B5R.wav
448,192,6367,1,0,0:0:0:50:C#8R_Db8R.wav
192,192,6582,1,0,0:0:0:30:D#8R_Eb8R.wav
320,192,6796,1,0,0:0:0:50:E8R.wav
64,192,7225,1,0,0:0:0:50:F8R.wav
448,192,7225,1,0,0:0:0:50:F#5R_Gb5R.wav
448,192,8082,1,0,0:0:0:50:C#6R_Db6R.wav
192,192,8510,1,0,0:0:0:50:A#8R_Bb8R.wav
448,192,8725,1,0,0:0:0:50:C#6R_Db6R.wav
448,192,9367,1,0,0:0:0:50:C#6R_Db6R.wav
64,192,9796,1,0,0:0:0:50:F8R.wav
448,192,10010,1,0,0:0:0:50:C#6R_Db6R.wav
192,192,10653,1,0,0:0:0:25:D#8R_Eb8R.wav
320,192,10653,128,0,13225:0:0:0:50:E5R.wav
64,192,13225,1,0,0:0:0:30:C#4R_Db4R.wav
192,192,13439,1,0,0:0:0:30:D#4R_Eb4R.wav
320,192,13653,1,0,0:0:0:30:E4R.wav
64,192,14082,128,0,14939:0:0:0:50:F#4R_Gb4R.wav
448,192,14082,1,0,0:0:0:50:C#5R_Db5R.wav
320,192,14939,1,0,0:0:0:50:C#5R_Db5R.wav
192,192,15153,1,0,0:0:0:0:
64,192,15367,1,0,0:0:0:25:F#4R_Gb4R.wav
448,192,15582,1,0,0:0:0:50:C#5R_Db5R.wav
320,192,15796,128,0,16225:0:0:0:0:
64,192,16225,1,0,0:0:0:50:C#5R_Db5R.wav
448,192,16439,128,0,16867:0:0:0:0:
64,192,16867,1,0,0:0:0:50:C#5R_Db5R.wav
192,192,17082,1,0,0:0:0:0:
320,192,17510,128,0,17939:0:0:0:50:E4R.wav
64,192,17939,1,0,0:0:0:0:
192,192,18153,128,0,18582:0:0:0:0:
448,192,18582,1,0,0:0:0:0:
64,192,18796,128,0,19653:0:0:0:25:E4R.wav
192,192,19010,128,0,19653:0:0:0:50:B4R.wav
320,192,19653,1,0,0:0:0:50:B4R.wav
320,192,20296,1,0,0:0:0:50:B4R.wav
448,192,20939,128,0,21796:0:0:0:50:F#4R_Gb4R.wav
64,192,21796,1,0,0:0:0:50:C#5R_Db5R.wav
192,192,22010,1,0,0:0:0:0:
448,192,22225,1,0,0:0:0:25:F#4R_Gb4R.wav
64,192,22439,1,0,0:0:0:50:C#5R_Db5R.wav
320,192,22653,128,0,23082:0:0:0:0:
192,192,23082,1,0,0:0:0:50:C#5R_Db5R.wav
64,192,23296,128,0,23725:0:0:0:0:
448,192,23725,1,0,0:0:0:50:C#5R_Db5R.wav
192,192,23939,1,0,0:0:0:0:
320,192,24153,1,0,0:0:0:0:
192,192,24367,128,0,25225:0:0:0:50:E4R.wav
64,192,24582,128,0,25225:0:0:0:0:
448,192,25225,1,0,0:0:0:50:B4R.wav
448,192,25867,1,0,0:0:0:50:B4R.wav
448,192,26510,1,0,0:0:0:50:B4R.wav
64,192,26939,1,0,0:0:0:50:C#8R_Db8R.wav
192,192,27153,1,0,0:0:0:50:D#8R_Eb8R.wav
320,192,27367,1,0,0:0:0:50:E8R.wav
64,192,27796,128,0,28653:0:0:0:50:F8R.wav
320,192,28653,1,0,0:0:0:50:C#5R_Db5R.wav
448,192,28867,1,0,0:0:0:0:
192,192,29082,1,0,0:0:0:25:F#4R_Gb4R.wav
320,192,29296,1,0,0:0:0:50:C#5R_Db5R.wav
64,192,29510,128,0,29939:0:0:0:0:
192,192,29939,1,0,0:0:0:50:C#5R_Db5R.wav
448,192,30153,128,0,30582:0:0:0:0:
64,192,30582,1,0,0:0:0:50:C#5R_Db5R.wav
192,192,30796,128,0,31225:0:0:0:0:
320,192,31225,128,0,31653:0:0:0:25:D#8R_Eb8R.wav
64,192,31653,1,0,0:0:0:0:
448,192,31867,128,0,32296:0:0:0:0:
192,192,32296,1,0,0:0:0:0:
64,192,32510,128,0,33367:0:0:0:25:E4R.wav
448,192,32725,128,0,33367:0:0:0:50:B4R.wav
192,192,33367,1,0,0:0:0:50:B4R.wav
192,192,34010,1,0,0:0:0:50:B4R.wav
448,192,34225,1,0,0:0:0:50:F#8R_Gb8R.wav
64,192,34439,1,0,0:0:0:50:G#8R_Ab8R.wav
320,192,34653,128,0,35082:0:0:0:50:A8R.wav
192,192,35082,128,0,35510:0:0:0:0:
320,192,35510,128,0,35939:0:0:0:50:F#5R_Gb5R.wav
64,192,35939,128,0,36367:0:0:0:0:
192,192,36367,128,0,36796:0:0:0:0:
448,192,36796,128,0,37225:0:0:0:50:F#5R_Gb5R.wav
64,192,37225,1,0,0:0:0:50:F#8R_Gb8R.wav
192,192,37653,128,0,38082:0:0:0:0:
320,192,38082,128,0,38939:0:0:0:50:C#4R_Db4R.wav
192,192,38939,1,0,0:0:0:50:B4R.wav
64,192,39582,1,0,0:0:0:50:B4R.wav
192,192,41082,128,0,41296:0:0:0:0:
320,192,41296,128,0,41510:0:0:0:0:
64,192,41510,1,0,0:0:0:50:A#8R_Bb8R.wav
448,192,41510,128,0,41939:0:0:0:50:G#3R_Ab3R.wav
192,192,41939,128,0,42153:0:0:0:0:
320,192,42153,128,0,42367:0:0:0:0:
64,192,42367,128,0,42796:0:0:0:50:snare.wav
192,192,42367,1,0,0:0:0:50:A#8R_Bb8R.wav
448,192,42796,128,0,43010:0:0:0:0:
192,192,43010,128,0,43225:0:0:0:50:B4R.wav
320,192,43225,128,0,43653:0:0:0:0:
64,192,43653,128,0,43867:0:0:0:50:B4R.wav
448,192,43867,128,0,44082:0:0:0:0:
64,192,44082,1,0,0:0:0:50:snare.wav
192,192,44082,1,0,0:0:0:50:F#8R_Gb8R.wav
320,192,44296,128,0,44510:0:0:0:50:B4R.wav
448,192,44510,1,0,0:0:0:0:
320,192,44725,128,0,44939:0:0:0:0:
64,192,44939,1,0,0:0:0:50:F8R.wav
448,192,44939,1,0,0:0:0:50:F#3R_Gb3R.wav
192,192,45153,128,0,45367:0:0:0:0:
320,192,45367,1,0,0:0:0:0:
64,192,45796,1,0,0:0:0:50:snare.wav
448,192,45796,1,0,0:0:0:50:C#5R_Db5R.wav
64,192,46439,1,0,0:0:0:25:D#3R_Eb3R.wav
320,192,46653,1,0,0:0:0:0:
64,192,47082,1,0,0:0:0:50:C#5R_Db5R.wav
320,192,47510,1,0,0:0:0:50:snare.wav
448,192,47510,1,0,0:0:0:0:
192,192,47939,128,0,48153:0:0:0:0:
320,192,48153,128,0,48367:0:0:0:0:
64,192,48367,128,0,48796:0:0:0:50:A8R.wav
448,192,48367,1,0,0:0:0:50:B3R.wav
320,192,48796,128,0,49010:0:0:0:0:
192,192,49010,128,0,49225:0:0:0:0:
320,192,49225,1,0,0:0:0:50:snare.wav
448,192,49225,128,0,49653:0:0:0:50:A8R.wav
64,192,49653,128,0,49867:0:0:0:0:
320,192,49867,128,0,50082:0:0:0:50:F#5R_Gb5R.wav
192,192,50082,128,0,50510:0:0:0:50:G#8R_Ab8R.wav
64,192,50510,128,0,50939:0:0:0:50:F#5R_Gb5R.wav
320,192,50939,1,0,0:0:0:50:snare.wav
448,192,50939,1,0,0:0:0:50:F#8R_Gb8R.wav
320,192,51367,128,0,51796:0:0:0:0:
64,192,51796,1,0,0:0:0:50:C#8R_Db8R.wav
448,192,51796,128,0,53082:0:0:0:50:C#4R_Db4R.wav
320,192,54153,1,0,0:0:0:0:
64,192,54367,128,0,54796:0:0:0:0:
448,192,54796,128,0,55010:0:0:0:0:
64,192,55010,128,0,55225:0:0:0:0:
320,192,55225,1,0,0:0:0:70:cymbal.wav
448,192,55225,128,0,56082:0:0:0:50:F#4S_Gb4S_s.wav
192,192,55653,1,0,0:0:0:0:
64,192,56082,1,0,0:0:0:70:snare.wav
320,192,56082,1,0,0:0:0:70:F#4S_Gb4S_s.wav
448,192,56510,1,0,0:0:0:0:
64,192,56939,128,0,57153:0:0:0:70:F#4S_Gb4S_s.wav
320,192,57153,128,0,57367:0:0:0:0:
192,192,57367,128,0,57582:0:0:0:0:
64,192,57582,128,0,58010:0:0:0:0:
448,192,57796,1,0,0:0:0:70:snare.wav
320,192,58010,128,0,58225:0:0:0:0:
448,192,58225,128,0,58653:0:0:0:70:C#3S_Db3S_s.wav
192,192,58653,128,0,59510:0:0:0:70:E4S_s.wav
320,192,59082,1,0,0:0:0:0:
64,192,59510,1,0,0:0:0:70:snare.wav
448,192,59510,1,0,0:0:0:70:A#4S_Bb4S_s.wav
192,192,59939,1,0,0:0:0:70:D#4S_Eb4S_s.wav
320,192,60367,128,0,60582:0:0:0:70:G3S_s.wav
64,192,60582,128,0,60796:0:0:0:0:
192,192,60796,128,0,61010:0:0:0:0:
448,192,61010,128,0,61439:0:0:0:0:
64,192,61225,1,0,0:0:0:70:snare.wav
320,192,61439,128,0,61653:0:0:0:0:
192,192,61653,128,0,62082:0:0:0:70:G3S_s.wav
448,192,62082,128,0,62296:0:0:0:70:G#3S_Ab3S_s.wav
64,192,62510,128,0,62725:0:0:0:0:
448,192,62725,128,0,62939:0:0:0:0:
64,192,62939,1,0,0:0:0:70:snare.wav
192,192,62939,1,0,0:0:0:70:B4S_s.wav
320,192,63153,128,0,63582:0:0:0:0:
64,192,63582,128,0,64225:0:0:0:0:
448,192,63796,1,0,0:0:0:70:B4S_s.wav
320,192,64225,128,0,64653:0:0:0:0:
64,192,64653,1,0,0:0:0:70:snare.wav
192,192,64653,1,0,0:0:0:70:B4S_s.wav
448,192,65082,1,0,0:0:0:70:G#3S_Ab3S_s.wav
192,192,65510,128,0,65939:0:0:0:70:B4S_s.wav
320,192,65939,128,0,66153:0:0:0:0:
64,192,66153,128,0,66582:0:0:0:0:
448,192,66367,1,0,0:0:0:70:snare.wav
320,192,66582,128,0,67010:0:0:0:0:
448,192,67010,128,0,67439:0:0:0:0:
192,192,67225,1,0,0:0:0:70:B4S_s.wav
64,192,67439,128,0,67653:0:0:0:0:
320,192,67867,128,0,68296:0:0:0:0:
64,192,68082,1,0,0:0:0:70:snare.wav
192,192,68296,128,0,68725:0:0:0:0:
448,192,68725,128,0,68939:0:0:0:0:
64,192,68939,128,0,69796:0:0:0:70:F#4S_Gb4S_s.wav
320,192,69367,1,0,0:0:0:0:
192,192,69796,1,0,0:0:0:70:snare.wav
448,192,69796,1,0,0:0:0:70:F#4S_Gb4S_s.wav
64,192,70225,1,0,0:0:0:70:F#3S_Gb3S_s.wav
448,192,70653,128,0,70867:0:0:0:70:F#4S_Gb4S_s.wav
192,192,70867,128,0,71082:0:0:0:0:
320,192,71082,128,0,71296:0:0:0:0:
448,192,71296,128,0,71725:0:0:0:0:
64,192,71510,1,0,0:0:0:70:snare.wav
192,192,71725,128,0,71939:0:0:0:0:
64,192,71939,128,0,72367:0:0:0:70:F#3S_Gb3S_s.wav
320,192,72367,128,0,73225:0:0:0:70:E4S_s.wav
192,192,72796,1,0,0:0:0:0:
64,192,73225,1,0,0:0:0:70:snare.wav
448,192,73225,1,0,0:0:0:70:A#4S_Bb4S_s.wav
320,192,73653,128,0,73867:0:0:0:70:D#4S_Eb4S_s.wav
192,192,73867,128,0,74082:0:0:0:0:
448,192,74082,128,0,74510:0:0:0:70:G3S_s.wav
320,192,74510,128,0,74725:0:0:0:0:
64,192,74725,128,0,75153:0:0:0:0:
448,192,74939,1,0,0:0:0:70:snare.wav
192,192,75153,128,0,75582:0:0:0:0:
448,192,75582,128,0,75796:0:0:0:0:
64,192,75796,128,0,76225:0:0:0:70:G#3S_Ab3S_s.wav
320,192,76225,128,0,76439:0:0:0:0:
448,192,76439,128,0,76653:0:0:0:0:
64,192,76653,1,0,0:0:0:70:snare.wav
192,192,76653,1,0,0:0:0:70:B4S_s.wav
320,192,76867,128,0,77296:0:0:0:0:
448,192,77296,128,0,77510:0:0:0:0:
64,192,77510,128,0,77939:0:0:0:70:B4S_s.wav
320,192,77939,1,0,0:0:0:0:
192,192,78153,1,0,0:0:0:0:
64,192,78367,1,0,0:0:0:70:snare.wav
448,192,78367,1,0,0:0:0:70:B4S_s.wav
192,192,78796,128,0,79010:0:0:0:70:G#3S_Ab3S_s.wav
320,192,79010,128,0,79225:0:0:0:0:
64,192,79225,128,0,79653:0:0:0:70:D5S.wav
448,192,79653,128,0,79867:0:0:0:0:
320,192,79867,128,0,80082:0:0:0:0:
64,192,80082,1,0,0:0:0:70:snare.wav
192,192,80082,1,0,0:0:0:70:B4S.wav
192,192,80510,128,0,80725:0:0:0:70:B4S.wav
320,192,80725,128,0,80939:0:0:0:0:
64,192,80939,1,0,0:0:0:0:
192,192,81367,128,0,81796:0:0:0:0:
64,192,81796,128,0,82653:0:0:0:70:snare.wav
448,192,81796,1,0,0:0:0:70:B4S.wav
192,192,82225,1,0,0:0:0:0:
320,192,82653,1,0,0:0:0:70:cymbal.wav
448,192,82653,128,0,84367:0:0:0:70:E5S.wav
320,192,86082,1,0,0:0:0:70:cymbal_weak.wav
64,192,86939,1,0,0:0:0:50:D5R.wav
192,192,87367,1,0,0:0:0:50:E4R.wav
320,192,87796,1,0,0:0:0:30:cymbal_weak.wav
448,192,88653,128,0,89510:0:0:0:30:cymbal_weak.wav
64,192,89510,1,0,0:0:0:50:F#4R_Gb4R.wav
320,192,90367,1,0,0:0:0:50:snare.wav
192,192,90582,1,0,0:0:0:0:
64,192,90796,1,0,0:0:0:25:F#4R_Gb4R.wav
448,192,91010,1,0,0:0:0:50:C#5R_Db5R.wav
320,192,91225,128,0,91653:0:0:0:0:
192,192,91653,1,0,0:0:0:50:C#5R_Db5R.wav
448,192,91867,128,0,92296:0:0:0:0:
64,192,92082,1,0,0:0:0:50:snare.wav
320,192,92296,1,0,0:0:0:50:C#5R_Db5R.wav
192,192,92510,1,0,0:0:0:0:
320,192,92939,128,0,93367:0:0:0:50:E4R.wav
64,192,93367,1,0,0:0:0:0:
192,192,93582,128,0,94010:0:0:0:0:
448,192,93796,1,0,0:0:0:50:snare.wav
64,192,94010,1,0,0:0:0:0:
320,192,94225,128,0,95082:0:0:0:25:E4R.wav
192,192,94439,128,0,95082:0:0:0:50:B4R.wav
448,192,95082,1,0,0:0:0:50:B4R.wav
192,192,95510,1,0,0:0:0:50:snare.wav
320,192,95725,1,0,0:0:0:50:B4R.wav
64,192,95939,128,0,96367:0:0:0:0:
448,192,96367,128,0,97010:0:0:0:50:F#4R_Gb4R.wav
320,192,97010,128,0,97439:0:0:0:0:
64,192,97225,1,0,0:0:0:50:snare.wav
448,192,97439,1,0,0:0:0:0:
192,192,97653,1,0,0:0:0:25:F#4R_Gb4R.wav
64,192,97867,1,0,0:0:0:50:C#5R_Db5R.wav
320,192,98082,128,0,98510:0:0:0:0:
192,192,98510,1,0,0:0:0:50:C#5R_Db5R.wav
64,192,98725,128,0,99153:0:0:0:0:
320,192,98939,1,0,0:0:0:50:snare.wav
192,192,99153,1,0,0:0:0:50:C#5R_Db5R.wav
448,192,99367,1,0,0:0:0:0:
64,192,99582,1,0,0:0:0:0:
448,192,99796,128,0,100653:0:0:0:50:E4R.wav
320,192,100010,128,0,100653:0:0:0:0:
192,192,100653,1,0,0:0:0:50:snare.wav
192,192,101296,1,0,0:0:0:50:B4R.wav
192,192,101939,1,0,0:0:0:50:B4R.wav
64,192,102367,1,0,0:0:0:50:snare.wav
192,192,102582,1,0,0:0:0:50:D#8R_Eb8R.wav
320,192,102796,1,0,0:0:0:50:E8R.wav
64,192,103225,128,0,104082:0:0:0:50:F8R.wav
320,192,104082,1,0,0:0:0:50:snare.wav
448,192,104296,1,0,0:0:0:0:
192,192,104510,1,0,0:0:0:25:F#4R_Gb4R.wav
320,192,104725,1,0,0:0:0:50:C#5R_Db5R.wav
64,192,104939,128,0,105367:0:0:0:0:
192,192,105367,1,0,0:0:0:50:C#5R_Db5R.wav
448,192,105582,128,0,106010:0:0:0:0:
64,192,105796,1,0,0:0:0:50:snare.wav
320,192,106010,1,0,0:0:0:50:C#5R_Db5R.wav
192,192,106225,128,0,106653:0:0:0:0:
320,192,106653,128,0,107082:0:0:0:25:D#8R_Eb8R.wav
64,192,107082,1,0,0:0:0:0:
448,192,107296,128,0,107725:0:0:0:0:
192,192,107510,1,0,0:0:0:50:snare.wav
320,192,107725,1,0,0:0:0:0:
64,192,107939,128,0,108796:0:0:0:25:E4R.wav
448,192,108153,128,0,108796:0:0:0:50:B4R.wav
192,192,108796,1,0,0:0:0:50:B4R.wav
320,192,109225,1,0,0:0:0:50:snare.wav
192,192,109439,1,0,0:0:0:50:B4R.wav
448,192,109653,1,0,0:0:0:50:F#8R_Gb8R.wav
64,192,109867,1,0,0:0:0:50:G#8R_Ab8R.wav
320,192,110082,128,0,110510:0:0:0:50:A8R.wav
192,192,110510,128,0,110939:0:0:0:0:
320,192,110939,128,0,111367:0:0:0:50:snare.wav
64,192,111367,128,0,111796:0:0:0:0:
192,192,111796,128,0,112225:0:0:0:0:
448,192,112225,128,0,112653:0:0:0:50:F#5R_Gb5R.wav
64,192,112653,1,0,0:0:0:50:snare.wav
192,192,113082,128,0,113510:0:0:0:0:
320,192,113510,128,0,116082:0:0:0:50:C#4R_Db4R.wav
64,192,114367,128,0,115225:0:0:0:0:
448,192,115225,128,0,116082:0:0:0:70:B4S_s.wav
64,192,116082,128,0,116510:0:0:0:40:cymbal.wav
448,192,116510,128,0,116725:0:0:0:0:
64,192,116725,128,0,116939:0:0:0:0:
320,192,116939,1,0,0:0:0:70:cymbal.wav
448,192,116939,128,0,117796:0:0:0:70:F#4S_Gb4S_s.wav
192,192,117367,1,0,0:0:0:0:
64,192,117796,1,0,0:0:0:70:snare.wav
320,192,117796,1,0,0:0:0:70:F#4S_Gb4S_s.wav
448,192,118225,1,0,0:0:0:0:
64,192,118653,128,0,118867:0:0:0:70:F#4S_Gb4S_s.wav
320,192,118867,128,0,119082:0:0:0:0:
192,192,119082,128,0,119296:0:0:0:0:
64,192,119296,128,0,119725:0:0:0:0:
448,192,119510,1,0,0:0:0:70:snare.wav
320,192,119725,128,0,119939:0:0:0:0:
448,192,119939,128,0,120367:0:0:0:70:C#3S_Db3S_s.wav
192,192,120367,128,0,121225:0:0:0:70:E4S_s.wav
320,192,120796,1,0,0:0:0:0:
64,192,121225,1,0,0:0:0:70:snare.wav
448,192,121225,1,0,0:0:0:70:A#4S_Bb4S_s.wav
192,192,121653,1,0,0:0:0:70:D#4S_Eb4S_s.wav
320,192,122082,128,0,122296:0:0:0:70:G3S_s.wav
64,192,122296,128,0,122510:0:0:0:0:
192,192,122510,128,0,122725:0:0:0:0:
448,192,122725,128,0,123153:0:0:0:0:
64,192,122939,1,0,0:0:0:70:snare.wav
320,192,123153,128,0,123367:0:0:0:0:
192,192,123367,128,0,123796:0:0:0:70:G3S_s.wav
448,192,123796,128,0,124010:0:0:0:70:G#3S_Ab3S_s.wav
64,192,124225,128,0,124439:0:0:0:0:
448,192,124439,128,0,124653:0:0:0:0:
64,192,124653,1,0,0:0:0:70:snare.wav
192,192,124653,1,0,0:0:0:70:B4S_s.wav
320,192,124867,128,0,125296:0:0:0:0:
64,192,125296,128,0,125939:0:0:0:0:
448,192,125510,1,0,0:0:0:70:B4S_s.wav
320,192,125939,128,0,126367:0:0:0:0:
64,192,126367,1,0,0:0:0:70:snare.wav
192,192,126367,1,0,0:0:0:70:B4S_s.wav
448,192,126796,1,0,0:0:0:70:G#3S_Ab3S_s.wav
192,192,127225,128,0,127653:0:0:0:70:B4S_s.wav
320,192,127653,128,0,127867:0:0:0:0:
64,192,127867,128,0,128296:0:0:0:0:
448,192,128082,1,0,0:0:0:70:snare.wav
320,192,128296,128,0,128725:0:0:0:0:
448,192,128725,128,0,129153:0:0:0:0:
192,192,128939,1,0,0:0:0:70:B4S_s.wav
64,192,129153,128,0,129367:0:0:0:0:
320,192,129582,128,0,130010:0:0:0:0:
64,192,129796,1,0,0:0:0:70:snare.wav
192,192,130010,128,0,130439:0:0:0:0:
448,192,130439,128,0,130653:0:0:0:0:
64,192,130653,128,0,131510:0:0:0:70:F#4S_Gb4S_s.wav
320,192,131082,1,0,0:0:0:0:
192,192,131510,1,0,0:0:0:70:snare.wav
448,192,131510,1,0,0:0:0:70:F#4S_Gb4S_s.wav
64,192,131939,1,0,0:0:0:70:F#3S_Gb3S_s.wav
448,192,132367,128,0,132582:0:0:0:70:F#4S_Gb4S_s.wav
192,192,132582,128,0,132796:0:0:0:0:
320,192,132796,128,0,133010:0:0:0:0:
448,192,133010,128,0,133439:0:0:0:0:
64,192,133225,1,0,0:0:0:70:snare.wav
192,192,133439,128,0,133653:0:0:0:0:
64,192,133653,128,0,134082:0:0:0:70:F#3S_Gb3S_s.wav
320,192,134082,128,0,134939:0:0:0:70:E4S_s.wav
192,192,134510,1,0,0:0:0:0:
64,192,134939,1,0,0:0:0:70:snare.wav
448,192,134939,1,0,0:0:0:70:A#4S_Bb4S_s.wav
320,192,135367,128,0,135582:0:0:0:70:D#4S_Eb4S_s.wav
192,192,135582,128,0,135796:0:0:0:0:
448,192,135796,128,0,136225:0:0:0:70:G3S_s.wav
320,192,136225,128,0,136439:0:0:0:0:
64,192,136439,128,0,136867:0:0:0:0:
448,192,136653,1,0,0:0:0:70:snare.wav
192,192,136867,128,0,137296:0:0:0:0:
448,192,137296,128,0,137510:0:0:0:0:
64,192,137510,128,0,137939:0:0:0:70:G#3S_Ab3S_s.wav
320,192,137939,128,0,138153:0:0:0:0:
448,192,138153,128,0,138367:0:0:0:0:
64,192,138367,1,0,0:0:0:70:snare.wav
192,192,138367,1,0,0:0:0:70:B4S_s.wav
320,192,138582,128,0,139010:0:0:0:0:
448,192,139010,128,0,139225:0:0:0:0:
64,192,139225,128,0,139653:0:0:0:70:B4S_s.wav
320,192,139653,1,0,0:0:0:0:
192,192,139867,1,0,0:0:0:0:
64,192,140082,1,0,0:0:0:70:snare.wav
448,192,140082,1,0,0:0:0:70:B4S_s.wav
192,192,140510,128,0,140725:0:0:0:70:G#3S_Ab3S_s.wav
320,192,140725,128,0,140939:0:0:0:0:
64,192,140939,128,0,141367:0:0:0:70:D5S.wav
448,192,141367,128,0,141582:0:0:0:0:
320,192,141582,128,0,141796:0:0:0:0:
64,192,141796,1,0,0:0:0:70:snare.wav
192,192,141796,1,0,0:0:0:70:B4S.wav
192,192,142225,128,0,142439:0:0:0:70:B4S.wav
320,192,142439,128,0,142653:0:0:0:0:
64,192,142653,1,0,0:0:0:70:C#4S_Db4S.wav
192,192,143082,128,0,143510:0:0:0:0:
64,192,143510,128,0,143939:0:0:0:70:snare.wav
448,192,143510,1,0,0:0:0:70:C#5S_Db5S.wav
320,192,143939,128,0,144367:0:0:0:0:
64,192,144367,1,0,0:0:0:70:cymbal.wav
192,192,144367,1,0,0:0:0:70:A5S.wav
448,192,144582,1,0,0:0:0:0:
192,192,145010,1,0,0:0:0:70:G#4S_Ab4S.wav
320,192,145225,1,0,0:0:0:70:snare.wav
448,192,145225,1,0,0:0:0:70:E5S.wav
64,192,145653,1,0,0:0:0:70:C#5S_Db5S.wav
320,192,145867,128,0,146510:0:0:0:0:
192,192,146082,1,0,0:0:0:0:
64,192,146510,1,0,0:0:0:0:
192,192,146725,1,0,0:0:0:0:
320,192,146939,1,0,0:0:0:70:snare.wav
448,192,146939,1,0,0:0:0:0:
64,192,147153,1,0,0:0:0:0:
320,192,147367,1,0,0:0:0:0:
192,192,147582,1,0,0:0:0:0:
64,192,147796,128,0,148439:0:0:0:70:D5S.wav
448,192,148010,1,0,0:0:0:0:
192,192,148439,1,0,0:0:0:70:B4S.wav
320,192,148653,1,0,0:0:0:70:snare.wav
448,192,148653,1,0,0:0:0:0:
64,192,148867,1,0,0:0:0:70:B4S.wav
192,192,149082,128,0,149510:0:0:0:0:
448,192,149296,1,0,0:0:0:70:C#4S_Db4S.wav
320,192,149510,128,0,150367:0:0:0:0:
192,192,149939,1,0,0:0:0:0:
64,192,150367,1,0,0:0:0:70:snare.wav
448,192,150367,1,0,0:0:0:0:
320,192,150796,1,0,0:0:0:0:
64,192,151225,128,0,151653:0:0:0:70:D5S.wav
448,192,151439,1,0,0:0:0:0:
320,192,151867,128,0,152296:0:0:0:70:B4S.wav
192,192,152082,1,0,0:0:0:70:snare.wav
192,192,152510,128,0,152725:0:0:0:0:
64,192,152725,128,0,153153:0:0:0:70:G#4S_Ab4S.wav
448,192,152939,1,0,0:0:0:0:
320,192,153153,128,0,153367:0:0:0:0:
192,192,153367,128,0,153582:0:0:0:0:
320,192,153582,1,0,0:0:0:70:C#5S_Db5S.wav
64,192,153796,1,0,0:0:0:70:snare.wav
448,192,153796,128,0,154225:0:0:0:0:
192,192,154653,128,0,155082:0:0:0:70:B4S.wav
448,192,155082,128,0,155296:0:0:0:0:
64,192,155296,128,0,155725:0:0:0:0:
320,192,155510,1,0,0:0:0:70:snare.wav
448,192,155725,128,0,155939:0:0:0:0:
192,192,155939,128,0,156153:0:0:0:0:
320,192,156153,128,0,156582:0:0:0:50:B4R.wav
64,192,156582,128,0,158082:0:0:0:0:
192,192,159367,1,0,0:0:0:0:
320,192,159582,1,0,0:0:0:0:
64,192,159797,1,0,0:0:0:30:cymbal.wav
448,192,159797,128,0,160225:0:0:0:40:B5R.wav
192,192,160225,1,0,0:0:0:0:
320,192,160439,1,0,0:0:0:0:
64,192,160654,128,0,161082:0:0:0:0:
448,192,161082,1,0,0:0:0:0:
192,192,161297,1,0,0:0:0:0:
320,192,161511,128,0,161939:0:0:0:40:D#6R_Eb6R.wav
64,192,161939,1,0,0:0:0:0:
448,192,162154,1,0,0:0:0:0:
192,192,162368,1,0,0:0:0:0:
320,192,162582,128,0,163011:0:0:0:0:
448,192,163011,128,0,163439:0:0:0:0:
64,192,163225,1,0,0:0:0:40:F#5R_Gb5R.wav
192,192,163439,1,0,0:0:0:0:
448,192,164082,1,0,0:0:0:0:
64,192,164939,1,0,0:0:0:40:D#4R_Eb4R.wav
320,192,165797,1,0,0:0:0:40:C#5R_Db5R.wav
192,192,166225,128,0,166439:0:0:0:0:
320,192,166439,128,0,166654:0:0:0:0:
64,192,166654,128,0,167082:0:0:0:50:cymbal_weak.wav
448,192,166654,1,0,0:0:0:50:F#5R_Gb5R.wav
320,192,167082,128,0,167297:0:0:0:0:
192,192,167297,128,0,167511:0:0:0:0:
320,192,167511,1,0,0:0:0:0:
448,192,167511,128,0,167939:0:0:0:0:
64,192,167939,128,0,168154:0:0:0:0:
320,192,168154,128,0,168368:0:0:0:0:
192,192,168368,128,0,168797:0:0:0:50:B2R.wav
64,192,168797,128,0,169225:0:0:0:0:
320,192,169225,1,0,0:0:0:0:
448,192,169225,1,0,0:0:0:0:
320,192,169654,128,0,170082:0:0:0:0:
64,192,170082,1,0,0:0:0:50:C#3R_Db3R.wav
448,192,170082,128,0,171797:0:0:0:50:C#5R_Db5R.wav
192,192,170939,1,0,0:0:0:70:cymbal_weak.wav
64,192,171797,1,0,0:0:0:70:cymbal_weak.wav
320,192,172439,1,0,0:0:0:0:
64,192,172654,128,0,173082:0:0:0:0:
448,192,173082,128,0,173297:0:0:0:0:
64,192,173297,128,0,173511:0:0:0:60:C#6R_Db6R.wav
320,192,173511,1,0,0:0:0:70:cymbal.wav
448,192,173511,128,0,174368:0:0:0:70:F#4S_Gb4S_s.wav
192,192,173939,128,0,174368:0:0:0:0:
64,192,174368,128,0,175011:0:0:0:70:snare.wav
320,192,174368,1,0,0:0:0:70:F#4S_Gb4S_s.wav
320,192,174797,1,0,0:0:0:0:
192,192,175011,1,0,0:0:0:0:
448,192,175225,128,0,175439:0:0:0:70:F#4S_Gb4S_s.wav
192,192,175439,128,0,175654:0:0:0:0:
320,192,175654,128,0,175868:0:0:0:0:
64,192,175868,128,0,176297:0:0:0:0:
448,192,176082,1,0,0:0:0:70:snare.wav
192,192,176297,128,0,176511:0:0:0:0:
448,192,176511,128,0,176939:0:0:0:70:C#3S_Db3S_s.wav
192,192,176939,128,0,177368:0:0:0:70:E4S_s.wav
448,192,177368,128,0,177582:0:0:0:0:
192,192,177582,128,0,177797:0:0:0:0:
64,192,177797,1,0,0:0:0:70:snare.wav
448,192,177797,1,0,0:0:0:70:A#4S_Bb4S_s.wav
320,192,178011,128,0,178439:0:0:0:0:
192,192,178225,1,0,0:0:0:70:D#4S_Eb4S_s.wav
448,192,178439,1,0,0:0:0:0:
320,192,178654,128,0,179082:0:0:0:70:G3S_s.wav
64,192,178868,128,0,179082:0:0:0:0:
192,192,179082,128,0,179297:0:0:0:0:
448,192,179297,128,0,179725:0:0:0:0:
64,192,179511,1,0,0:0:0:70:snare.wav
320,192,179725,128,0,179939:0:0:0:0:
192,192,179939,128,0,180368:0:0:0:70:G3S_s.wav
448,192,180368,128,0,180582:0:0:0:70:G#3S_Ab3S_s.wav
64,192,180797,128,0,181011:0:0:0:0:
448,192,181011,128,0,181225:0:0:0:0:
64,192,181225,1,0,0:0:0:70:snare.wav
192,192,181225,1,0,0:0:0:70:B4S_s.wav
320,192,181439,128,0,181868:0:0:0:0:
64,192,181868,128,0,182511:0:0:0:0:
448,192,182082,1,0,0:0:0:70:B4S_s.wav
320,192,182511,128,0,182939:0:0:0:0:
64,192,182939,1,0,0:0:0:70:snare.wav
192,192,182939,128,0,183368:0:0:0:70:B4S_s.wav
448,192,183368,128,0,183582:0:0:0:70:G#3S_Ab3S_s.wav
192,192,183797,128,0,184225:0:0:0:70:B4S_s.wav
320,192,184225,128,0,184439:0:0:0:0:
64,192,184439,128,0,184868:0:0:0:0:
448,192,184654,1,0,0:0:0:70:snare.wav
320,192,184868,128,0,185297:0:0:0:0:
448,192,185297,128,0,185725:0:0:0:0:
192,192,185511,1,0,0:0:0:70:B4S_s.wav
64,192,185725,128,0,185939:0:0:0:0:
320,192,186154,128,0,186582:0:0:0:0:
64,192,186368,1,0,0:0:0:70:snare.wav
192,192,186582,128,0,187011:0:0:0:0:
448,192,187011,128,0,187225:0:0:0:0:
64,192,187225,128,0,188082:0:0:0:70:F#4S_Gb4S_s.wav
320,192,187439,1,0,0:0:0:0:
448,192,187654,1,0,0:0:0:0:
320,192,188082,128,0,188725:0:0:0:70:snare.wav
448,192,188082,1,0,0:0:0:70:F#4S_Gb4S_s.wav
192,192,188725,1,0,0:0:0:0:
448,192,188939,128,0,189154:0:0:0:70:F#4S_Gb4S_s.wav
64,192,189154,128,0,189368:0:0:0:0:
192,192,189368,128,0,189582:0:0:0:0:
448,192,189582,128,0,190011:0:0:0:0:
64,192,189797,1,0,0:0:0:70:snare.wav
320,192,190011,128,0,190225:0:0:0:0:
192,192,190225,128,0,190654:0:0:0:70:F#3S_Gb3S_s.wav
448,192,190654,128,0,191511:0:0:0:70:E4S_s.wav
192,192,191082,1,0,0:0:0:0:
64,192,191511,128,0,191939:0:0:0:70:snare.wav
320,192,191511,1,0,0:0:0:70:A#4S_Bb4S_s.wav
448,192,191939,128,0,192154:0:0:0:70:D#4S_Eb4S_s.wav
192,192,192154,128,0,192368:0:0:0:0:
320,192,192368,128,0,192797:0:0:0:70:G3S_s.wav
448,192,192797,128,0,193011:0:0:0:0:
64,192,193011,128,0,193439:0:0:0:0:
320,192,193225,1,0,0:0:0:70:snare.wav
192,192,193439,128,0,193868:0:0:0:0:
448,192,193868,128,0,194511:0:0:0:0:
64,192,194082,128,0,194511:0:0:0:70:G#3S_Ab3S_s.wav
192,192,194511,128,0,194725:0:0:0:0:
448,192,194725,128,0,194939:0:0:0:0:
64,192,194939,1,0,0:0:0:70:snare.wav
192,192,194939,1,0,0:0:0:70:B4S_s.wav
320,192,195154,128,0,195582:0:0:0:0:
64,192,195582,128,0,196225:0:0:0:0:
448,192,195797,128,0,196225:0:0:0:70:B4S_s.wav
192,192,196225,128,0,196439:0:0:0:0:
320,192,196439,128,0,196654:0:0:0:0:
64,192,196654,1,0,0:0:0:70:snare.wav
448,192,196654,128,0,197082:0:0:0:70:B4S_s.wav
192,192,197082,128,0,197297:0:0:0:70:G#3S_Ab3S_s.wav
64,192,197297,128,0,197511:0:0:0:0:
320,192,197511,128,0,197972:0:0:0:70:D5S.wav
192,192,198434,128,0,198881:0:0:0:70:B4S.wav
448,192,198881,128,0,199342:0:0:0:70:B4S.wav
192,192,199802,128,0,200249:0:0:0:0:
320,192,200249,128,0,201283:0:0:0:70:B4S.wav
64,192,201283,1,0,0:0:0:40:cymbal_weak.wav
448,192,201283,1,0,0:0:0:70:F#5S_Gb5S.wav
192,192,202083,128,0,204397:0:0:0:0:
