osu file format v14

[General]
AudioFilename: audio.mp3
AudioLeadIn: 0
PreviewTime: 170051
Countdown: 0
SampleSet: None
StackLeniency: 0.7
Mode: 0
LetterboxInBreaks: 0
WidescreenStoryboard: 1

[Editor]
Bookmarks: 18211,27268,36324,45380,49909,54438,63494,72551,81607,85286,90664,95192,104248,113116,113305,117833,121229,121512,122362,126890,131419,140475,149532,156889,158588,162834,164665,166591,167645,169909,178966,188022,197079,206136
DistanceSpacing: 1.5
BeatDivisor: 4
GridSize: 32
TimelineZoom: 3.059999

[Metadata]
Title:ViViD
TitleUnicode:ViViD
Artist:LOONA/HeeJin
ArtistUnicode:LOONA/HeeJin
Creator:Everything Dust
Version:Surprising Changes
Source:
Tags:LOOΠΔ 1/3 전희진 Jeon Hee-Jin Kpop k pop k-pop Korean
BeatmapID:2558990
BeatmapSetID:1028224

[Difficulty]
HPDrainRate:4
CircleSize:3
OverallDifficulty:5
ApproachRate:7.5
SliderMultiplier:2.7
SliderTickRate:1

[Events]
//Background and Video events
Video,0,"vivid.mp4"
0,0,"vivid.png",0,0
//Break Periods
//Storyboard Layer 0 (Background)
//Storyboard Layer 1 (Fail)
//Storyboard Layer 2 (Pass)
//Storyboard Layer 3 (Foreground)
//Storyboard Layer 4 (Overlay)
//Storyboard Sound Samples

[TimingPoints]
9155,566.037735849057,4,2,1,60,1,0
9155,-100,4,2,1,60,0,0
19060,-100,4,2,1,5,0,0
19202,-100,4,2,1,60,0,0
19626,583.037735849057,4,2,1,60,1,0
20475,566.037735849057,4,2,1,60,1,0
26984,-100,4,2,1,40,0,0
27267,-100,4,2,1,60,0,0
34484,-100,4,2,1,40,0,0
34625,-100,4,2,1,60,0,0
35050,-100,4,2,1,40,0,0
35191,-100,4,2,1,60,0,0
35663,-100,4,2,1,5,0,0
35758,-100,4,2,1,60,0,0
36229,-100,4,2,1,5,0,0
36324,-100,4,2,1,40,0,0
37173,-100,4,2,1,60,0,0
40852,-100,4,2,1,40,0,0
41135,-100,4,2,1,60,0,0
43116,-100,4,2,1,40,0,0
43399,-100,4,2,1,60,0,0
43965,-75.187969924812,4,2,1,60,0,0
45239,-75.187969924812,4,2,1,5,0,0
45380,-100,4,2,1,60,0,0
49908,-100,4,2,1,60,0,0
52597,-100,4,2,1,40,0,0
52739,-100,4,2,1,60,0,0
53163,-100,4,2,1,40,0,0
53305,-100,4,2,1,60,0,0
54437,-66.6666666666667,4,2,1,60,0,1
55427,-66.6666666666667,4,2,1,60,0,1
56135,-66.6666666666667,4,2,1,60,0,1
71984,-66.6666666666667,4,2,1,60,0,1
72550,-66.6666666666667,4,2,1,60,0,1
85569,-66.6666666666667,4,2,1,60,0,1
86135,-66.6666666666667,4,2,1,60,0,1
88965,-66.6666666666667,4,2,1,60,0,1
89531,-66.6666666666667,4,2,1,60,0,1
90097,-66.6666666666667,4,2,1,60,0,1
90663,-100,4,2,1,50,0,0
95191,640.037735849057,4,2,1,50,1,0
95831,597.3,4,2,1,50,1,0
96229,566.037735849057,4,2,1,50,1,0
96324,566.037735849057,4,2,1,30,1,0
97456,566.037735849057,4,2,1,50,1,0
99720,594.037735849057,4,2,1,50,1,0
100218,626.556701030928,4,2,1,50,1,0
100852,566.037735849057,4,2,1,50,1,0
131418,-100,4,2,1,60,0,1
149531,-100,4,2,2,50,0,0
162833,589.923076923077,4,2,2,50,1,0
163127,589.923076923077,4,2,2,50,1,0
163717,705.882352941176,4,2,2,50,1,0
164069,705.882352941176,4,2,2,50,1,0
164665,1100.91743119266,4,2,2,60,1,0
165215,1100.91743119266,4,2,2,40,1,0
165398,1100.91743119266,7,2,2,20,1,0
167644,566.037735849057,4,2,2,60,1,0
169908,-100,4,2,1,60,0,1
206134,-100,4,2,1,20,0,0
206276,-100,4,2,1,5,0,0

[Colours]
Combo1 : 195,170,220
Combo2 : 230,0,5
Combo3 : 240,136,21
Combo4 : 255,213,75
Combo5 : 0,136,65
Combo6 : 40,157,236
Combo7 : 133,43,115
SliderBorder : 255,213,75
SliderTrackOverride : 20,5,20

[HitObjects]
127,30,18211,38,0,P|128:114|191:155,1,135
271,112,18636,1,0,0:0:0:0:
199,71,18777,2,0,P|200:155|263:196,1,135
343,153,19202,37,0,0:0:0:0:
414,110,19343,2,0,L|413:209,1,67.5
471,212,19626,1,0,0:0:0:0:
471,212,19771,1,0,0:0:0:0:
458,301,19917,2,0,P|384:259|317:293,1,135
385,354,20475,54,0,P|384:270|321:229,1,135
241,272,20900,1,0,0:0:0:0:
313,313,21041,2,0,P|312:229|249:188,1,135
169,231,21465,1,0,0:0:0:0:
141,292,21607,2,0,L|261:267,2,101.25
47,318,22173,2,0,B|12:236|143:252|116:99,1,202.5
106,79,22739,38,0,P|83:143|128:93,1,135
187,124,23163,2,0,L|224:304,2,135
160,39,23871,54,0,L|248:55,1,67.5
290,30,24154,2,0,L|378:46,1,67.5
423,51,24437,38,0,L|407:139,1,67.5
358,160,24720,2,0,L|374:248,1,67.5
459,307,25003,54,0,P|414:235|339:232,1,135
265,311,25569,2,0,P|271:227|212:180,1,135
142,169,25993,37,0,0:0:0:0:
114,259,26135,2,0,P|54:199|68:126,1,135
158,49,26701,2,0,P|171:131|116:183,1,135
21,229,27267,54,0,P|-12:304|26:369,1,135
64,380,27691,1,0,0:0:0:0:
156,337,27833,2,0,L|350:389,1,135
379,331,28258,37,0,0:0:0:0:
437,248,28399,2,0,L|386:161,1,67.5
495,165,28682,1,0,0:0:0:0:
495,165,28824,1,0,0:0:0:0:
495,165,28965,1,0,0:0:0:0:
403,14,29531,54,0,L|453:100,1,90
313,108,29908,1,0,0:0:0:0:
395,144,30097,2,0,P|301:91|188:140,1,180
153,168,30569,37,0,0:0:0:0:
116,123,30663,2,0,L|93:210,1,90
57,341,31041,1,0,0:0:0:0:
0,263,31229,2,0,P|94:210|207:259,1,180
249,314,31795,54,0,P|314:298|351:249,1,67.5
256,214,32078,1,0,0:0:0:0:
310,228,32220,2,0,L|281:166,1,67.5
360,241,32503,2,0,L|304:118,1,135
401,8,32927,38,0,P|466:24|503:73,1,67.5
408,108,33210,1,0,0:0:0:0:
462,94,33352,2,0,L|433:155,1,67.5
512,81,33635,2,0,L|456:203,1,135
404,305,34059,54,0,P|414:231|353:290,1,202.5
349,283,34625,2,0,P|294:340|294:261,1,202.5
289,254,35191,2,0,B|326:196|297:136|297:136|254:177|259:245,1,225
249,247,35758,2,0,B|220:206|238:149|238:149|292:186|289:255,1,225
248,329,36324,1,0,0:0:0:0:
59,383,37173,37,0,0:0:0:0:
156,351,37456,1,0,0:0:0:0:
156,250,37739,1,0,0:0:0:0:
59,219,38022,1,0,0:0:0:0:
0,301,38305,2,0,P|74:215|68:131,1,202.5
3,54,38871,53,0,0:0:0:0:
96,90,39154,1,0,0:0:0:0:
193,65,39437,1,0,0:0:0:0:
286,101,39720,2,0,P|283:207|212:283,1,202.5
128,315,40286,2,0,P|192:230|294:211,1,202.5
363,269,40852,2,0,P|406:227|419:179,1,67.5
400,119,41135,37,0,0:0:0:0:
317,179,41418,1,0,0:0:0:0:
348,275,41701,1,0,0:0:0:0:
450,274,41984,1,0,0:0:0:0:
481,178,42267,1,0,0:0:0:0:
400,119,42550,1,0,0:0:0:0:
430,22,42833,2,0,P|496:114|482:197,1,202.5
398,253,43399,53,0,0:0:0:0:
426,350,43682,1,0,0:0:0:0:
509,293,43965,2,0,B|504:224|348:205|258:361|94:333|80:275,1,448.874981506921
22,159,44814,2,0,P|125:208|140:384,1,269.324988904152
59,383,45380,37,0,0:0:0:0:
156,351,45663,1,0,0:0:0:0:
156,250,45946,1,0,0:0:0:0:
59,219,46229,1,0,0:0:0:0:
0,301,46512,2,0,P|74:215|68:131,1,202.5
25,39,47078,2,0,P|17:152|185:232,1,270
218,163,47927,53,0,0:0:0:0:
313,194,48210,1,0,0:0:0:0:
313,296,48493,1,0,0:0:0:0:
217,327,48776,2,0,P|321:283|399:314,1,202.5
424,354,49342,1,0,0:0:0:0:
503,255,49908,38,0,L|482:128,1,67.5
410,172,50191,1,0,0:0:0:0:
410,172,50333,2,0,L|389:45,1,67.5
497,86,50616,2,0,P|441:8|366:5,1,135
270,34,51041,54,0,L|293:160,1,67.5
211,143,51324,1,0,0:0:0:0:
211,143,51466,2,0,L|234:269,1,67.5
322,194,51749,2,0,P|296:285|226:314,1,135
129,286,52173,38,0,P|55:296|114:235,1,202.5
107,231,52739,2,0,P|164:176|85:176,1,202.5
84,176,53305,2,0,P|10:186|69:125,1,202.5
111,44,53871,53,0,0:0:0:0:
111,44,54154,1,0,0:0:0:0:
156,121,54437,38,0,B|206:121|206:121|206:64,1,101.250003862381
65,121,54720,2,0,B|15:121|15:121|15:178,1,101.250003862381
111,202,55003,53,0,0:0:0:0:
111,202,55144,2,0,P|153:230|177:322,1,101.250003862381
176,273,55427,2,0,P|235:166|471:231,1,405.000015449524
488,179,56135,38,0,L|441:57,1,101.250003862381
506,132,56418,2,0,L|459:10,1,101.250003862381
317,44,56701,54,0,P|292:88|312:180,1,101.250003862381
366,270,56984,2,0,P|360:219|289:156,1,101.250003862381
239,203,57267,2,0,L|202:108,1,101.250003862381
142,177,57550,1,0,0:0:0:0:
142,177,57691,2,0,L|105:82,1,101.250003862381
154,277,57975,2,0,P|64:239|49:144,1,202.500007724762
96,56,58399,38,0,B|112:72|112:72|256:72,1,101.250003862381
272,32,58682,2,0,B|350:32|350:32|366:48,1,101.250003862381
446,16,58965,2,0,P|474:58|480:108,1,101.250003862381
328,126,59248,54,0,P|333:175|362:217,1,101.250003862381
461,238,59531,1,0,0:0:0:0:
461,238,59673,2,0,P|380:183|292:222,1,202.500007724762
371,284,60097,2,0,P|425:203|386:115,1,202.500007724762
250,184,60522,2,0,P|153:173|110:86,1,202.500007724762
123,37,60946,1,0,0:0:0:0:
0,71,61229,38,0,P|2:121|26:165,1,101.250003862381
190,279,61512,2,0,P|158:239|113:218,1,101.250003862381
24,260,61795,1,0,0:0:0:0:
24,260,61937,1,0,0:0:0:0:
128,0,62220,2,0,B|216:131|-54:239|107:432,1,405.000015449524
180,357,62927,54,0,B|180:304|180:304|243:304,1,101.250003862381
298,267,63210,2,0,B|334:301|334:301|295:342,1,101.250003862381
414,357,63493,2,0,P|399:308|440:222,1,101.250003862381
504,140,63776,38,0,P|513:90|465:8,1,101.250003862381
427,175,64059,1,0,0:0:0:0:
427,175,64201,2,0,P|376:180|313:251,1,101.250003862381
325,349,64484,2,0,B|282:199|152:298|96:251|51:170|79:77,1,405.000015449524
157,69,65191,54,0,B|191:29|191:29|239:70,1,101.250003862381
248,151,65475,2,0,B|290:182|290:182|328:132,1,101.250003862381
385,51,65758,2,0,L|429:190,1,101.250003862381
462,292,66041,38,0,P|429:252|335:237,1,101.250003862381
268,332,66324,2,0,P|220:310|182:223,1,101.250003862381
40,291,66607,1,0,0:0:0:0:
40,291,66748,2,0,P|29:240|77:157,1,101.250003862381
139,161,67031,2,0,P|152:111|111:25,1,101.250003862381
51,17,67314,53,0,0:0:0:0:
32,65,67456,2,0,L|79:187,1,101.250003862381
14,112,67739,2,0,L|61:234,1,101.250003862381
86,300,68022,37,0,0:0:0:0:
170,355,68163,1,0,0:0:0:0:
271,349,68305,1,0,0:0:0:0:
349,285,68446,2,0,P|343:233|274:168,1,101.250003862381
232,144,68729,2,0,P|237:195|386:283,1,202.500007724762
465,304,69154,54,0,P|459:252|390:187,1,101.250003862381
375,128,69437,1,0,0:0:0:0:
375,128,69578,2,0,P|381:180|450:245,1,101.250003862381
512,232,69861,2,0,B|509:342|350:390|282:232|146:334,1,405.000015449524
79,287,70569,38,0,P|76:337|96:384,1,101.250003862381
162,238,70852,2,0,B|196:172|99:76|145:16,1,202.500007724762
43,0,71276,53,0,0:0:0:0:
43,0,71418,2,0,P|36:49|52:97,1,101.250003862381
0,178,71701,2,0,P|23:222|64:251,1,101.250003862381
152,200,71984,2,0,P|166:247|34:353,1,202.500007724762
0,312,72408,37,0,0:0:0:0:
0,312,72550,2,0,P|48:300|97:312,1,101.250003862381
182,362,72833,2,0,P|230:373|279:361,1,101.250003862381
342,294,73116,1,0,0:0:0:0:
342,294,73399,1,0,0:0:0:0:
389,204,73541,53,0,0:0:0:0:
389,204,73683,2,0,P|340:192|291:204,1,101.250003862381
207,254,73966,2,0,P|158:265|109:253,1,101.250003862381
47,186,74249,1,0,0:0:0:0:
47,186,74531,1,0,0:0:0:0:
79,84,74673,37,0,0:0:0:0:
79,84,74814,2,0,P|122:109|148:152,1,101.250003862381
168,251,75097,54,0,P|148:204|151:154,1,101.250003862381
261,141,75380,2,0,L|399:113,1,101.250003862381
459,98,75663,1,0,0:0:0:0:
262,50,75946,2,0,P|196:152|337:214,1,303.750011587143
418,182,76512,2,0,L|407:265,5,67.5000025749207
452,156,77078,1,0,0:0:0:0:
256,320,77361,38,0,P|242:270|252:221,1,101.250003862381
145,128,77644,2,0,P|194:141|232:174,1,101.250003862381
366,127,77927,2,0,P|330:164|283:180,1,101.250003862381
127,227,78210,54,0,L|144:127,1,101.250003862381
283,179,78493,2,0,L|301:80,1,101.250003862381
194,20,78776,38,0,P|173:66|175:116,1,101.250003862381
237,221,79059,2,0,P|226:171|195:131,1,101.250003862381
79,125,79342,1,0,0:0:0:0:
60,294,79625,54,0,L|233:274,1,101.250003862381
272,370,79908,2,0,L|252:197,1,101.250003862381
461,245,80191,2,0,L|288:265,1,101.250003862381
400,346,80475,38,0,P|488:246|362:164,1,303.750011587143
311,259,81041,2,0,P|203:179|310:73,1,303.750011587143
374,69,81607,54,0,L|476:69,1,101.250003862381
379,159,81890,2,0,L|252:159,1,101.250003862381
175,159,82173,1,0,0:0:0:0:
175,159,82456,1,0,0:0:0:0:
277,159,82597,37,0,0:0:0:0:
277,159,82739,2,0,L|378:159,1,101.250003862381
281,249,83022,2,0,L|154:249,1,101.250003862381
78,249,83305,1,0,0:0:0:0:
77,249,83588,1,0,0:0:0:0:
181,304,83730,53,0,0:0:0:0:
181,304,83871,2,0,P|193:255|181:207,1,101.250003862381
31,177,84154,2,0,P|18:128|31:79,1,101.250003862381
175,30,84437,2,0,P|187:78|174:127,1,101.250003862381
98,257,84720,2,0,P|85:305|98:354,1,101.250003862381
256,384,85003,2,0,P|343:283|190:151,1,303.750011587143
125,186,85569,38,0,B|140:233|140:233|194:215,1,101.250003862381
184,126,85852,2,0,B|168:78|168:78|114:96,1,101.250003862381
39,151,86135,53,0,0:0:0:0:
39,151,86276,1,0,0:0:0:0:
39,151,86418,1,0,0:0:0:0:
39,151,86559,2,0,L|7:55,1,101.250003862381
128,24,86842,2,0,B|198:8|245:134|366:93,1,202.500007724762
446,151,87267,38,0,P|450:98|396:20,1,101.250003862381
346,113,87550,1,0,0:0:0:0:
346,113,87691,2,0,P|319:67|229:36,1,101.250003862381
260,173,87975,2,0,B|189:157|142:283|21:242,1,202.500007724762
17,315,88399,2,0,P|-3:266|23:176,1,101.250003862381
77,250,88682,53,0,0:0:0:0:
252,350,88965,2,0,L|484:331,1,202.500007724762
474,166,89390,37,0,0:0:0:0:
474,166,89531,2,0,P|422:173|359:245,1,101.250003862381
284,157,89814,2,0,P|275:208|323:290,1,101.250003862381
369,314,90097,2,0,P|377:262|222:162,1,202.500007724762
188,178,90522,53,0,0:0:0:0:
188,178,90663,1,0,0:0:0:0:
188,178,91512,37,0,0:0:0:0:
291,4,91795,1,0,0:0:0:0:
188,178,92078,1,0,0:0:0:0:
