osu file format v14

[General]
AudioFilename: audio.mp3
AudioLeadIn: 0
PreviewTime: 44166
Countdown: 1
SampleSet: Soft
StackLeniency: 0.7
Mode: 0
LetterboxInBreaks: 0
WidescreenStoryboard: 0

[Editor]
DistanceSpacing: 0.6
BeatDivisor: 4
GridSize: 4
TimelineZoom: 1

[Metadata]
Title:Heart Attack
TitleUnicode:Heart Attack
Artist:LOONA/Chuu
ArtistUnicode:LOOΠΔ/츄
Creator:X4D
Version:Cardiac Arrest
Source:
Tags:kpop short edit version cut korean single
BeatmapID:1974819
BeatmapSetID:945724

[Difficulty]
HPDrainRate:5.6
CircleSize:3.9
OverallDifficulty:8.6
ApproachRate:9.3
SliderMultiplier:1.7
SliderTickRate:1

[Events]
//Background and Video events
0,0,"stanloona.jpg",0,0
//Break Periods
2,16108,17021
//Storyboard Layer 0 (Background)
//Storyboard Layer 1 (Fail)
//Storyboard Layer 2 (Pass)
//Storyboard Layer 3 (Foreground)
//Storyboard Sound Samples

[TimingPoints]
0,303.030303030303,4,2,1,90,1,0
5757,-133.333333333333,4,2,1,90,0,0
6060,-100,4,2,1,90,0,0
15151,-133.333333333333,4,2,1,90,0,0
15757,-100,4,2,1,90,0,0
15909,-100,4,2,1,5,0,0
17575,-100,4,2,1,90,0,0
17651,-100,4,2,1,5,0,0
17878,-200,4,2,1,90,0,0
18181,-100,4,2,1,90,0,0
20454,-83.3333333333333,4,2,1,90,0,0
20606,-100,4,2,1,90,0,0
23030,-90.9090909090909,4,2,1,90,0,0
23257,-90.9090909090909,4,2,1,5,0,0
23333,-90.9090909090909,4,2,1,90,0,0
23560,-90.9090909090909,4,2,1,5,0,0
23636,-90.9090909090909,4,2,1,90,0,0
23863,-90.9090909090909,4,2,1,5,0,0
23939,-90.9090909090909,4,2,1,90,0,0
24166,-90.9090909090909,4,2,1,5,0,0
24242,-90.9090909090909,4,2,1,90,0,0
25151,-83.3333333333333,4,2,1,90,0,0
25454,-100,4,2,1,90,0,0
32727,-90.9090909090909,4,2,1,90,0,0
32954,-90.9090909090909,4,2,1,5,0,0
33030,-90.9090909090909,4,2,1,90,0,0
33257,-90.9090909090909,4,2,1,5,0,0
33333,-90.9090909090909,4,2,1,90,0,0
33560,-90.9090909090909,4,2,1,5,0,0
33636,-90.9090909090909,4,2,1,90,0,0
33863,-90.9090909090909,4,2,1,5,0,0
33939,-90.9090909090909,4,2,1,90,0,0
34242,-66.6666666666667,4,2,1,90,0,0
34848,-83.3333333333333,4,2,1,90,0,0
35151,-100,4,2,1,90,0,0
42348,-100,4,2,1,5,0,0
42424,-200,4,2,1,90,0,0
43030,-200,4,2,1,5,0,0
43181,-147.058823529412,4,2,1,90,0,0
44848,-83.3333333333333,4,2,1,90,0,1
81439,-83.3333333333333,4,2,1,5,0,0
81515,-83.3333333333333,4,2,1,90,0,0
84696,-83.3333333333333,4,2,1,5,0,0

[Colours]
Combo1 : 61,188,124
Combo2 : 234,214,151
Combo3 : 214,41,119
Combo4 : 190,158,61

[HitObjects]
113,56,5757,6,0,B|167:53|149:97|213:89,1,95.6250036478044,2|0,0:2|0:0,0:0:0:0:
233,69,6060,6,0,P|225:161|222:244,1,170,2|0,1:2|3:2,0:0:0:0:
416,65,6666,2,0,P|423:157|426:240,1,170,2|2,1:2|3:2,0:0:0:0:
233,69,7272,2,0,P|225:161|222:244,1,170,2|2,1:2|3:2,0:0:0:0:
300,301,7727,6,0,P|367:309|426:214,1,170,2|0,1:2|0:0,0:0:0:0:
341,227,8181,1,2,3:2:0:0:
233,69,8484,6,0,P|225:161|222:244,1,170,2|2,1:2|3:2,0:0:0:0:
416,65,9090,2,0,P|423:157|426:240,1,170,2|2,1:2|3:2,0:0:0:0:
380,313,9545,5,2,0:2:0:0:
380,313,9696,2,0,P|339:317|286:288,1,85,0|0,1:2|0:0,0:0:0:0:
192,318,10000,1,0,3:2:0:0:
303,226,10151,2,0,P|262:222|209:251,1,85,0|0,1:2|0:0,0:0:0:0:
391,194,10454,1,0,0:0:0:0:
219,129,10606,2,0,P|261:131|303:132,1,85,2|2,3:2|3:2,0:0:0:0:
176,53,10833,1,2,3:2:0:0:
176,53,10909,6,0,P|193:125|121:195,1,170,2|0,1:2|3:2,0:0:0:0:
345,364,11515,2,0,P|287:305|302:225,1,170,2|2,1:2|3:2,0:0:0:0:
176,53,12121,2,0,P|193:125|121:195,1,170,2|2,1:2|3:2,0:0:0:0:
74,288,12575,6,0,P|166:280|249:277,1,170,2|0,1:2|0:0,0:0:0:0:
193,365,13030,1,2,3:2:0:0:
176,53,13333,6,0,P|193:125|121:195,1,170,2|2,1:2|3:2,0:0:0:0:
345,364,13939,2,0,P|287:305|302:225,1,170,2|2,1:2|3:2,0:0:0:0:
397,277,14393,1,2,0:2:0:0:
292,125,14545,5,0,1:2:0:0:
453,64,14696,1,0,1:2:0:0:
274,147,14848,1,0,3:2:0:0:
468,193,14999,1,0,1:2:0:0:
249,44,15151,6,0,P|255:124|257:197,1,127.500004863739,2|0,0:2|0:0,0:0:0:0:
192,260,15606,1,2,3:2:0:0:
155,285,15681,1,2,3:2:0:0:
112,278,15757,6,0,P|114:227|118:176,1,85,6|0,3:2|0:0,0:0:0:0:
117,193,17575,6,0,P|114:162|108:138,1,42.5,0|0,3:2|0:0,0:0:0:0:
197,217,17878,6,0,P|193:237|191:259,1,42.5,2|2,0:2|0:2,0:0:0:0:
277,329,18181,6,0,P|336:337|396:277,1,127.5,0|0,1:2|0:0,0:0:0:0:
387,297,18484,2,0,P|382:230|382:182,1,85,0|0,3:2|0:0,0:0:0:0:
465,94,18787,2,0,P|416:55|354:62,1,127.5,0|2,1:2|0:2,0:0:0:0:
354,62,19090,1,0,3:2:0:0:
225,21,19318,1,2,0:2:0:0:
225,21,19393,2,0,P|222:99|215:178,1,127.5,0|0,1:2|0:0,0:0:0:0:
218,148,19696,2,0,P|187:151|163:157,1,42.5,0|0,3:2|0:0,0:0:0:0:
90,246,19848,2,0,P|87:159|79:73,1,170,0|0,1:2|0:0,0:0:0:0:
28,296,20303,2,0,P|52:317|76:328,1,42.5,2|0,3:2|0:0,0:0:0:0:
132,367,20454,2,0,P|153:343|164:319,1,50.9999984436036,2|2,3:2|3:2,0:0:0:0:
253,240,20606,6,0,P|312:232|372:292,1,127.5,2|0,1:2|0:0,0:0:0:0:
363,271,20909,2,0,P|429:266|477:266,1,85,2|0,3:2|0:0,0:0:0:0:
452,113,21212,2,0,P|393:105|333:165,1,127.5,2|0,1:2|0:0,0:0:0:0:
341,144,21515,2,0,P|274:139|226:139,1,85,2|0,3:2|0:0,0:0:0:0:
106,66,21818,2,0,P|110:129|112:193,1,127.5,2|0,1:2|0:0,0:0:0:0:
112,193,22121,1,2,3:2:0:0:
28,247,22272,2,0,P|108:236|173:319,1,170,2|0,1:2|0:0,0:0:0:0:
262,379,22727,2,0,P|262:319|267:259,1,85,2|0,3:2|0:0,0:0:0:0:
342,144,23030,6,0,P|397:100|468:108,1,140.25000428009,2|0,1:2|0:0,0:0:0:0:
430,326,23333,2,0,P|428:255|423:185,1,140.25000428009,2|0,3:2|0:0,0:0:0:0:
342,144,23636,6,0,P|286:100|215:108,1,140.25000428009,2|0,1:2|0:0,0:0:0:0:
254,326,23939,2,0,P|255:255|260:185,1,140.25000428009,2|0,3:2|0:0,0:0:0:0:
220,106,24242,6,0,P|164:101|121:136,1,93.5000028533936,2|2,1:2|0:2,0:0:0:0:
114,155,24469,1,0,0:0:0:0:
114,155,24545,1,0,3:2:0:0:
68,59,24696,6,0,P|75:160|77:262,1,187.000005706787,2|0,1:2|0:0,0:0:0:0:
64,362,25151,6,0,P|108:326|164:333,1,101.999996887207,2|2,3:2|3:2,0:0:0:0:
253,370,25378,1,2,3:2:0:0:
253,370,25454,6,0,P|254:299|259:229,1,127.5,2|0,1:2|0:0,0:0:0:0:
257,242,25757,2,0,P|293:221|335:222,1,85,2|0,3:2|0:0,0:0:0:0:
473,269,26060,2,0,P|472:198|467:128,1,127.5,2|0,1:2|0:0,0:0:0:0:
468,141,26363,1,2,3:2:0:0:
408,55,26515,2,0,P|371:34|329:35,1,85,2|0,0:2|1:2,0:0:0:0:
259,138,26818,2,0,P|300:139|337:118,1,85,2|0,0:2|3:2,0:0:0:0:
218,33,27121,2,0,P|223:126|224:220,1,170,2|0,1:2|0:0,0:0:0:0:
78,269,27575,1,2,3:2:0:0:
128,168,27727,1,2,0:2:0:0:
166,322,27878,6,0,P|237:323|307:328,1,127.5,2|0,1:2|0:0,0:0:0:0:
293,326,28181,2,0,P|329:305|371:306,1,85,2|0,3:2|0:0,0:0:0:0:
452,356,28484,1,2,1:2:0:0:
512,255,28636,2,0,P|475:234|433:235,1,85,2|0,0:2|3:2,0:0:0:0:
293,326,28939,2,0,P|291:231|285:138,1,170,2|2,0:2|0:2,0:0:0:0:
309,127,29318,1,2,0:2:0:0:
309,127,29393,1,2,3:2:0:0:
207,203,29545,2,0,P|164:200|122:200,1,85,0|0,1:2|0:0,0:0:0:0:
28,83,29848,1,2,0:0:0:0:
160,116,29999,1,2,3:2:0:0:
46,254,30151,1,2,3:2:0:0:
44,228,30227,1,2,3:2:0:0:
41,201,30303,6,0,P|37:265|37:329,1,127.5,2|0,1:2|0:0,0:0:0:0:
37,329,30606,1,0,3:2:0:0:
211,330,30909,2,0,P|211:266|207:203,1,127.5,2|0,1:2|0:0,0:0:0:0:
207,203,31212,1,0,3:2:0:0:
122,48,31515,2,0,P|162:28|230:83,1,127.5,2|0,1:2|0:0,0:0:0:0:
226,68,31818,2,0,P|252:71|279:70,1,42.5,2|0,3:2|0:0,0:0:0:0:
395,20,31969,2,0,P|388:118|387:216,1,170,2|0,1:2|0:0,0:0:0:0:
430,287,32424,2,0,P|393:307|351:306,1,85,2|0,3:2|0:0,0:0:0:0:
239,211,32727,6,0,B|270:189|270:189|264:317,1,140.25000428009,2|0,1:2|0:0,0:0:0:0:
211,364,33030,2,0,P|150:315|78:331,1,140.25000428009,2|0,3:2|0:0,0:0:0:0:
27,247,33333,6,0,B|-4:269|-4:269|2:141,1,140.25000428009,2|0,1:2|0:0,0:0:0:0:
55,94,33636,2,0,P|116:143|187:126,1,140.25000428009,2|0,3:2|0:0,0:0:0:0:
256,73,33939,6,0,P|306:26|374:31,1,140.25000428009,2|0,1:2|0:0,0:0:0:0:
374,31,34242,6,0,B|399:28|399:28|419:30|419:30|458:25,1,63.7500024318696,2|0,3:2|0:0,0:0:0:0:
462,112,34393,1,2,1:2:0:0:
361,118,34545,6,0,B|386:115|386:115|406:117|406:117|445:112,1,63.7500024318696,0|0,0:0|0:0,0:0:0:0:
449,199,34696,1,0,0:0:0:0:
348,205,34848,6,0,B|386:200|386:200|415:203|415:203|474:195,1,101.999996887207,2|2,3:2|3:2,0:0:0:0:
436,285,35075,1,2,3:2:0:0:
436,285,35151,6,0,L|386:284,1,42.5,2|0,3:2|0:0,0:0:0:0:
354,308,35303,2,0,L|254:306,1,85,2|0,0:0|0:0,0:0:0:0:
311,382,35606,1,2,0:0:0:0:
176,226,35757,2,0,L|276:224,1,85,2|0,3:2|0:0,0:0:0:0:
221,370,36060,2,0,L|121:368,1,85,2|0,0:0|0:0,0:0:0:0:
77,253,36363,6,0,P|82:278|77:304,1,42.5,2|0,3:2|0:0,0:0:0:0:
53,237,36515,2,0,P|39:195|53:152,1,85,2|0,0:0|0:0,0:0:0:0:
145,189,36818,1,2,0:0:0:0:
89,81,36969,2,0,P|48:70|8:84,1,85,2|0,3:2|0:0,0:0:0:0:
163,208,37272,2,0,P|203:218|243:204,1,85,2|0,0:0|0:0,0:0:0:0:
331,88,37575,6,0,P|325:166|324:244,1,127.5,2|0,3:2|0:0,0:0:0:0:
324,215,37878,2,0,P|363:228|404:218,1,85,2|0,0:0|0:0,0:0:0:0:
417,31,38181,1,2,3:2:0:0:
237,124,38333,1,2,0:0:0:0:
445,53,38484,1,2,0:0:0:0:
267,1,38636,1,2,0:0:0:0:
404,218,38787,6,0,P|319:219|234:225,1,170,0|0,3:2|0:0,0:0:0:0:
67,116,39393,2,0,P|151:117|236:123,1,170,0|0,3:2|0:0,0:0:0:0:
334,120,39848,6,0,P|347:80|337:39,1,85,2|0,0:0|3:2,0:0:0:0:
234,30,40151,1,0,0:0:0:0:
190,208,40303,2,0,P|147:204|105:204,1,85,2|0,0:0|0:0,0:0:0:0:
249,123,40606,2,0,P|291:119|333:119,1,85,2|0,3:2|0:0,0:0:0:0:
171,232,40909,2,0,P|128:228|86:228,1,85,2|0,0:0|0:0,0:0:0:0:
268,326,41212,2,0,P|278:304|281:277,1,42.5,2|0,3:2|0:0,0:0:0:0:
188,356,41363,2,0,P|145:356|103:359,1,85,2|0,0:0|0:0,0:0:0:0:
356,230,41666,2,0,P|369:269|359:310,1,85,2|0,0:0|3:2,0:0:0:0:
260,182,41969,2,0,P|249:141|263:101,1,85,2|0,0:0|0:0,0:0:0:0:
367,89,42272,2,0,P|391:87|414:91,1,42.5,2|0,0:0|0:0,0:0:0:0:
417,49,42424,6,0,B|319:37|361:110|243:101,1,170,0|0,3:2|0:0,0:0:0:0:
173,43,43181,2,0,P|247:9|233:211,1,404.600002469482,0|2,0:0|0:0,0:0:0:0:
249,212,44848,6,0,P|192:201|147:305,1,152.999995330811,4|0,1:2|0:0,0:0:0:0:
123,287,45151,2,0,P|66:276|7:272,1,101.999996887207,10|0,0:2|0:0,0:0:0:0:
217,365,45454,2,0,P|274:354|333:350,1,101.999996887207,2|0,1:2|0:0,0:0:0:0:
263,111,45757,2,0,P|253:161|249:212,1,101.999996887207,10|0,0:2|0:0,0:0:0:0:
348,366,46060,6,0,P|405:377|462:257,1,203.999993774414,6|10,1:2|0:2,0:0:0:0:
401,88,46515,2,0,P|391:138|387:189,1,101.999996887207,2|0,1:2|0:0,0:0:0:0:
263,312,46818,2,0,P|258:261|248:211,1,101.999996887207,2|8,0:0|0:2,0:0:0:0:
350,253,47121,1,2,0:0:0:0:
266,112,47272,2,0,P|217:100|170:120,1,101.999996887207,4|0,1:2|0:0,0:0:0:0:
102,296,47575,6,0,P|52:285|1:281,1,101.999996887207,10|0,0:2|0:0,0:0:0:0:
0,88,47878,2,0,P|49:77|100:73,1,101.999996887207,2|0,1:2|0:0,0:0:0:0:
247,235,48181,2,0,P|197:224|146:220,1,101.999996887207,10|0,0:2|0:0,0:0:0:0:
370,58,48484,6,0,P|374:108|384:158,1,101.999996887207,6|0,1:2|0:0,0:0:0:0:
369,277,48787,1,2,3:2:0:0:
499,32,48939,6,0,P|494:82|484:132,1,101.999996887207,6|0,1:2|0:0,0:0:0:0:
502,293,49242,1,2,0:0:0:0:
370,58,49393,6,0,P|374:108|384:158,1,101.999996887207,4|2,1:2|0:0,0:0:0:0:
369,277,49621,1,0,0:0:0:0:
352,299,49696,6,0,P|295:288|250:392,1,152.999995330811,4|0,1:2|0:0,0:0:0:0:
230,364,49999,2,0,P|180:353|129:349,1,101.999996887207,10|0,0:2|0:0,0:0:0:0:
172,151,50303,2,0,P|176:201|186:251,1,101.999996887207,2|0,1:2|0:0,0:0:0:0:
30,349,50606,2,0,P|40:299|44:248,1,101.999996887207,10|0,0:2|0:0,0:0:0:0:
128,75,50909,6,0,P|185:64|251:178,1,203.999993774414,6|10,1:2|0:2,0:0:0:0:
71,165,51363,2,0,P|121:154|172:150,1,101.999996887207,2|0,1:2|0:0,0:0:0:0:
275,260,51666,2,0,P|225:250|174:246,1,101.999996887207,2|8,0:0|0:2,0:0:0:0:
273,73,51969,1,2,0:0:0:0:
356,300,52121,2,0,P|368:251|348:204,1,101.999996887207,4|0,1:2|0:0,0:0:0:0:
151,360,52424,6,0,P|200:350|251:346,1,101.999996887207,10|0,0:2|0:0,0:0:0:0:
449,218,52727,2,0,P|398:214|348:204,1,101.999996887207,2|0,1:2|0:0,0:0:0:0:
135,384,53030,2,0,P|184:374|235:370,1,101.999996887207,10|0,0:2|0:0,0:0:0:0:
133,120,53333,6,0,P|129:170|119:220,1,101.999996887207,6|0,1:2|0:0,0:0:0:0:
134,339,53636,1,2,3:2:0:0:
4,94,53788,6,0,P|9:144|19:194,1,101.999996887207,6|0,1:2|0:0,0:0:0:0:
1,355,54091,1,2,0:0:0:0:
133,120,54242,6,0,P|129:170|119:220,1,101.999996887207,4|2,1:2|0:0,0:0:0:0:
134,339,54470,1,0,0:0:0:0:
151,360,54545,6,0,P|236:342|323:336,1,152.999995330811,4|0,1:2|0:0,0:0:0:0:
325,343,54848,2,0,P|337:294|317:247,1,101.999996887207,10|0,0:2|0:0,0:0:0:0:
236,120,55151,2,0,P|216:166|228:215,1,101.999996887207,2|0,1:2|0:0,0:0:0:0:
274,33,55454,2,0,P|225:21|178:41,1,101.999996887207,10|0,0:2|0:0,0:0:0:0:
310,171,55757,6,0,L|424:176,1,101.999996887207,6|0,1:2|0:0,0:0:0:0:
453,96,56060,1,10,0:2:0:0:
465,270,56212,2,0,L|237:280,1,203.999993774414,2|0,1:2|0:0,0:0:0:0:
310,171,56666,1,8,0:2:0:0:
369,361,56818,5,2,0:0:0:0:
136,199,56969,2,0,L|250:204,1,101.999996887207,4|0,1:2|0:0,0:0:0:0:
193,347,57272,2,0,L|79:352,1,101.999996887207,10|0,0:2|0:0,0:0:0:0:
6,159,57575,2,0,P|95:159|105:284,1,203.999993774414,2|10,1:2|0:2,0:0:0:0:
16,264,58030,1,2,0:0:0:0:
9,62,58181,6,0,L|123:67,1,101.999996887207,4|2,1:2|0:0,0:0:0:0:
240,27,58484,1,2,3:2:0:0:
134,159,58636,6,0,L|248:154,1,101.999996887207,4|2,1:2|0:0,0:0:0:0:
365,194,58939,1,2,0:0:0:0:
259,62,59090,6,0,L|373:67,1,101.999996887207,4|0,1:2|0:0,0:0:0:0:
451,121,59318,1,0,0:0:0:0:
479,109,59393,6,0,P|461:194|455:281,1,152.999995330811,6|0,1:2|0:0,0:0:0:0:
473,286,59696,2,0,P|424:298|377:278,1,101.999996887207,10|0,0:2|0:0,0:0:0:0:
290,325,59999,2,0,P|283:249|267:175,1,152.999995330811,2|0,1:2|0:0,0:0:0:0:
284,149,60303,2,0,P|237:129|188:141,1,101.999996887207,10|0,0:2|0:0,0:0:0:0:
116,255,60606,6,0,P|61:260|23:170,1,152.999995330811,6|0,1:2|0:0,0:0:0:0:
39,157,60909,1,10,0:2:0:0:
75,349,61060,1,0,1:2:0:0:
137,171,61212,2,0,P|141:119|153:68,1,101.999996887207,2|0,0:0|0:0,0:0:0:0:
318,232,61515,1,10,0:2:0:0:
116,255,61666,1,2,0:0:0:0:
376,145,61818,6,0,P|359:223|351:302,1,152.999995330811,4|0,1:2|0:0,0:0:0:0:
370,320,62121,2,0,P|416:339|465:327,1,101.999996887207,8|0,0:2|0:0,0:0:0:0:
364,116,62424,2,0,P|315:103|268:123,1,101.999996887207,0|0,1:2|0:0,0:0:0:0:
482,194,62727,1,10,0:2:0:0:
509,8,62878,1,2,0:0:0:0:
463,222,63030,6,0,P|458:170|446:119,1,101.999996887207,6|0,1:2|0:0,0:0:0:0:
509,8,63333,1,0,3:2:0:0:
303,294,63484,6,0,P|307:242|319:191,1,101.999996887207,4|2,1:2|0:0,0:0:0:0:
252,29,63787,1,0,0:0:0:0:
412,342,63939,6,0,P|461:331|512:326,1,101.999996887207,4|0,1:2|0:0,0:0:0:0:
318,193,64242,6,0,P|261:182|216:286,1,152.999995330811,4|0,1:2|0:0,0:0:0:0:
225,289,64545,2,0,P|282:278|341:274,1,101.999996887207,10|0,0:2|0:0,0:0:0:0:
265,384,64848,2,0,P|208:373|149:369,1,101.999996887207,2|0,1:2|0:0,0:0:0:0:
303,92,65151,2,0,P|313:141|317:192,1,101.999996887207,10|0,0:2|0:0,0:0:0:0:
137,293,65454,6,0,P|80:304|23:184,1,203.999993774414,6|10,1:2|0:2,0:0:0:0:
111,88,65909,2,0,P|121:138|125:189,1,101.999996887207,2|0,1:2|0:0,0:0:0:0:
249,312,66212,2,0,P|254:261|264:211,1,101.999996887207,2|8,0:0|0:2,0:0:0:0:
154,272,66515,1,2,0:0:0:0:
246,112,66666,2,0,P|295:100|342:120,1,101.999996887207,4|0,1:2|0:0,0:0:0:0:
410,296,66969,6,0,P|460:285|511:281,1,101.999996887207,10|0,0:2|0:0,0:0:0:0:
512,88,67272,2,0,P|463:77|412:73,1,101.999996887207,2|0,1:2|0:0,0:0:0:0:
265,235,67575,2,0,P|315:224|366:220,1,101.999996887207,10|0,0:2|0:0,0:0:0:0:
142,58,67878,6,0,P|138:108|128:158,1,101.999996887207,6|0,1:2|0:0,0:0:0:0:
143,277,68181,1,2,3:2:0:0:
13,32,68333,6,0,P|18:82|28:132,1,101.999996887207,6|0,1:2|0:0,0:0:0:0:
10,293,68636,1,2,0:0:0:0:
142,58,68787,6,0,P|138:108|128:158,1,101.999996887207,4|2,1:2|0:0,0:0:0:0:
143,277,69015,1,0,0:0:0:0:
160,299,69090,6,0,P|217:288|262:392,1,152.999995330811,4|0,1:2|0:0,0:0:0:0:
282,364,69393,2,0,P|332:353|383:349,1,101.999996887207,10|0,0:2|0:0,0:0:0:0:
340,151,69697,2,0,P|336:201|326:251,1,101.999996887207,2|0,1:2|0:0,0:0:0:0:
482,349,70000,2,0,P|472:299|468:248,1,101.999996887207,10|0,0:2|0:0,0:0:0:0:
384,75,70303,6,0,P|327:64|261:178,1,203.999993774414,6|10,1:2|0:2,0:0:0:0:
440,165,70757,2,0,P|390:154|339:150,1,101.999996887207,2|0,1:2|0:0,0:0:0:0:
237,260,71060,2,0,P|287:250|338:246,1,101.999996887207,2|8,0:0|0:2,0:0:0:0:
239,73,71363,1,2,0:0:0:0:
156,300,71515,2,0,P|144:251|164:204,1,101.999996887207,4|0,1:2|0:0,0:0:0:0:
361,360,71818,6,0,P|312:350|261:346,1,101.999996887207,10|0,0:2|0:0,0:0:0:0:
63,218,72121,2,0,P|114:214|164:204,1,101.999996887207,2|0,1:2|0:0,0:0:0:0:
377,384,72424,2,0,P|328:374|277:370,1,101.999996887207,10|0,0:2|0:0,0:0:0:0:
379,120,72727,6,0,P|383:170|393:220,1,101.999996887207,6|0,1:2|0:0,0:0:0:0:
378,339,73030,1,2,3:2:0:0:
508,94,73182,6,0,P|503:144|493:194,1,101.999996887207,6|0,1:2|0:0,0:0:0:0:
511,355,73485,1,2,0:0:0:0:
379,120,73636,6,0,P|383:170|393:220,1,101.999996887207,4|2,1:2|0:0,0:0:0:0:
378,339,73864,1,0,0:0:0:0:
361,360,73939,6,0,P|276:342|189:336,1,152.999995330811,4|0,1:2|0:0,0:0:0:0:
187,343,74242,2,0,P|175:294|195:247,1,101.999996887207,10|0,0:2|0:0,0:0:0:0:
276,120,74545,2,0,P|296:166|284:215,1,101.999996887207,2|0,1:2|0:0,0:0:0:0:
238,33,74848,2,0,P|287:21|334:41,1,101.999996887207,10|0,0:2|0:0,0:0:0:0:
202,171,75151,6,0,L|88:176,1,101.999996887207,6|0,1:2|0:0,0:0:0:0:
59,96,75454,1,10,0:2:0:0:
47,270,75606,2,0,L|275:280,1,203.999993774414,2|0,1:2|0:0,0:0:0:0:
202,171,76060,1,8,0:2:0:0:
143,361,76212,5,2,0:0:0:0:
376,199,76363,2,0,L|262:204,1,101.999996887207,4|0,1:2|0:0,0:0:0:0:
319,347,76666,2,0,L|433:352,1,101.999996887207,10|0,0:2|0:0,0:0:0:0:
506,159,76969,2,0,P|417:159|407:284,1,203.999993774414,2|10,1:2|0:2,0:0:0:0:
496,264,77424,1,2,0:0:0:0:
503,62,77575,6,0,L|389:67,1,101.999996887207,4|2,1:2|0:0,0:0:0:0:
272,27,77878,1,2,3:2:0:0:
378,159,78030,6,0,L|264:154,1,101.999996887207,4|2,1:2|0:0,0:0:0:0:
147,194,78333,1,2,0:0:0:0:
253,62,78484,6,0,L|139:67,1,101.999996887207,4|0,1:2|0:0,0:0:0:0:
61,121,78712,1,0,0:0:0:0:
33,109,78787,6,0,P|51:194|57:281,1,152.999995330811,6|0,1:2|0:0,0:0:0:0:
39,286,79090,2,0,P|88:298|135:278,1,101.999996887207,10|0,0:2|0:0,0:0:0:0:
221,325,79393,2,0,P|228:249|244:175,1,152.999995330811,2|0,1:2|0:0,0:0:0:0:
228,149,79697,2,0,P|274:129|323:141,1,101.999996887207,10|0,0:2|0:0,0:0:0:0:
396,255,80000,6,0,P|451:260|489:170,1,152.999995330811,6|0,1:2|0:0,0:0:0:0:
473,157,80303,1,10,0:2:0:0:
437,349,80454,1,0,1:2:0:0:
375,171,80606,2,0,P|370:119|358:68,1,101.999996887207,2|0,0:0|0:0,0:0:0:0:
194,232,80909,1,10,0:2:0:0:
396,255,81060,1,2,0:0:0:0:
136,145,81212,6,0,P|152:223|160:302,1,152.999995330811,4|0,1:2|0:0,0:0:0:0:
144,322,81515,2,0,P|79:269|1:304,1,152.999995330811,4|0,1:2|0:0,0:0:0:0:
17,286,82272,6,0,B|-2:310|-4:337|-4:337|-21:268|4:214|4:214|-14:167|-14:167|16:202|78:191,1,305.999990661621,6|0,1:2|0:0,0:0:0:0:
256,192,82803,12,2,84696,0:0:0:0:
