osu file format v14

[General]
AudioFilename: audio.mp3
AudioLeadIn: 0
PreviewTime: 44749
Countdown: 0
SampleSet: Soft
StackLeniency: 0.7
Mode: 2
LetterboxInBreaks: 0
WidescreenStoryboard: 1

[Editor]
Bookmarks: 5658,25355,44749,72628,93234,102931,122325,141719,153840,173234,193840
DistanceSpacing: 0.3
BeatDivisor: 8
GridSize: 8
TimelineZoom: 1.4

[Metadata]
Title:Heart Attack
TitleUnicode:Heart Attack
Artist:LOONA/Chuu
ArtistUnicode:이달의 소녀/츄
Creator:Secre
Version:Rain
Source:
Tags:chickenbible muya- vaqu kpop korean pop k-pop kim ji-woo yyxy blockberry creative 김지우 LOOΠΔ girl of the month
BeatmapID:4410592
BeatmapSetID:1905137

[Difficulty]
HPDrainRate:5
CircleSize:3.8
OverallDifficulty:8.8
ApproachRate:8.8
SliderMultiplier:3.1
SliderTickRate:4

[Events]
//Background and Video events
0,0,"chuu needs to become a vtuber now that is the only solution.jpg",0,0
Video,-75,"movie.mp4"
//Break Periods
2,141312,151392
//Storyboard Layer 0 (Background)
//Storyboard Layer 1 (Fail)
//Storyboard Layer 2 (Pass)
//Storyboard Layer 3 (Foreground)
//Storyboard Layer 4 (Overlay)
//Storyboard Sound Samples

[TimingPoints]
5355,606.060606060606,4,2,1,50,1,0
5961,-100,4,2,1,60,0,0
43991,-100,4,2,1,60,0,0
44142,-100,4,2,1,60,0,1
44597,-100,4,2,1,60,0,1
44749,-100,4,2,1,75,0,1
54446,-100,4,2,1,75,0,1
62021,-100,4,2,1,75,0,0
62779,-100,4,2,1,75,0,0
63082,-100,4,2,1,75,0,0
64143,-100,4,2,1,60,0,0
102173,-100,4,2,1,60,0,0
102324,-100,4,2,1,60,0,1
102779,-100,4,2,1,60,0,1
102931,-100,4,2,1,75,0,1
112325,-100,4,2,1,75,0,1
112628,-100,4,2,1,75,0,1
120354,-100,4,2,1,75,0,0
121718,-100,4,2,1,75,0,1
122325,-100,4,2,1,75,0,1
123537,-100,4,2,1,75,0,1
127173,-100,4,2,1,75,0,1
130809,-100,4,2,1,75,0,1
132022,-100,4,2,1,75,0,1
133234,-100,4,2,1,75,0,1
136870,-100,4,2,1,75,0,1
138991,-100,4,2,1,75,0,0
139294,-100,4,2,1,75,0,0
139597,-100,4,2,1,75,0,0
140506,-100,4,2,1,75,0,0
140809,-100,4,2,1,60,0,0
141719,-1000,4,2,1,60,0,0
152628,-100,4,2,1,60,0,0
153688,-100,4,2,1,60,0,0
153839,-100,4,2,1,85,0,1
157173,-100,4,2,1,85,0,1
157476,-100,4,2,1,85,0,1
158385,-100,4,2,1,85,0,1
158688,-100,4,2,1,85,0,1
162022,-100,4,2,1,85,0,1
162325,-100,4,2,1,85,0,1
163234,-100,4,2,1,85,0,1
163537,-100,4,2,1,85,0,1
168082,-100,4,2,1,85,0,1
168385,-100,4,2,1,85,0,1
170506,-100,4,2,1,85,0,1
170809,-100,4,2,1,85,0,1
172931,-100,4,2,1,85,0,1
173234,-100,4,2,1,85,0,1
176567,-100,4,2,1,85,0,1
176870,-100,4,2,1,85,0,1
177779,-100,4,2,1,85,0,1
178082,-100,4,2,1,85,0,1
181416,-100,4,2,1,85,0,1
181719,-100,4,2,1,85,0,1
182628,-100,4,2,1,85,0,1
182931,-100,4,2,1,85,0,1
187476,-100,4,2,1,85,0,1
187779,-100,4,2,1,85,0,0
189900,-100,4,2,1,85,0,0
190203,-100,4,2,1,85,0,0
191264,-100,4,2,1,85,0,0
191416,-100,4,2,1,60,0,0
191794,-100,4,2,1,60,0,0
192325,-100,4,2,1,60,0,0
192628,-100,4,2,1,45,0,0
193840,-100,4,2,1,45,0,0

[Colours]
Combo1 : 0,128,255
Combo2 : 255,133,91
Combo3 : 85,255,85
Combo4 : 255,74,165

[HitObjects]
256,192,2930,12,0,4748,0:0:0:0:
406,157,5051,6,0,L|310:157,1,77.5
84,256,5354,6,0,L|83:88,1,155,8|8,3:0|0:0,0:0:0:0:
326,80,5960,2,0,L|120:81,1,155,0|8,3:0|0:0,0:0:0:0:
401,108,6566,6,0,L|399:278,1,155,0|8,3:0|0:0,0:0:0:0:
247,287,7021,2,0,L|62:272,1,155,0|0,3:0|0:0,0:0:0:0:
92,274,7475,1,2,0:1:0:0:
355,196,7778,6,0,L|355:13,1,155,0|8,3:0|0:0,0:0:0:0:
104,90,8384,2,0,L|103:274,1,155,0|8,3:0|0:0,0:0:0:0:
249,292,8839,6,0,L|347:293,2,77.5,0|0|0,0:0|3:0|0:0,0:0:0:0:
89,222,9293,2,0,L|91:113,1,77.5,8|0,0:0|3:0,0:0:0:0:
89,100,9899,2,0,L|180:100,1,77.5,8|0,0:0|0:0,0:0:0:0:
431,133,10202,6,0,L|436:-31,1,155,0|8,3:0|0:0,0:0:0:0:
181,50,10809,2,0,L|8:43,1,155,0|8,3:0|0:0,0:0:0:0:
282,158,11415,6,0,L|283:332,1,155,0|8,3:0|0:0,0:0:0:0:
126,318,11869,2,0,P|73:263|145:243,1,155,0|0,3:0|0:0,0:0:0:0:
202,222,12324,1,2,0:1:0:0:
469,115,12627,6,0,L|304:116,1,155,0|8,3:0|0:0,0:0:0:0:
41,107,13233,2,0,L|218:104,1,155,0|8,3:0|0:0,0:0:0:0:
196,104,13687,1,0,0:0:0:0:
39,137,13839,6,0,L|39:232,1,77.5,0|0,3:0|3:0,0:0:0:0:
118,262,14142,2,0,L|225:277,1,77.5,8|0,0:0|3:0,0:0:0:0:
459,233,14445,2,0,P|511:192|449:152,1,155,0|0,3:0|0:0,0:0:0:0:
378,134,14899,1,0,0:0:0:0:
118,123,15051,5,4,3:0:0:0:
326,97,16869,1,8,0:0:0:0:
186,94,17172,2,0,L|185:202,1,77.5,2|0,0:1|0:0,0:0:0:0:
406,239,17475,6,0,P|457:210|403:155,1,155,0|8,3:0|0:0,0:0:0:0:
161,172,18081,2,0,L|160:266,1,77.5,0|0,3:0|0:0,0:0:0:0:
241,290,18384,1,8,0:0:0:0:
163,252,18536,1,0,0:0:0:0:
321,209,18687,6,0,P|369:210|406:315,1,155,0|8,3:0|0:0,0:0:0:0:
338,309,19142,1,0,3:0:0:0:
338,309,19596,2,0,L|434:308,1,77.5,8|0,0:0|0:0,0:0:0:0:
182,130,19899,6,0,P|121:129|107:231,1,155,8|8,3:0|0:0,0:0:0:0:
309,259,20506,2,0,L|126:248,1,155,0|8,3:0|0:0,0:0:0:0:
404,181,21112,6,0,L|411:78,1,77.5,0|0,3:0|0:0,0:0:0:0:
169,84,21566,2,0,L|351:80,1,155,0|0,3:0|0:0,0:0:0:0:
323,80,22021,2,0,L|224:83,1,77.5,2|0,0:1|0:0,0:0:0:0:
32,196,22324,6,0,L|26:26,1,155,0|8,3:0|0:0,0:0:0:0:
277,60,22930,2,0,L|94:57,1,155,0|8,3:0|0:0,0:0:0:0:
373,158,23536,5,0,3:0:0:0:
448,163,23687,2,0,L|448:262,1,77.5,0|8,0:0|0:0,0:0:0:0:
290,272,23990,2,0,L|479:276,1,155,0|0,3:0|0:0,0:0:0:0:
444,275,24445,2,0,L|347:269,1,77.5,8|0,0:0|0:0,0:0:0:0:
121,146,24748,5,8,3:0:0:0:
113,79,25051,2,0,L|209:75,1,77.5,8|0,0:0|0:0,0:0:0:0:
346,77,25354,2,0,P|399:78|419:174,1,155,0|8,3:0|0:0,0:0:0:0:
268,180,25809,6,0,L|267:287,1,77.5,0|0,0:0|3:0,0:0:0:0:
347,296,26112,2,0,L|348:199,1,77.5,0|8,0:0|0:0,0:0:0:0:
179,146,26415,2,0,P|117:147|105:243,1,155,0|0,3:0|0:0,0:0:0:0:
180,247,26869,2,0,L|92:240,1,77.5,2|0,0:1|0:0,0:0:0:0:
252,187,27172,6,0,L|436:190,1,155,0|8,3:0|0:0,0:0:0:0:
174,98,27778,1,0,3:0:0:0:
87,99,27930,2,0,L|84:0,1,77.5,0|8,0:0|0:0,0:0:0:0:
249,29,28233,6,0,L|346:26,2,77.5,0|0|0,0:0|3:0|0:0,0:0:0:0:
95,48,28687,2,0,L|95:163,1,77.5,8|0,0:0|3:0,0:0:0:0:
176,180,28990,1,0,0:0:0:0:
336,114,29142,2,0,L|441:119,2,77.5,0|8|0,0:0|0:0|0:0,0:0:0:0:
86,202,29596,6,0,P|34:162|93:128,1,155,8|8,3:0|0:0,0:0:0:0:
351,136,30202,2,0,P|402:135|437:238,1,155,0|8,3:0|0:0,0:0:0:0:
176,237,30809,6,0,L|361:233,1,155,0|8,3:0|0:0,0:0:0:0:
176,237,31263,2,0,P|116:239|100:326,1,155,0|0,3:0|0:0,0:0:0:0:
173,322,31718,2,0,L|91:319,1,77.5,2|0,0:1|0:0,0:0:0:0:
332,219,32021,6,0,P|414:226|424:308,1,155,0|8,3:0|0:0,0:0:0:0:
171,257,32627,2,0,P|120:257|91:350,1,155,0|8,3:0|0:0,0:0:0:0:
344,272,33233,5,0,3:0:0:0:
184,149,33536,1,4,0:1:0:0:
332,99,33687,2,0,L|157:97,1,155,0|0,3:0|0:0,0:0:0:0:
254,136,34142,2,0,L|335:137,1,77.5,8|0,0:0|0:0,0:0:0:0:
102,220,34445,6,0,L|94:126,1,77.5,8|0,3:0|0:0,0:0:0:0:
235,106,34899,2,0,L|241:19,1,77.5,0|8,0:0|0:0,0:0:0:0:
395,27,35354,1,0,0:0:0:0:
102,220,35657,6,0,L|94:126,1,77.5,8|0,0:0|0:0,0:0:0:0:
235,106,36111,2,0,L|241:19,1,77.5,0|8,0:0|0:0,0:0:0:0:
395,27,36566,1,0,0:0:0:0:
106,83,36869,6,0,P|62:84|42:185,1,155,8|0,0:0|0:0,0:0:0:0:
280,198,37475,2,0,L|187:188,2,77.5,8|0|0,0:0|0:0|0:0,0:0:0:0:
443,149,37930,1,0,0:0:0:0:
360,132,38081,6,0,L|356:-33,1,155,8|0,0:0|0:0,0:0:0:0:
97,63,38687,2,0,L|93:244,1,155,8|0,0:0|0:0,0:0:0:0:
180,255,39142,1,0,0:0:0:0:
422,270,39293,6,0,P|463:275|468:378,1,155,8|0,0:0|0:0,0:0:0:0:
242,313,39899,2,0,L|423:295,1,155,8|0,0:0|0:0,0:0:0:0:
145,172,40506,6,0,L|141:282,1,77.5,8|0,0:0|0:0,0:0:0:0:
367,276,40960,2,0,L|259:268,1,77.5
139,191,41263,2,0,L|135:96,1,77.5
220,85,41566,1,0,0:0:0:0:
469,96,41718,5,8,0:0:0:0:
256,192,41869,12,0,43536,0:0:0:0:
177,146,44142,5,4,3:0:0:0:
437,113,44445,2,0,L|354:98,1,77.5,8|0,0:0|0:0,0:0:0:0:
210,56,44748,2,0,L|121:41,1,77.5,0|0,3:0|0:0,0:0:0:0:
281,122,45051,2,0,L|394:113,1,77.5,8|0,0:0|0:0,0:0:0:0:
116,72,45354,6,0,P|57:70|43:155,1,155,4|8,3:0|0:0,0:0:0:0:
199,177,45809,2,0,L|201:263,1,77.5,0|0,3:0|0:0,0:0:0:0:
356,283,46112,2,0,L|355:197,1,77.5,0|8,0:0|0:0,0:0:0:0:
437,166,46415,1,0,0:0:0:0:
181,123,46566,5,4,3:0:0:0:
180,67,46869,2,0,L|256:76,1,77.5,8|0,0:0|0:0,0:0:0:0:
414,92,47172,2,0,L|507:89,1,77.5,0|0,3:0|0:0,0:0:0:0:
333,154,47475,2,0,L|335:254,1,77.5,8|0,0:0|0:0,0:0:0:0:
85,247,47778,6,0,P|42:222|102:152,1,155,4|8,3:0|0:0,0:0:0:0:
244,140,48233,2,0,L|249:227,1,77.5,4|0,3:0|0:0,0:0:0:0:
332,243,48536,1,0,0:0:0:0:
173,135,48687,2,0,L|173:35,1,77.5,4|0,3:0|0:0,0:0:0:0:
420,67,48990,5,12,3:0:0:0:
430,18,49293,2,0,L|340:12,1,77.5,8|0,0:0|0:0,0:0:0:0:
197,75,49596,2,0,L|282:70,1,77.5,0|0,3:0|0:0,0:0:0:0:
432,78,49899,2,0,L|431:173,1,77.5,8|0,0:0|0:0,0:0:0:0:
186,179,50202,6,0,P|116:183|117:264,1,155,4|8,3:0|0:0,0:0:0:0:
260,270,50657,2,0,L|258:171,1,77.5,0|0,3:0|0:0,0:0:0:0:
101,137,50960,2,0,L|97:34,1,77.5,0|8,0:0|0:0,0:0:0:0:
19,42,51263,1,0,0:0:0:0:
264,66,51415,5,4,3:0:0:0:
264,66,51718,2,0,L|173:61,1,77.5,8|0,0:0|0:0,0:0:0:0:
335,155,52021,2,0,L|421:147,1,77.5,0|0,3:0|0:0,0:0:0:0:
264,66,52324,2,0,L|173:61,1,77.5,8|0,0:0|0:0,0:0:0:0:
429,80,52627,6,0,P|472:90|406:144,1,155,4|8,3:0|0:0,0:0:0:0:
275,175,53081,2,0,L|271:283,1,77.5,4|0,3:0|0:0,0:0:0:0:
356,296,53384,1,0,0:0:0:0:
195,204,53536,2,0,L|108:199,1,77.5,4|0,3:0|0:0,0:0:0:0:
366,117,53839,5,4,3:0:0:0:
380,57,54142,2,0,L|298:49,1,77.5,8|0,0:0|0:0,0:0:0:0:
144,31,54445,2,0,L|49:21,1,77.5,0|0,3:0|0:0,0:0:0:0:
228,107,54748,2,0,L|319:104,1,77.5,8|0,0:0|0:0,0:0:0:0:
67,186,55051,6,0,P|33:169|89:96,1,155,4|8,3:0|0:0,0:0:0:0:
238,113,55505,2,0,P|291:117|310:210,1,155,0|0,3:0|0:0,0:0:0:0:
156,205,55960,2,0,L|270:203,1,77.5,8|0,0:0|0:0,0:0:0:0:
476,137,56263,6,0,P|480:182|381:234,1,155,4|8,3:0|0:0,0:0:0:0:
308,212,56718,1,0,0:0:0:0:
460,152,56869,2,0,L|460:59,1,77.5,0|0,3:0|0:0,0:0:0:0:
381,50,57172,1,8,0:0:0:0:
223,49,57324,1,0,0:0:0:0:
143,50,57475,6,0,L|141:127,1,77.5,4|0,3:0|0:0,0:0:0:0:
300,139,57778,2,0,L|301:230,1,77.5,8|4,0:0|3:0,0:0:0:0:
57,225,58081,2,0,P|12:199|83:139,1,155,0|4,0:0|3:0,0:0:0:0:
141,110,58536,1,0,0:0:0:0:
381,103,58687,6,0,P|442:114|458:211,1,155,0|8,3:0|0:0,0:0:0:0:
216,238,59293,2,0,L|37:246,1,155,0|8,3:0|0:0,0:0:0:0:
325,158,59899,6,0,L|479:152,1,155,4|8,3:0|0:0,0:0:0:0:
398,101,60354,1,0,3:0:0:0:
233,144,60506,2,0,L|50:150,1,155,0|8,0:0|0:0,0:0:0:0:
162,83,60960,1,0,0:0:0:0:
420,50,61112,5,4,3:0:0:0:
203,36,61415,1,0,3:0:0:0:
408,221,62172,5,4,3:0:0:0:
408,221,62778,6,0,L|245:290,2,155
123,144,63536,6,0,P|65:146|59:237,1,155,8|8,3:0|0:0,0:0:0:0:
297,218,64142,2,0,P|343:219|375:319,1,155,0|8,3:0|0:0,0:0:0:0:
115,239,64748,6,0,L|287:226,1,155,0|8,3:0|0:0,0:0:0:0:
115,239,65202,2,0,P|58:245|45:336,1,155,0|0,3:0|0:0,0:0:0:0:
117,364,65657,1,2,0:1:0:0:
368,208,65960,6,0,L|193:188,1,155,0|8,3:0|0:0,0:0:0:0:
465,207,66566,2,0,L|471:33,1,155,0|8,3:0|0:0,0:0:0:0:
395,31,67021,1,0,0:0:0:0:
241,52,67172,6,0,L|241:137,1,77.5,0|0,3:0|0:0,0:0:0:0:
317,163,67475,1,8,0:0:0:0:
161,145,67627,1,0,3:0:0:0:
142,77,68081,2,0,L|220:69,1,77.5,8|0,0:0|0:0,0:0:0:0:
448,69,68384,6,0,L|448:243,1,155,0|8,3:0|0:0,0:0:0:0:
166,196,68990,2,0,P|96:205|97:294,1,155,0|8,3:0|0:0,0:0:0:0:
348,275,69596,6,0,L|179:262,1,155,0|8,3:0|0:0,0:0:0:0:
348,275,70051,2,0,P|416:282|426:369,1,155,0|0,3:0|0:0,0:0:0:0:
351,364,70506,1,2,0:1:0:0:
63,160,70809,6,0,L|166:155,1,77.5,0|0,3:0|0:0,0:0:0:0:
220,154,71112,2,0,L|223:249,1,77.5,8|0,0:0|0:0,0:0:0:0:
69,270,71415,2,0,L|67:181,1,77.5,0|0,3:0|0:0,0:0:0:0:
147,146,71718,1,8,0:0:0:0:
309,107,71869,1,0,0:0:0:0:
390,105,72021,6,0,L|391:196,1,77.5,0|0,3:0|3:0,0:0:0:0:
225,224,72324,2,0,L|137:220,1,77.5,8|0,0:0|3:0,0:0:0:0:
306,137,72627,1,0,3:0:0:0:
386,133,72778,2,0,L|387:222,1,77.5
306,137,73081,1,0,0:0:0:0:
62,93,73233,5,8,3:0:0:0:
62,93,73384,2,0,L|147:89,1,77.5,0|8,0:0|0:0,0:0:0:0:
297,83,73687,2,0,L|388:81,2,77.5,0|0|0,0:0|3:0|0:0,0:0:0:0:
138,93,74142,2,0,L|139:204,1,77.5,8|0,0:0|0:0,0:0:0:0:
299,221,74445,5,0,3:0:0:0:
378,163,74596,2,0,L|378:73,1,77.5,0|8,0:0|0:0,0:0:0:0:
223,82,74899,2,0,L|390:81,1,155,0|0,3:0|0:0,0:0:0:0:
293,135,75354,2,0,L|393:130,1,77.5,2|0,0:1|0:0,0:0:0:0:
127,114,75657,6,0,L|128:213,1,77.5,0|0,3:0|0:0,0:0:0:0:
277,241,75960,2,0,L|188:231,1,77.5,8|0,0:0|0:0,0:0:0:0:
47,143,76263,2,0,L|43:52,1,77.5,0|0,3:0|0:0,0:0:0:0:
191,52,76566,2,0,L|96:47,1,77.5,8|0,0:0|0:0,0:0:0:0:
271,119,76869,5,0,3:0:0:0:
351,87,77021,2,0,L|353:-5,1,77.5,0|8,0:0|0:0,0:0:0:0:
191,17,77324,2,0,P|123:18|119:114,1,155,0|0,3:0|0:0,0:0:0:0:
251,173,77778,2,0,L|143:154,1,77.5,8|0,0:0|0:0,0:0:0:0:
416,174,78081,6,0,P|463:179|480:275,1,155,8|8,3:0|0:0,0:0:0:0:
319,273,78536,2,0,L|205:264,2,77.5,0|0|0,0:0|3:0|0:0,0:0:0:0:
474,177,78990,2,0,L|476:89,1,77.5,8|0,0:0|0:0,0:0:0:0:
317,62,79293,5,0,3:0:0:0:
238,68,79445,2,0,L|239:167,1,77.5,0|8,0:0|0:0,0:0:0:0:
398,217,79748,2,0,L|232:218,1,155,0|0,3:0|0:0,0:0:0:0:
406,155,80202,2,0,L|405:63,1,77.5,2|0,0:1|0:0,0:0:0:0:
152,53,80506,6,0,P|93:56|81:148,1,155,0|8,3:0|0:0,0:0:0:0:
162,160,80960,1,0,0:0:0:0:
402,178,81112,2,0,P|460:184|477:274,1,155,0|8,3:0|0:0,0:0:0:0:
401,276,81566,1,0,0:0:0:0:
159,180,81718,5,0,3:0:0:0:
78,145,81869,2,0,L|75:54,1,77.5,0|8,0:0|0:0,0:0:0:0:
309,68,82172,2,0,P|366:73|390:173,1,155,0|0,3:0|0:0,0:0:0:0:
244,168,82627,2,0,L|164:164,1,77.5,8|0,0:0|0:0,0:0:0:0:
410,95,82930,5,8,3:0:0:0:
480,111,83081,1,0,0:0:0:0:
481,183,83233,1,8,0:0:0:0:
412,202,83384,1,0,0:0:0:0:
244,139,83536,2,0,L|236:52,1,77.5,0|0,3:0|0:0,0:0:0:0:
316,82,83839,2,0,L|320:-1,1,77.5,8|0,0:0|0:0,0:0:0:0:
165,58,84142,6,0,L|69:57,2,77.5,0|0|8,3:0|0:0|0:0,0:0:0:0:
319,147,84596,2,0,L|142:140,1,155,0|0,3:0|0:0,0:0:0:0:
242,141,85051,2,0,L|162:139,1,77.5,2|0,0:1|0:0,0:0:0:0:
411,190,85354,6,0,L|418:281,1,77.5,0|0,3:0|0:0,0:0:0:0:
335,245,85657,2,0,L|327:150,1,77.5,8|0,0:0|0:0,0:0:0:0:
170,110,85960,2,0,L|91:104,1,77.5,0|0,3:0|0:0,0:0:0:0:
247,40,86263,2,0,L|338:39,1,77.5,8|0,0:0|0:0,0:0:0:0:
89,42,86566,6,0,P|32:46|33:138,1,155,0|8,3:0|0:0,0:0:0:0:
184,156,87021,2,0,P|240:168|251:257,1,155,0|0,3:0|0:0,0:0:0:0:
100,259,87475,2,0,L|97:164,1,77.5,8|0,0:0|0:0,0:0:0:0:
345,129,87778,6,0,P|408:132|434:232,1,155,8|8,3:0|0:0,0:0:0:0:
288,208,88233,2,0,L|199:207,2,77.5
442,128,88687,2,0,L|358:124,1,77.5,8|0,0:0|0:0,0:0:0:0:
203,78,88990,5,0,3:0:0:0:
121,75,89142,2,0,L|122:163,1,77.5,0|8,0:0|0:0,0:0:0:0:
280,167,89445,2,0,P|336:167|356:261,1,155,0|0,3:0|0:0,0:0:0:0:
211,266,89899,2,0,L|99:253,1,77.5,2|0,0:1|0:0,0:0:0:0:
405,212,90202,6,0,L|416:116,1,77.5,0|0,3:0|0:0,0:0:0:0:
270,104,90505,2,0,L|262:23,1,77.5,8|0,0:0|0:0,0:0:0:0:
409,77,90809,2,0,L|412:-4,1,77.5,0|0,3:0|0:0,0:0:0:0:
264,174,91112,2,0,L|366:171,1,77.5,8|0,0:0|0:0,0:0:0:0:
105,161,91415,6,0,P|49:163|38:264,1,155,0|4,3:0|0:1,0:0:0:0:
186,267,91869,2,0,P|237:248|184:196,1,155,0|0,3:0|0:0,0:0:0:0:
35,182,92324,2,0,L|128:188,1,77.5,8|0,0:0|0:0,0:0:0:0:
410,220,92627,6,0,L|418:126,1,77.5,8|0,3:0|0:0,0:0:0:0:
277,106,93081,2,0,L|271:19,1,77.5,0|8,0:0|0:0,0:0:0:0:
117,27,93536,1,0,0:0:0:0:
410,220,93839,6,0,L|418:126,1,77.5,8|0,0:0|0:0,0:0:0:0:
277,106,94293,2,0,L|271:19,1,77.5,0|8,0:0|0:0,0:0:0:0:
117,27,94748,1,0,0:0:0:0:
406,83,95051,6,0,P|450:84|470:185,1,155,8|0,0:0|0:0,0:0:0:0:
232,198,95657,2,0,L|325:188,2,77.5,8|0|0,0:0|0:0|0:0,0:0:0:0:
69,149,96112,1,0,0:0:0:0:
152,132,96263,6,0,L|156:-33,1,155,8|0,0:0|0:0,0:0:0:0:
415,63,96869,2,0,L|419:244,1,155,8|0,0:0|0:0,0:0:0:0:
332,255,97324,1,0,0:0:0:0:
90,270,97475,6,0,P|49:275|44:378,1,155,8|0,0:0|0:0,0:0:0:0:
270,313,98081,2,0,L|89:295,1,155,8|0,0:0|0:0,0:0:0:0:
367,172,98688,6,0,L|371:282,1,77.5,8|0,0:0|0:0,0:0:0:0:
145,276,99142,2,0,L|253:268,1,77.5
373,191,99445,2,0,L|377:96,1,77.5
292,85,99748,1,0,0:0:0:0:
43,96,99900,5,8,0:0:0:0:
256,192,100051,12,0,101718,0:0:0:0:
335,146,102324,5,4,3:0:0:0:
75,113,102627,2,0,L|158:98,1,77.5,8|0,0:0|0:0,0:0:0:0:
302,56,102930,2,0,L|391:41,1,77.5,0|0,3:0|0:0,0:0:0:0:
231,122,103233,2,0,L|118:113,1,77.5,8|0,0:0|0:0,0:0:0:0:
396,72,103536,6,0,P|455:70|469:155,1,155,4|8,3:0|0:0,0:0:0:0:
313,177,103991,2,0,L|311:263,1,77.5,0|0,3:0|0:0,0:0:0:0:
156,283,104294,2,0,L|157:197,1,77.5,0|8,0:0|0:0,0:0:0:0:
75,166,104597,1,0,0:0:0:0:
331,123,104748,5,4,3:0:0:0:
332,67,105051,2,0,L|256:76,1,77.5,8|0,0:0|0:0,0:0:0:0:
98,92,105354,2,0,L|5:89,1,77.5,0|0,3:0|0:0,0:0:0:0:
179,154,105657,2,0,L|177:254,1,77.5,8|0,0:0|0:0,0:0:0:0:
427,247,105960,6,0,P|470:222|410:152,1,155,4|8,3:0|0:0,0:0:0:0:
268,140,106415,2,0,L|263:227,1,77.5,4|0,3:0|0:0,0:0:0:0:
180,243,106718,1,0,0:0:0:0:
339,135,106869,2,0,L|339:35,1,77.5,4|0,3:0|0:0,0:0:0:0:
92,67,107172,5,12,3:0:0:0:
82,18,107475,2,0,L|172:12,1,77.5,8|0,0:0|0:0,0:0:0:0:
315,75,107778,2,0,L|230:70,1,77.5,0|0,3:0|0:0,0:0:0:0:
80,78,108081,2,0,L|81:173,1,77.5,8|0,0:0|0:0,0:0:0:0:
326,179,108384,6,0,P|396:183|395:264,1,155,4|8,3:0|0:0,0:0:0:0:
252,270,108839,2,0,L|254:171,1,77.5,0|0,3:0|0:0,0:0:0:0:
411,137,109142,2,0,L|415:34,1,77.5,0|8,0:0|0:0,0:0:0:0:
493,42,109445,1,0,0:0:0:0:
248,66,109597,5,4,3:0:0:0:
248,66,109900,2,0,L|339:61,1,77.5,8|0,0:0|0:0,0:0:0:0:
177,155,110203,2,0,L|91:147,1,77.5,0|0,3:0|0:0,0:0:0:0:
248,66,110506,2,0,L|339:61,1,77.5,8|0,0:0|0:0,0:0:0:0:
83,80,110809,6,0,P|40:90|106:144,1,155,4|8,3:0|0:0,0:0:0:0:
237,175,111263,2,0,L|241:283,1,77.5,4|0,3:0|0:0,0:0:0:0:
156,296,111566,1,0,0:0:0:0:
317,204,111718,2,0,L|404:199,1,77.5,4|0,3:0|0:0,0:0:0:0:
146,117,112021,5,4,3:0:0:0:
132,57,112324,2,0,L|214:49,1,77.5,8|0,0:0|0:0,0:0:0:0:
368,31,112627,2,0,L|463:21,1,77.5,0|0,3:0|0:0,0:0:0:0:
284,107,112930,2,0,L|193:104,1,77.5,8|0,0:0|0:0,0:0:0:0:
445,186,113233,6,0,P|479:169|423:96,1,155,4|8,3:0|0:0,0:0:0:0:
274,113,113687,2,0,P|221:117|202:210,1,155,0|0,3:0|0:0,0:0:0:0:
356,205,114142,2,0,L|242:203,1,77.5,8|0,0:0|0:0,0:0:0:0:
36,137,114445,6,0,P|32:182|131:234,1,155,4|8,3:0|0:0,0:0:0:0:
204,212,114900,1,0,0:0:0:0:
52,152,115051,2,0,L|52:59,1,77.5,0|0,3:0|0:0,0:0:0:0:
131,50,115354,1,8,0:0:0:0:
289,49,115506,1,0,0:0:0:0:
369,50,115657,6,0,L|371:127,1,77.5,4|0,3:0|0:0,0:0:0:0:
212,139,115960,2,0,L|211:230,1,77.5,8|4,0:0|3:0,0:0:0:0:
455,225,116263,2,0,P|500:199|429:139,1,155,0|4,0:0|3:0,0:0:0:0:
371,110,116718,1,0,0:0:0:0:
131,103,116869,6,0,P|70:114|54:211,1,155,0|8,3:0|0:0,0:0:0:0:
296,238,117475,2,0,L|475:246,1,155,0|8,3:0|0:0,0:0:0:0:
187,158,118081,6,0,L|33:152,1,155,4|8,3:0|0:0,0:0:0:0:
114,101,118536,1,0,3:0:0:0:
279,144,118688,2,0,L|462:150,1,155,0|8,0:0|0:0,0:0:0:0:
350,83,119142,1,0,0:0:0:0:
92,50,119294,5,4,3:0:0:0:
309,36,119597,1,0,3:0:0:0:
104,221,120354,5,4,3:0:0:0:
104,221,120960,6,0,L|267:290,2,155
354,152,121718,5,4,3:0:0:0:
373,71,122021,2,0,L|281:69,1,77.5,8|0,0:0|0:0,0:0:0:0:
140,72,122324,1,0,3:0:0:0:
123,108,122627,2,0,L|215:106,1,77.5,8|0,0:0|0:0,0:0:0:0:
442,104,122930,5,4,3:0:0:0:
454,41,123233,1,8,0:0:0:0:
291,41,123384,1,0,3:0:0:0:
401,108,123687,1,0,0:0:0:0:
321,106,123839,2,0,L|318:187,1,77.5,8|0,0:0|0:0,0:0:0:0:
71,208,124142,5,4,3:0:0:0:
52,120,124445,2,0,L|143:117,1,77.5,8|0,0:0|0:0,0:0:0:0:
291,113,124748,1,0,3:0:0:0:
323,45,125051,2,0,L|231:37,1,77.5,8|0,0:0|0:0,0:0:0:0:
19,31,125354,5,4,3:0:0:0:
15,82,125657,1,8,0:0:0:0:
255,88,125809,1,4,3:0:0:0:
292,26,126112,1,0,0:0:0:0:
57,22,126263,2,0,L|57:112,1,77.5,4|0,3:0|0:0,0:0:0:0:
288,105,126566,5,12,3:0:0:0:
302,49,126869,2,0,L|219:43,1,77.5,8|0,0:0|0:0,0:0:0:0:
381,188,127172,1,0,3:0:0:0:
398,119,127475,2,0,L|298:111,1,77.5,8|0,0:0|0:0,0:0:0:0:
83,92,127778,5,4,3:0:0:0:
76,39,128081,1,8,0:0:0:0:
236,34,128233,1,0,3:0:0:0:
236,34,128536,1,0,0:0:0:0:
391,30,128687,1,8,0:0:0:0:
148,73,128990,6,0,P|91:81|71:180,1,155,4|8,3:0|0:0,0:0:0:0:
290,219,129596,2,0,L|115:202,1,155,0|8,3:0|0:0,0:0:0:0:
135,204,130051,1,0,0:0:0:0:
371,154,130202,6,0,P|430:158|442:244,1,155,4|8,3:0|0:0,0:0:0:0:
360,248,130657,1,4,3:0:0:0:
114,156,130809,2,0,P|57:165|36:258,1,155,0|4,0:0|3:0,0:0:0:0:
111,275,131263,1,0,0:0:0:0:
375,159,131415,5,12,3:0:0:0:
394,91,131718,2,0,L|317:84,1,77.5,8|0,0:0|0:0,0:0:0:0:
159,67,132021,2,0,P|106:70|89:164,1,155,0|8,3:0|0:0,0:0:0:0:
162,188,132475,1,0,0:0:0:0:
412,71,132627,6,0,P|465:74|482:168,1,155,4|8,3:0|0:0,0:0:0:0:
336,149,133081,2,0,L|333:252,1,77.5,0|0,3:0|0:0,0:0:0:0:
419,271,133384,2,0,L|420:182,1,77.5,0|8,0:0|0:0,0:0:0:0:
336,149,133687,1,0,0:0:0:0:
92,100,133839,5,4,3:0:0:0:
81,52,134142,2,0,L|158:45,1,77.5,8|0,0:0|0:0,0:0:0:0:
326,62,134445,2,0,P|379:65|396:159,1,155,0|8,3:0|0:0,0:0:0:0:
323,181,134899,1,0,0:0:0:0:
91,72,135051,6,0,P|38:75|21:169,1,155,4|8,3:0|0:0,0:0:0:0:
177,156,135505,2,0,L|180:259,1,77.5,4|0,3:0|0:0,0:0:0:0:
94,269,135808,2,0,L|93:180,1,77.5,0|4,0:0|3:0,0:0:0:0:
177,156,136111,1,0,0:0:0:0:
444,99,136263,5,12,3:0:0:0:
462,47,136566,2,0,L|366:47,1,77.5,8|0,0:0|0:0,0:0:0:0:
231,122,136869,2,0,L|401:120,1,155,0|8,3:0|0:0,0:0:0:0:
302,159,137324,6,0,L|302:261,1,77.5,0|4,0:0|3:0,0:0:0:0:
223,255,137627,2,0,L|221:159,1,77.5,0|8,0:0|0:0,0:0:0:0:
383,134,137930,2,0,P|420:152|361:228,1,155,0|0,3:0|0:0,0:0:0:0:
303,233,138384,2,0,L|407:231,1,77.5,8|0,0:0|0:0,0:0:0:0:
132,136,138687,6,0,P|116:219|139:305,1,155,4|4,3:0|3:0,0:0:0:0:
408,155,139899,6,0,L|224:122,1,155,4|4,3:0|3:0,0:0:0:0:
167,162,141112,5,8,0:3:0:0:
256,192,152021,12,0,152930,0:0:0:0:
182,152,153233,5,4,3:0:0:0:
403,75,153536,2,0,L|312:63,1,77.5,8|0,0:0|0:0,0:0:0:0:
173,58,153839,2,0,L|66:48,1,77.5,0|0,3:0|0:0,0:0:0:0:
252,136,154142,2,0,L|340:135,1,77.5,8|0,0:0|0:0,0:0:0:0:
82,157,154445,6,0,P|32:133|96:69,1,155,4|8,3:0|0:0,0:0:0:0:
234,68,154899,2,0,L|234:152,1,77.5,0|0,3:0|0:0,0:0:0:0:
77,188,155202,2,0,L|74:84,1,77.5,0|8,0:0|0:0,0:0:0:0:
151,71,155506,1,0,0:0:0:0:
394,60,155657,5,4,3:0:0:0:
277,62,155960,2,0,L|270:155,1,77.5,8|0,0:0|0:0,0:0:0:0:
416,198,156263,2,0,L|421:310,1,77.5,0|0,3:0|0:0,0:0:0:0:
272,317,156566,2,0,L|171:299,1,77.5,8|0,0:0|0:0,0:0:0:0:
442,272,156869,6,0,P|487:263|434:209,1,155,4|8,3:0|0:0,0:0:0:0:
202,161,157324,2,0,L|195:57,1,77.5,4|0,3:0|0:0,0:0:0:0:
273,44,157627,1,0,0:0:0:0:
116,64,157778,2,0,L|116:163,1,77.5,4|0,3:0|0:0,0:0:0:0:
379,222,158081,5,12,3:0:0:0:
251,130,158384,2,0,L|245:227,1,77.5,8|0,0:0|0:0,0:0:0:0:
89,216,158687,2,0,L|90:119,1,77.5,0|0,3:0|0:0,0:0:0:0:
248,93,158990,2,0,L|342:94,1,77.5,8|0,0:0|0:0,0:0:0:0:
89,173,159293,6,0,P|38:148|106:112,1,155,4|8,3:0|0:0,0:0:0:0:
251,110,159748,2,0,L|249:205,1,77.5,0|0,3:0|0:0,0:0:0:0:
166,230,160051,1,0,0:0:0:0:
323,185,160202,2,0,L|324:104,1,77.5,8|0,0:0|0:0,0:0:0:0:
73,91,160505,5,4,3:0:0:0:
201,90,160809,2,0,L|207:181,1,77.5,8|0,0:0|0:0,0:0:0:0:
352,220,161112,2,0,L|356:307,1,77.5,0|0,3:0|0:0,0:0:0:0:
205,319,161415,2,0,L|110:309,1,77.5,8|0,0:0|0:0,0:0:0:0:
370,168,161718,6,0,P|423:170|445:264,1,155,4|8,3:0|0:0,0:0:0:0:
211,181,162172,2,0,P|158:183|136:277,1,155,4|0,3:0|0:0,0:0:0:0:
378,265,162627,2,0,L|382:174,1,77.5,4|0,3:0|0:0,0:0:0:0:
129,115,162930,5,4,3:0:0:0:
337,85,163233,2,0,L|349:181,1,77.5,8|0,0:0|0:0,0:0:0:0:
203,187,163536,2,0,L|204:279,1,77.5,0|0,3:0|0:0,0:0:0:0:
350,290,163839,2,0,L|353:202,1,77.5,8|0,0:0|0:0,0:0:0:0:
88,170,164142,6,0,P|46:138|116:66,1,155,4|8,3:0|0:0,0:0:0:0:
249,72,164596,2,0,P|308:76|333:166,1,155,0|0,3:0|0:0,0:0:0:0:
172,162,165051,2,0,L|77:159,1,77.5,8|0,0:0|0:0,0:0:0:0:
383,132,165354,6,0,P|445:136|475:237,1,155,4|8,3:0|0:0,0:0:0:0:
251,254,165960,2,0,L|418:241,1,155,0|8,3:0|0:0,0:0:0:0:
321,173,166415,1,0,0:0:0:0:
82,197,166566,6,0,P|29:176|87:137,1,155,4|8,3:0|0:0,0:0:0:0:
163,135,167021,1,4,3:0:0:0:
405,127,167172,2,0,L|411:20,1,77.5
249,49,167475,2,0,L|165:48,1,77.5,4|0,3:0|0:0,0:0:0:0:
427,74,167778,6,0,L|427:248,1,155,0|8,3:0|0:0,0:0:0:0:
176,95,168384,2,0,L|176:269,1,155,0|8,3:0|0:0,0:0:0:0:
436,243,168990,6,0,L|269:221,1,155,4|8,3:0|0:0,0:0:0:0:
196,177,169445,1,0,3:0:0:0:
38,106,169596,2,0,L|204:78,1,155,0|8,0:0|0:0,0:0:0:0:
109,32,170051,1,0,0:0:0:0:
365,47,170202,6,0,P|422:50|443:152,1,155,4|8,3:0|0:0,0:0:0:0:
373,144,170657,1,0,0:0:0:0:
214,91,170809,2,0,P|157:94|136:196,1,155,0|8,3:0|0:0,0:0:0:0:
206,188,171264,1,0,3:0:0:0:
468,183,171415,6,0,L|469:97,1,77.5,4|0,3:0|3:0,0:0:0:0:
327,88,171718,2,0,L|426:87,1,77.5,8|0,0:0|3:0,0:0:0:0:
144,42,172021,1,0,0:0:0:0:
61,50,172172,1,0,0:0:0:0:
63,122,172324,1,8,0:0:0:0:
142,129,172475,1,0,0:0:0:0:
386,150,172627,5,4,3:0:0:0:
176,76,172930,2,0,L|171:167,1,77.5,8|0,0:0|0:0,0:0:0:0:
319,217,173233,2,0,L|400:214,1,77.5,0|0,3:0|0:0,0:0:0:0:
255,125,173536,2,0,L|147:120,1,77.5,8|0,0:0|0:0,0:0:0:0:
426,111,173839,6,0,P|477:134|413:177,1,155,4|8,3:0|0:0,0:0:0:0:
259,226,174293,2,0,L|256:122,1,77.5,0|0,3:0|0:0,0:0:0:0:
341,103,174596,1,0,0:0:0:0:
502,103,174748,2,0,L|502:204,1,77.5,8|0,0:0|0:0,0:0:0:0:
232,218,175051,5,4,3:0:0:0:
434,120,175354,2,0,L|337:113,1,77.5,8|0,0:0|0:0,0:0:0:0:
208,75,175657,2,0,L|94:65,1,77.5,0|0,3:0|0:0,0:0:0:0:
285,35,175960,2,0,L|367:33,1,77.5,8|0,0:0|0:0,0:0:0:0:
110,160,176263,6,0,P|61:131|132:85,1,155,4|8,3:0|0:0,0:0:0:0:
352,74,176718,2,0,L|354:161,1,77.5,4|0,3:0|0:0,0:0:0:0:
257,184,177021,1,0,0:0:0:0:
493,158,177172,2,0,L|494:72,1,77.5,4|0,3:0|0:0,0:0:0:0:
208,76,177475,5,12,3:0:0:0:
377,40,177778,2,0,L|271:22,1,77.5,8|0,0:0|0:0,0:0:0:0:
145,76,178081,2,0,L|257:64,1,77.5,0|0,3:0|0:0,0:0:0:0:
368,71,178384,2,0,L|463:62,1,77.5,8|0,0:0|0:0,0:0:0:0:
186,43,178687,6,0,P|131:45|116:137,1,155,4|8,3:0|0:0,0:0:0:0:
270,140,179142,2,0,L|272:44,1,77.5,0|0,3:0|0:0,0:0:0:0:
191,54,179445,1,0,0:0:0:0:
346,40,179596,2,0,L|431:36,1,77.5,8|0,0:0|0:0,0:0:0:0:
156,147,179899,5,4,3:0:0:0:
362,78,180202,2,0,L|368:167,1,77.5,8|0,0:0|0:0,0:0:0:0:
210,225,180505,2,0,L|117:220,1,77.5,0|0,3:0|0:0,0:0:0:0:
280,131,180809,2,0,L|372:125,1,77.5,8|0,0:0|0:0,0:0:0:0:
111,145,181112,6,0,P|61:117|124:59,1,155,4|8,3:0|0:0,0:0:0:0:
347,44,181566,2,0,L|347:142,1,77.5,4|0,3:0|0:0,0:0:0:0:
261,148,181869,1,0,0:0:0:0:
27,129,182021,2,0,L|23:25,1,77.5,4|0,3:0|0:0,0:0:0:0:
302,41,182324,5,12,3:0:0:0:
97,122,182627,2,0,L|206:107,1,77.5,8|0,0:0|0:0,0:0:0:0:
320,76,182930,2,0,L|414:60,1,77.5,0|0,3:0|0:0,0:0:0:0:
246,173,183233,2,0,L|148:161,1,77.5,8|0,0:0|0:0,0:0:0:0:
421,218,183536,6,0,P|460:205|410:130,1,155,4|8,3:0|0:0,0:0:0:0:
270,130,183990,2,0,L|447:114,1,155,0|0,3:0|0:0,0:0:0:0:
267,204,184445,2,0,L|359:205,1,77.5,8|0,0:0|0:0,0:0:0:0:
53,229,184748,6,0,P|10:204|65:139,1,155,4|8,3:0|0:0,0:0:0:0:
143,131,185202,1,0,0:0:0:0:
306,134,185354,2,0,L|306:231,1,77.5,0|0,3:0|0:0,0:0:0:0:
155,254,185657,2,0,L|260:253,1,77.5,8|0,0:0|0:0,0:0:0:0:
449,184,185960,6,0,P|496:198|443:263,1,155,4|8,3:0|0:0,0:0:0:0:
211,187,186415,2,0,L|211:94,1,77.5,4|0,3:0|0:0,0:0:0:0:
294,78,186718,1,0,0:0:0:0:
41,56,186869,2,0,L|40:155,1,77.5,4|0,3:0|0:0,0:0:0:0:
311,217,187172,6,0,L|136:202,1,155,12|8,3:0|0:0,0:0:0:0:
391,138,187778,2,0,P|462:147|470:240,1,155,0|8,3:0|0:0,0:0:0:0:
216,262,188384,6,0,L|400:261,1,155,4|8,3:0|0:0,0:0:0:0:
286,194,188839,1,0,3:0:0:0:
119,171,188990,2,0,P|71:133|132:74,1,155,0|8,0:0|0:0,0:0:0:0:
201,45,189445,1,0,0:0:0:0:
468,54,189596,6,0,L|473:223,1,155,4|4,3:0|3:0,0:0:0:0:
142,189,190657,5,4,3:0:0:0:
256,192,191187,12,0,193233,0:0:0:0:
