osu file format v14

[General]
AudioFilename: audio.mp3
AudioLeadIn: 0
PreviewTime: 44749
Countdown: 0
SampleSet: Soft
StackLeniency: 0.7
Mode: 2
LetterboxInBreaks: 0
WidescreenStoryboard: 1

[Editor]
Bookmarks: 5961,15658,25355,35052,64143,73840,83537,93234,102931,122325,141719,153840,192628
DistanceSpacing: 1
BeatDivisor: 4
GridSize: 16
TimelineZoom: 1.9

[Metadata]
Title:Heart Attack
TitleUnicode:Heart Attack
Artist:LOONA/Chuu
ArtistUnicode:이달의 소녀/츄
Creator:Secre
Version:Platter
Source:
Tags:chickenbible muya- vaqu kpop korean pop k-pop kim ji-woo yyxy blockberry creative 김지우 LOOΠΔ girl of the month
BeatmapID:4408879
BeatmapSetID:1905137

[Difficulty]
HPDrainRate:4
CircleSize:3.5
OverallDifficulty:8
ApproachRate:8
SliderMultiplier:2.67
SliderTickRate:2

[Events]
//Background and Video events
0,0,"chuu needs to become a vtuber now that is the only solution.jpg",0,0
Video,-75,"movie.mp4"
//Break Periods
2,141312,151271
//Storyboard Layer 0 (Background)
//Storyboard Layer 1 (Fail)
//Storyboard Layer 2 (Pass)
//Storyboard Layer 3 (Foreground)
//Storyboard Layer 4 (Overlay)
//Storyboard Sound Samples

[TimingPoints]
5355,606.060606060606,4,2,1,50,1,0
5961,-100,4,2,1,60,0,0
43991,-100,4,2,1,60,0,0
44142,-100,4,2,1,60,0,1
44597,-100,4,2,1,60,0,1
44749,-100,4,2,1,75,0,1
54446,-100,4,2,1,75,0,1
62021,-100,4,2,1,75,0,0
62779,-100,4,2,1,75,0,0
63082,-100,4,2,1,75,0,0
64143,-100,4,2,1,60,0,0
102173,-100,4,2,1,60,0,0
102324,-100,4,2,1,60,0,1
102779,-100,4,2,1,60,0,1
102931,-100,4,2,1,75,0,1
112325,-100,4,2,1,75,0,1
112628,-100,4,2,1,75,0,1
120354,-100,4,2,1,75,0,0
121718,-100,4,2,1,75,0,1
122325,-100,4,2,1,75,0,1
123537,-100,4,2,1,75,0,1
127173,-100,4,2,1,75,0,1
130809,-100,4,2,1,75,0,1
132022,-100,4,2,1,75,0,1
133234,-100,4,2,1,75,0,1
136870,-100,4,2,1,75,0,1
138991,-100,4,2,1,75,0,0
139294,-100,4,2,1,75,0,0
139597,-100,4,2,1,75,0,0
140506,-100,4,2,1,75,0,0
140809,-100,4,2,1,60,0,0
141719,-1000,4,2,1,60,0,0
152628,-100,4,2,1,60,0,0
153688,-100,4,2,1,60,0,0
153839,-100,4,2,1,85,0,1
157173,-100,4,2,1,85,0,1
157476,-100,4,2,1,85,0,1
158385,-100,4,2,1,85,0,1
158688,-100,4,2,1,85,0,1
162022,-100,4,2,1,85,0,1
162325,-100,4,2,1,85,0,1
163234,-100,4,2,1,85,0,1
163537,-100,4,2,1,85,0,1
168082,-100,4,2,1,85,0,1
168385,-100,4,2,1,85,0,1
170506,-100,4,2,1,85,0,1
170809,-100,4,2,1,85,0,1
172931,-100,4,2,1,85,0,1
173234,-100,4,2,1,85,0,1
176567,-100,4,2,1,85,0,1
176870,-100,4,2,1,85,0,1
177779,-100,4,2,1,85,0,1
178082,-100,4,2,1,85,0,1
181416,-100,4,2,1,85,0,1
181719,-100,4,2,1,85,0,1
182628,-100,4,2,1,85,0,1
182931,-100,4,2,1,85,0,1
187476,-100,4,2,1,85,0,1
187779,-100,4,2,1,85,0,0
189900,-100,4,2,1,85,0,0
190203,-100,4,2,1,85,0,0
191264,-100,4,2,1,85,0,0
191416,-100,4,2,1,60,0,0
191794,-100,4,2,1,60,0,0
192325,-100,4,2,1,60,0,0
192628,-100,4,2,1,45,0,0
193840,-100,4,2,1,45,0,0

[Colours]
Combo1 : 0,128,255
Combo2 : 255,133,91
Combo3 : 85,255,85
Combo4 : 255,74,165

[HitObjects]
256,192,2930,12,0,5051,0:0:0:0:
216,152,5354,6,0,P|153:160|147:232,1,133.5,8|8,3:0|0:0,0:0:0:0:
268,244,5960,2,0,L|416:236,1,133.5,0|8,3:0|0:0,0:0:0:0:
178,241,6566,6,0,L|178:93,1,133.5,0|8,3:0|0:0,0:0:0:0:
255,86,7021,2,0,L|400:84,1,133.5,0|0,3:0|0:0,0:0:0:0:
388,84,7475,1,2,0:1:0:0:
143,209,7778,6,0,L|143:72,1,133.5,0|8,3:0|0:0,0:0:0:0:
276,80,8384,2,0,L|128:75,1,133.5,0|8,3:0|0:0,0:0:0:0:
207,114,8839,6,0,L|208:187,1,66.75,0|0,0:0|3:0,0:0:0:0:
79,208,9293,2,0,L|80:129,1,66.75,8|0,0:0|3:0,0:0:0:0:
73,102,9899,2,0,L|143:102,1,66.75,8|0,0:0|0:0,0:0:0:0:
363,100,10202,6,0,P|403:101|431:180,1,133.5,0|8,3:0|0:0,0:0:0:0:
298,265,10809,2,0,L|150:257,1,133.5,0|8,3:0|0:0,0:0:0:0:
388,262,11415,6,0,L|388:114,1,133.5,0|8,3:0|0:0,0:0:0:0:
311,107,11870,2,0,L|166:105,1,133.5,0|0,3:0|0:0,0:0:0:0:
177,105,12324,1,2,0:1:0:0:
423,230,12627,6,0,L|423:93,1,133.5,0|8,3:0|0:0,0:0:0:0:
290,101,13233,2,0,L|438:96,1,133.5,0|8,3:0|0:0,0:0:0:0:
359,135,13688,6,0,L|358:208,1,66.75,0|0,0:0|3:0,0:0:0:0:
421,238,13990,1,0,3:0:0:0:
487,229,14142,2,0,L|486:150,1,66.75,8|0,0:0|3:0,0:0:0:0:
423,142,14445,2,0,P|362:144|353:212,1,133.5,0|0,3:0|0:0,0:0:0:0:
415,229,14899,1,0,0:0:0:0:
189,135,15051,5,4,3:0:0:0:
166,78,16869,5,8,0:0:0:0:
158,37,17172,2,0,L|245:33,1,66.75,2|0,0:1|0:0,0:0:0:0:
450,152,17475,6,0,P|485:135|433:77,1,133.5,0|8,3:0|0:0,0:0:0:0:
313,77,18081,2,0,L|317:169,1,66.75,0|0,3:0|0:0,0:0:0:0:
245,172,18384,2,0,L|244:88,1,66.75,8|0,0:0|0:0,0:0:0:0:
381,83,18687,6,0,P|419:88|448:177,1,133.5,0|8,3:0|0:0,0:0:0:0:
386,189,19142,1,0,3:0:0:0:
381,99,19596,2,0,L|465:103,1,66.75,8|0,0:0|0:0,0:0:0:0:
226,254,19899,6,0,P|195:238|241:161,1,133.5,8|8,3:0|0:0,0:0:0:0:
348,140,20506,2,0,L|197:137,1,133.5,0|8,3:0|0:0,0:0:0:0:
450,83,21112,6,0,L|451:-2,1,66.75,0|0,3:0|0:0,0:0:0:0:
217,59,21566,2,0,L|67:61,1,133.5,0|0,3:0|0:0,0:0:0:0:
83,60,22021,1,2,0:1:0:0:
465,131,22324,6,0,L|469:280,1,133.5,0|8,3:0|0:0,0:0:0:0:
333,281,22930,2,0,L|492:287,1,133.5,0|8,3:0|0:0,0:0:0:0:
221,153,23536,5,0,3:0:0:0:
151,116,23687,2,0,L|150:43,1,66.75,0|8,0:0|0:0,0:0:0:0:
304,35,23990,2,0,P|355:35|405:163,1,200.25,0|8,3:0|0:0,0:0:0:0:
339,162,24596,1,0,0:0:0:0:
113,162,24748,5,8,3:0:0:0:
105,86,25051,1,8,0:0:0:0:
337,81,25354,2,0,P|383:79|410:161,1,133.5,0|8,3:0|0:0,0:0:0:0:
349,161,25809,1,0,0:0:0:0:
276,152,25960,5,0,3:0:0:0:
349,161,26112,2,0,L|351:75,1,66.75,0|8,0:0|0:0,0:0:0:0:
212,82,26415,2,0,L|67:89,1,133.5,0|0,3:0|0:0,0:0:0:0:
78,88,26869,2,0,L|150:83,1,66.75,2|0,0:1|0:0,0:0:0:0:
282,91,27172,6,0,P|336:94|355:183,1,133.5,0|8,3:0|0:0,0:0:0:0:
241,209,27778,2,0,L|165:207,2,66.75,0|0|8,3:0|0:0|0:0,0:0:0:0:
312,213,28233,1,0,0:0:0:0:
456,216,28384,6,0,L|457:66,1,133.5,0|8,3:0|0:0,0:0:0:0:
389,62,28839,1,0,3:0:0:0:
257,48,29142,2,0,L|259:138,1,66.75,0|8,0:0|0:0,0:0:0:0:
324,167,29445,1,0,0:0:0:0:
101,121,29596,6,0,P|64:139|126:197,1,133.5,8|8,3:0|0:0,0:0:0:0:
229,210,30202,2,0,L|83:206,1,133.5,0|8,3:0|0:0,0:0:0:0:
344,155,30809,6,0,P|405:155|406:237,1,133.5,0|8,3:0|0:0,0:0:0:0:
350,237,31263,2,0,L|507:239,1,133.5,0|0,3:0|0:0,0:0:0:0:
483,238,31718,1,2,0:1:0:0:
111,133,32021,6,0,L|110:289,1,133.5,0|8,3:0|0:0,0:0:0:0:
249,301,32627,2,0,L|404:300,1,133.5,0|8,3:0|0:0,0:0:0:0:
153,146,33233,6,0,P|118:125|176:62,1,133.5,0|4,3:0|0:1,0:0:0:0:
225,51,33687,2,0,L|377:49,1,133.5,0|0,3:0|0:0,0:0:0:0:
358,49,34142,1,8,0:0:0:0:
119,170,34445,6,0,L|115:88,1,66.75,8|0,3:0|0:0,0:0:0:0:
232,72,34899,2,0,L|236:-3,1,66.75,0|8,0:0|0:0,0:0:0:0:
107,17,35354,1,0,0:0:0:0:
359,235,35657,6,0,L|363:153,1,66.75,8|0,0:0|0:0,0:0:0:0:
246,137,36111,2,0,L|242:62,1,66.75,0|8,0:0|0:0,0:0:0:0:
371,82,36566,1,0,0:0:0:0:
141,131,36869,6,0,P|96:101|153:46,1,133.5,8|0,0:0|0:0,0:0:0:0:
252,47,37475,2,0,L|323:44,2,66.75,8|0|0,0:0|0:0|0:0,0:0:0:0:
186,50,37930,1,0,0:0:0:0:
122,58,38081,6,0,L|118:205,1,133.5,8|0,0:0|0:0,0:0:0:0:
254,217,38687,2,0,L|409:207,1,133.5,8|0,0:0|0:0,0:0:0:0:
316,143,39142,1,0,0:0:0:0:
172,108,39293,6,0,P|132:109|110:189,1,133.5,8|0,0:0|0:0,0:0:0:0:
239,211,39899,2,0,L|103:186,1,133.5,8|0,0:0|0:0,0:0:0:0:
344,126,40506,6,0,L|423:121,1,66.75,8|0,0:0|0:0,0:0:0:0:
302,89,40960,2,0,L|300:244,1,133.5
421,282,41566,1,0,0:0:0:0:
275,127,41718,5,8,0:0:0:0:
256,192,41869,12,0,43536,0:0:0:0:
139,135,44142,5,4,3:0:0:0:
371,122,44445,1,8,0:0:0:0:
139,135,44748,2,0,L|142:283,1,133.5,0|8,3:0|0:0,0:0:0:0:
380,279,45354,6,0,L|241:273,1,133.5,4|8,3:0|0:0,0:0:0:0:
246,273,45809,1,0,3:0:0:0:
379,189,46112,2,0,L|382:116,1,66.75,0|8,0:0|0:0,0:0:0:0:
311,87,46415,1,0,0:0:0:0:
79,90,46566,5,4,3:0:0:0:
79,90,46869,2,0,L|218:91,2,133.5,8|0|8,0:0|3:0|0:0,0:0:0:0:
448,110,47778,6,0,L|450:259,1,133.5,4|8,3:0|0:0,0:0:0:0:
390,265,48233,1,4,3:0:0:0:
138,136,48536,1,0,0:0:0:0:
72,100,48687,2,0,L|72:27,1,66.75,4|0,3:0|0:0,0:0:0:0:
299,42,48990,5,12,3:0:0:0:
299,42,49293,2,0,L|157:42,1,133.5,8|0,0:0|3:0,0:0:0:0:
165,42,49899,1,8,0:0:0:0:
400,95,50202,6,0,L|399:234,1,133.5,4|8,3:0|0:0,0:0:0:0:
327,259,50657,1,0,3:0:0:0:
456,210,50960,1,0,0:0:0:0:
456,210,51112,2,0,L|371:210,1,66.75,8|0,0:0|0:0,0:0:0:0:
169,143,51415,5,4,3:0:0:0:
169,143,51718,2,0,L|306:142,1,133.5,8|0,0:0|3:0,0:0:0:0:
302,142,52324,1,8,0:0:0:0:
69,224,52627,6,0,L|70:77,1,133.5,4|8,3:0|0:0,0:0:0:0:
144,75,53081,2,0,L|4:73,1,133.5,4|0,3:0|0:0,0:0:0:0:
10,73,53536,2,0,L|86:73,1,66.75,4|0,3:0|0:0,0:0:0:0:
301,160,53839,5,4,3:0:0:0:
181,159,54142,2,0,L|182:0,1,133.5,8|0,0:0|3:0,0:0:0:0:
308,16,54748,1,8,0:0:0:0:
73,238,55051,6,0,L|71:83,1,133.5,4|8,3:0|0:0,0:0:0:0:
140,80,55505,2,0,L|275:82,1,133.5,0|0,3:0|0:0,0:0:0:0:
205,122,55960,2,0,L|205:201,1,66.75,8|0,0:0|0:0,0:0:0:0:
428,257,56263,6,0,P|465:247|416:192,1,133.5,4|8,3:0|0:0,0:0:0:0:
291,182,56869,2,0,L|127:181,1,133.5,0|8,3:0|0:0,0:0:0:0:
221,121,57324,6,0,L|292:122,2,66.75,0|4|0,0:0|3:0|0:0,0:0:0:0:
159,100,57778,2,0,L|159:31,1,66.75,8|4,0:0|3:0,0:0:0:0:
304,32,58081,2,0,L|465:32,1,133.5,0|4,0:0|3:0,0:0:0:0:
68,260,58687,6,0,L|65:96,1,133.5,0|8,3:0|0:0,0:0:0:0:
198,130,59293,2,0,L|49:125,1,133.5,0|8,3:0|0:0,0:0:0:0:
314,267,59899,6,0,L|317:103,1,133.5,4|8,3:0|0:0,0:0:0:0:
184,137,60505,2,0,L|333:132,1,133.5,0|8,0:0|0:0,0:0:0:0:
317,132,60960,1,0,0:0:0:0:
81,206,61112,6,0,P|43:184|93:117,1,133.5,4|0,3:0|3:0,0:0:0:0:
375,92,62172,1,4,3:0:0:0:
375,92,62778,2,0,L|239:151,2,133.5
148,231,63536,6,0,P|111:209|174:153,1,133.5,8|8,3:0|0:0,0:0:0:0:
272,141,64142,2,0,L|416:132,1,133.5,0|8,3:0|0:0,0:0:0:0:
184,255,64748,6,0,L|183:113,1,133.5,0|8,3:0|0:0,0:0:0:0:
258,98,65202,2,0,L|414:92,1,133.5,0|0,3:0|0:0,0:0:0:0:
391,92,65657,1,2,0:1:0:0:
165,164,65960,6,0,L|16:152,1,133.5,0|8,3:0|0:0,0:0:0:0:
165,164,66566,2,0,L|16:152,1,133.5,0|8,3:0|0:0,0:0:0:0:
252,78,67172,6,0,L|251:236,1,133.5,0|8,3:0|0:0,0:0:0:0:
183,242,67627,1,0,3:0:0:0:
172,179,68081,2,0,L|247:169,1,66.75,8|0,0:0|0:0,0:0:0:0:
465,158,68384,6,0,P|505:205|446:258,1,133.5,0|8,3:0|0:0,0:0:0:0:
340,292,68990,2,0,L|491:250,1,133.5,0|8,3:0|0:0,0:0:0:0:
230,170,69596,6,0,P|193:147|242:83,1,133.5,0|8,3:0|0:0,0:0:0:0:
301,65,70051,2,0,L|441:56,1,133.5,0|0,3:0|0:0,0:0:0:0:
434,56,70506,1,2,0:1:0:0:
182,165,70809,6,0,L|181:309,1,133.5,0|8,3:0|0:0,0:0:0:0:
313,317,71415,2,0,L|452:309,1,133.5,0|8,3:0|0:0,0:0:0:0:
382,253,71869,1,0,0:0:0:0:
237,178,72021,5,0,3:0:0:0:
171,162,72172,1,0,3:0:0:0:
171,162,72324,1,8,0:0:0:0:
237,178,72475,1,0,3:0:0:0:
387,201,72627,2,0,P|439:202|456:275,1,133.5,0|0,3:0|0:0,0:0:0:0:
391,285,73081,1,0,0:0:0:0:
166,191,73233,5,8,3:0:0:0:
101,155,73384,2,0,L|103:69,1,66.75,0|8,0:0|0:0,0:0:0:0:
249,72,73687,2,0,L|386:67,1,133.5
313,131,74142,2,0,L|313:215,1,66.75,8|0,0:0|0:0,0:0:0:0:
451,233,74445,6,0,L|452:328,1,66.75,0|0,3:0|0:0,0:0:0:0:
319,320,74899,2,0,L|467:309,1,133.5,0|0,3:0|0:0,0:0:0:0:
452,310,75354,1,2,0:1:0:0:
213,231,75657,6,0,P|175:210|231:142,1,133.5,0|8,3:0|0:0,0:0:0:0:
270,121,76112,1,0,0:0:0:0:
341,114,76263,2,0,L|344:198,1,66.75,0|0,3:0|0:0,0:0:0:0:
274,218,76566,2,0,L|274:295,1,66.75,8|0,0:0|0:0,0:0:0:0:
410,286,76869,6,0,L|491:287,1,66.75,0|0,3:0|0:0,0:0:0:0:
341,250,77324,2,0,L|182:242,1,133.5,0|0,3:0|0:0,0:0:0:0:
271,178,77778,2,0,L|273:97,1,66.75,8|0,0:0|0:0,0:0:0:0:
43,168,78081,6,0,P|8:150|53:87,1,133.5,8|8,3:0|0:0,0:0:0:0:
116,83,78536,2,0,L|259:79,1,133.5
181,129,78990,2,0,L|179:211,1,66.75,8|0,0:0|0:0,0:0:0:0:
319,232,79293,6,0,L|414:232,1,66.75,0|0,3:0|0:0,0:0:0:0:
264,162,79748,2,0,L|124:150,1,133.5,0|0,3:0|0:0,0:0:0:0:
130,150,80202,1,2,0:1:0:0:
495,228,80506,6,0,L|497:88,1,133.5,0|8,3:0|0:0,0:0:0:0:
364,108,81112,2,0,L|504:93,1,133.5,0|8,3:0|0:0,0:0:0:0:
235,149,81718,6,0,L|94:135,1,133.5,0|8,3:0|0:0,0:0:0:0:
171,94,82172,2,0,L|171:243,1,133.5,0|0,3:0|0:0,0:0:0:0:
101,238,82627,2,0,L|101:159,1,66.75,8|0,0:0|0:0,0:0:0:0:
329,143,82930,6,0,L|467:127,1,133.5,8|8,3:0|0:0,0:0:0:0:
329,143,83536,2,0,L|467:127,1,133.5,0|8,3:0|0:0,0:0:0:0:
244,83,84142,6,0,L|169:77,2,66.75,0|0|8,3:0|0:0|0:0,0:0:0:0:
321,105,84596,2,0,P|372:107|388:186,1,133.5,0|0,3:0|0:0,0:0:0:0:
326,206,85051,1,2,0:1:0:0:
86,197,85354,6,0,L|89:46,1,133.5,0|8,3:0|0:0,0:0:0:0:
211,54,85960,2,0,L|140:45,1,66.75,0|0,3:0|0:0,0:0:0:0:
69,55,86263,2,0,L|63:144,1,66.75,8|0,0:0|0:0,0:0:0:0:
205,203,86566,6,0,L|370:206,1,133.5,0|8,3:0|0:0,0:0:0:0:
271,137,87021,2,0,L|120:128,1,133.5,0|0,3:0|0:0,0:0:0:0:
137,129,87475,1,8,0:0:0:0:
368,136,87778,6,0,L|367:280,1,133.5,8|8,3:0|0:0,0:0:0:0:
300,306,88233,2,0,L|142:280,1,133.5
168,284,88687,2,0,L|257:300,1,66.75,8|0,0:0|0:0,0:0:0:0:
377,281,88990,6,0,P|416:270|367:216,1,133.5,0|8,3:0|0:0,0:0:0:0:
308,207,89445,2,0,L|168:193,1,133.5,0|0,3:0|0:0,0:0:0:0:
175,193,89899,2,0,L|257:204,1,66.75,2|0,0:1|0:0,0:0:0:0:
475,242,90202,6,0,P|505:223|459:144,1,133.5,0|8,3:0|0:0,0:0:0:0:
356,200,90809,2,0,L|481:143,1,133.5,0|8,3:0|0:0,0:0:0:0:
406,113,91263,1,0,0:0:0:0:
261,115,91415,6,0,P|208:115|195:198,1,133.5,0|4,3:0|0:1,0:0:0:0:
263,205,91869,2,0,P|309:205|327:290,1,133.5,0|0,3:0|0:0,0:0:0:0:
269,294,92324,1,8,0:0:0:0:
49,187,92627,6,0,L|49:103,1,66.75,8|0,3:0|0:0,0:0:0:0:
176,83,93081,2,0,L|182:9,1,66.75,0|8,0:0|0:0,0:0:0:0:
308,72,93536,1,0,0:0:0:0:
49,187,93839,6,0,L|49:103,1,66.75,8|0,0:0|0:0,0:0:0:0:
176,83,94293,2,0,L|182:9,1,66.75,0|8,0:0|0:0,0:0:0:0:
308,72,94748,1,0,0:0:0:0:
58,167,95051,6,0,P|29:145|78:79,1,133.5,8|0,0:0|0:0,0:0:0:0:
199,69,95657,2,0,L|200:146,1,66.75,8|0,0:0|0:0,0:0:0:0:
131,171,95960,2,0,L|129:92,1,66.75
266,80,96263,6,0,L|412:77,1,133.5,8|0,0:0|0:0,0:0:0:0:
265,80,96869,2,0,L|114:89,1,133.5,8|0,0:0|0:0,0:0:0:0:
195,29,97324,1,0,0:0:0:0:
430,73,97475,6,0,P|471:95|419:147,1,133.5,8|0,0:0|0:0,0:0:0:0:
294,167,98081,2,0,L|296:319,1,133.5,8|0,0:0|0:0,0:0:0:0:
149,295,98687,6,0,L|76:285,1,66.75,8|0,0:0|0:0,0:0:0:0:
209,192,99142,2,0,L|362:186,1,133.5
342,186,99748,1,0,0:0:0:0:
194,107,99899,5,8,0:0:0:0:
256,192,100051,12,0,101718,0:0:0:0:
373,135,102324,5,4,3:0:0:0:
141,122,102627,1,8,0:0:0:0:
373,135,102930,2,0,L|370:283,1,133.5,0|8,3:0|0:0,0:0:0:0:
132,279,103536,6,0,L|271:273,1,133.5,4|8,3:0|0:0,0:0:0:0:
266,273,103991,1,0,3:0:0:0:
133,189,104294,2,0,L|130:116,1,66.75,0|8,0:0|0:0,0:0:0:0:
201,87,104597,1,0,0:0:0:0:
437,91,104748,5,4,3:0:0:0:
437,91,105051,2,0,L|298:92,2,133.5,8|0|8,0:0|3:0|0:0,0:0:0:0:
71,104,105960,6,0,L|69:253,1,133.5,4|8,3:0|0:0,0:0:0:0:
137,261,106415,1,4,3:0:0:0:
374,136,106718,1,0,0:0:0:0:
440,100,106869,2,0,L|440:27,1,66.75,4|0,3:0|0:0,0:0:0:0:
213,42,107172,5,12,3:0:0:0:
213,42,107475,2,0,L|355:42,1,133.5,8|0,0:0|3:0,0:0:0:0:
347,42,108081,1,8,0:0:0:0:
112,95,108384,6,0,L|113:234,1,133.5,4|8,3:0|0:0,0:0:0:0:
185,259,108839,1,0,3:0:0:0:
56,210,109142,1,0,0:0:0:0:
56,210,109294,2,0,L|141:210,1,66.75,8|0,0:0|0:0,0:0:0:0:
343,143,109597,5,4,3:0:0:0:
343,143,109900,2,0,L|206:142,1,133.5,8|0,0:0|3:0,0:0:0:0:
210,142,110506,1,8,0:0:0:0:
443,224,110809,6,0,L|442:77,1,133.5,4|8,3:0|0:0,0:0:0:0:
368,75,111263,2,0,L|508:73,1,133.5,4|0,3:0|0:0,0:0:0:0:
502,73,111718,2,0,L|426:73,1,66.75,4|0,3:0|0:0,0:0:0:0:
211,160,112021,5,4,3:0:0:0:
331,159,112324,2,0,L|330:0,1,133.5,8|0,0:0|3:0,0:0:0:0:
204,16,112930,1,8,0:0:0:0:
439,238,113233,6,0,L|441:83,1,133.5,4|8,3:0|0:0,0:0:0:0:
372,80,113687,2,0,L|237:82,1,133.5,0|0,3:0|0:0,0:0:0:0:
307,122,114142,2,0,L|307:201,1,66.75,8|0,0:0|0:0,0:0:0:0:
84,257,114445,6,0,P|47:247|96:192,1,133.5,4|8,3:0|0:0,0:0:0:0:
221,182,115051,2,0,L|385:181,1,133.5,0|8,3:0|0:0,0:0:0:0:
291,121,115506,6,0,L|220:122,2,66.75,0|4|0,0:0|3:0|0:0,0:0:0:0:
353,100,115960,2,0,L|353:31,1,66.75,8|4,0:0|3:0,0:0:0:0:
208,32,116263,2,0,L|47:32,1,133.5,0|4,0:0|3:0,0:0:0:0:
440,256,116869,6,0,L|443:92,1,133.5,0|8,3:0|0:0,0:0:0:0:
310,126,117475,2,0,L|459:121,1,133.5,0|8,3:0|0:0,0:0:0:0:
198,267,118081,6,0,L|195:103,1,133.5,4|8,3:0|0:0,0:0:0:0:
328,137,118687,2,0,L|179:132,1,133.5,0|8,0:0|0:0,0:0:0:0:
195,132,119142,1,0,0:0:0:0:
431,206,119294,6,0,P|469:184|419:117,1,133.5,4|0,3:0|3:0,0:0:0:0:
137,92,120354,1,4,3:0:0:0:
137,92,120960,2,0,L|273:151,2,133.5
364,231,121718,6,0,P|401:209|338:153,1,133.5,4|8,3:0|0:0,0:0:0:0:
292,138,122172,1,0,0:0:0:0:
144,119,122324,1,0,3:0:0:0:
136,71,122627,2,0,L|212:66,1,66.75,8|0,0:0|0:0,0:0:0:0:
351,63,122930,6,0,P|399:66|423:147,1,133.5,4|8,3:0|0:0,0:0:0:0:
359,176,123384,1,0,3:0:0:0:
236,84,123687,1,0,0:0:0:0:
300,133,123839,1,8,0:0:0:0:
300,133,123990,1,0,0:0:0:0:
73,183,124142,5,4,3:0:0:0:
57,101,124445,2,0,L|146:94,1,66.75,8|0,0:0|0:0,0:0:0:0:
266,82,124748,2,0,P|309:83|329:167,1,133.5,0|8,3:0|0:0,0:0:0:0:
267,167,125202,1,0,0:0:0:0:
121,202,125354,6,0,L|115:53,1,133.5,4|8,3:0|0:0,0:0:0:0:
186,29,125809,1,4,3:0:0:0:
317,46,126112,1,0,0:0:0:0:
386,52,126263,2,0,L|389:147,1,66.75,4|0,3:0|0:0,0:0:0:0:
162,184,126566,5,12,3:0:0:0:
136,100,126869,2,0,L|203:94,1,66.75,8|0,0:0|0:0,0:0:0:0:
343,86,127172,1,0,3:0:0:0:
356,34,127475,2,0,L|265:31,1,66.75,8|0,0:0|0:0,0:0:0:0:
147,43,127778,6,0,P|87:42|79:113,1,133.5,4|8,3:0|0:0,0:0:0:0:
141,122,128233,1,0,3:0:0:0:
263,47,128536,1,0,0:0:0:0:
196,69,128687,2,0,L|198:155,1,66.75,8|0,0:0|0:0,0:0:0:0:
431,170,128990,6,0,P|468:179|424:236,1,133.5,4|8,3:0|0:0,0:0:0:0:
301,255,129596,2,0,L|454:237,1,133.5,0|8,3:0|0:0,0:0:0:0:
63,292,130202,6,0,L|63:144,1,133.5,4|8,3:0|0:0,0:0:0:0:
138,132,130657,2,0,L|291:133,1,133.5,4|0,3:0|0:0,0:0:0:0:
201,97,131112,2,0,L|198:185,1,66.75,4|0,3:0|0:0,0:0:0:0:
428,263,131415,5,12,3:0:0:0:
441,179,131718,2,0,L|371:177,1,66.75,8|0,0:0|0:0,0:0:0:0:
232,137,132021,2,0,L|83:128,1,133.5,0|8,3:0|0:0,0:0:0:0:
167,74,132475,1,0,0:0:0:0:
306,65,132627,5,4,3:0:0:0:
306,65,132930,1,8,0:0:0:0:
237,63,133081,1,0,3:0:0:0:
367,151,133384,1,0,0:0:0:0:
436,156,133536,2,0,L|438:244,1,66.75,8|0,0:0|0:0,0:0:0:0:
222,268,133839,5,4,3:0:0:0:
209,182,134142,2,0,L|276:176,1,66.75,8|0,0:0|0:0,0:0:0:0:
414,180,134445,1,0,3:0:0:0:
421,115,134748,2,0,L|339:108,1,66.75,8|0,0:0|0:0,0:0:0:0:
212,77,135051,5,4,3:0:0:0:
339,29,135354,2,0,L|267:21,1,66.75,8|4,0:0|3:0,0:0:0:0:
145,98,135809,1,0,0:0:0:0:
82,84,135960,2,0,L|81:8,1,66.75,4|0,3:0|0:0,0:0:0:0:
321,162,136263,5,12,3:0:0:0:
343,115,136566,2,0,L|256:109,1,66.75,8|0,0:0|0:0,0:0:0:0:
137,116,136869,2,0,P|90:120|87:198,1,133.5,0|8,3:0|0:0,0:0:0:0:
151,203,137324,1,0,0:0:0:0:
225,177,137475,5,4,3:0:0:0:
94,110,137778,2,0,L|89:35,1,66.75,8|0,0:0|3:0,0:0:0:0:
218,38,138233,2,0,L|144:27,1,66.75,0|8,0:0|0:0,0:0:0:0:
400,63,138687,6,0,L|402:200,1,133.5,4|4,3:0|3:0,0:0:0:0:
128,201,139899,5,4,3:0:0:0:
356,140,140202,1,4,3:0:0:0:
197,95,141112,5,8,0:3:0:0:
256,192,152021,12,0,152930,0:0:0:0:
185,148,153233,5,4,3:0:0:0:
423,139,153536,1,8,0:0:0:0:
185,148,153839,2,0,L|183:294,1,133.5,0|8,3:0|0:0,0:0:0:0:
418,266,154445,6,0,L|277:264,1,133.5,4|8,3:0|0:0,0:0:0:0:
284,264,154899,1,0,3:0:0:0:
411,159,155202,2,0,L|494:158,2,66.75,0|8|0,0:0|0:0|0:0,0:0:0:0:
177,141,155657,5,4,3:0:0:0:
290,117,155960,2,0,L|295:197,1,66.75,8|0,0:0|0:0,0:0:0:0:
227,212,156263,2,0,L|226:296,1,66.75,0|0,3:0|0:0,0:0:0:0:
290,117,156566,2,0,L|295:197,1,66.75,8|0,0:0|0:0,0:0:0:0:
62,217,156869,6,0,P|24:192|80:131,1,133.5,4|8,3:0|0:0,0:0:0:0:
130,102,157324,1,4,3:0:0:0:
261,105,157627,1,0,0:0:0:0:
130,102,157778,2,0,L|128:192,1,66.75,4|0,3:0|0:0,0:0:0:0:
365,213,158081,5,12,3:0:0:0:
371,135,158384,2,0,L|302:132,1,66.75,8|0,0:0|0:0,0:0:0:0:
150,117,158687,2,0,P|93:120|79:200,1,133.5,0|8,3:0|0:0,0:0:0:0:
310,253,159293,6,0,L|159:240,1,133.5,4|8,3:0|0:0,0:0:0:0:
176,241,159748,1,0,3:0:0:0:
306,157,160051,1,0,0:0:0:0:
238,137,160202,2,0,L|236:48,1,66.75,8|0,0:0|0:0,0:0:0:0:
467,55,160505,5,4,3:0:0:0:
467,55,160809,2,0,L|305:51,2,133.5,8|0|8,0:0|3:0|0:0,0:0:0:0:
82,262,161718,6,0,L|81:108,1,133.5,4|8,3:0|0:0,0:0:0:0:
157,99,162172,2,0,L|297:98,1,133.5,4|0,3:0|0:0,0:0:0:0:
221,165,162627,2,0,L|222:76,1,66.75,4|0,3:0|0:0,0:0:0:0:
458,96,162930,5,4,3:0:0:0:
458,96,163233,2,0,L|309:92,1,133.5,8|0,0:0|3:0,0:0:0:0:
96,92,163839,1,8,0:0:0:0:
324,92,164142,6,0,L|327:246,1,133.5,4|8,3:0|0:0,0:0:0:0:
256,253,164596,2,0,L|400:250,1,133.5,0|0,3:0|0:0,0:0:0:0:
389,250,165051,2,0,L|302:252,1,66.75,8|0,0:0|0:0,0:0:0:0:
86,250,165354,6,0,P|43:223|104:172,1,133.5,4|8,3:0|0:0,0:0:0:0:
213,178,165960,2,0,L|63:164,1,133.5,0|8,3:0|0:0,0:0:0:0:
149,113,166415,1,0,0:0:0:0:
373,124,166566,6,0,P|429:127|444:198,1,133.5,4|8,3:0|0:0,0:0:0:0:
374,205,167021,1,4,3:0:0:0:
242,232,167172,2,0,L|242:154,1,66.75
312,135,167475,2,0,L|384:135,1,66.75,4|0,3:0|0:0,0:0:0:0:
144,86,167778,6,0,L|4:80,1,133.5,0|8,3:0|0:0,0:0:0:0:
144,86,168384,2,0,L|4:80,1,133.5,0|8,3:0|0:0,0:0:0:0:
377,84,168990,6,0,L|517:78,1,133.5,4|8,3:0|0:0,0:0:0:0:
377,84,169596,2,0,L|517:78,1,133.5,0|8,0:0|0:0,0:0:0:0:
439,22,170051,1,0,0:0:0:0:
211,90,170202,6,0,P|161:90|152:167,1,133.5,4|8,3:0|0:0,0:0:0:0:
212,185,170657,1,0,0:0:0:0:
356,111,170809,2,0,P|406:111|415:188,1,133.5,0|8,3:0|0:0,0:0:0:0:
355,206,171264,1,0,3:0:0:0:
123,164,171415,6,0,P|82:142|136:82,1,133.5,4|8,3:0|0:0,0:0:0:0:
184,66,171869,1,0,3:0:0:0:
411,62,172021,2,0,P|461:62|486:147,1,133.5,0|8,0:0|0:0,0:0:0:0:
126,209,172627,5,4,3:0:0:0:
126,209,172930,2,0,L|277:211,2,133.5,8|0|8,0:0|3:0|0:0,0:0:0:0:
357,208,173839,6,0,P|394:180|347:127,1,133.5,4|8,3:0|0:0,0:0:0:0:
272,119,174293,2,0,L|122:112,1,133.5,0|0,3:0|0:0,0:0:0:0:
138,112,174748,2,0,L|211:115,1,66.75,8|0,0:0|0:0,0:0:0:0:
424,127,175051,5,4,3:0:0:0:
424,127,175354,1,8,0:0:0:0:
296,83,175657,1,0,3:0:0:0:
176,76,175960,2,0,L|254:71,1,66.75,8|0,0:0|0:0,0:0:0:0:
468,87,176263,6,0,P|499:106|459:176,1,133.5,4|8,3:0|0:0,0:0:0:0:
385,181,176718,2,0,L|379:258,1,66.75,4|0,3:0|0:0,0:0:0:0:
451,278,177021,2,0,L|454:361,1,66.75,0|4,0:0|3:0,0:0:0:0:
379,247,177324,1,0,0:0:0:0:
150,153,177475,5,12,3:0:0:0:
150,153,177778,2,0,L|294:150,2,133.5,8|0|8,0:0|3:0|0:0,0:0:0:0:
383,182,178687,6,0,P|424:163|364:112,1,133.5,4|8,3:0|0:0,0:0:0:0:
311,103,179142,2,0,L|306:174,1,66.75,0|0,3:0|0:0,0:0:0:0:
231,189,179445,2,0,L|225:284,1,66.75,0|8,0:0|0:0,0:0:0:0:
304,312,179748,1,0,0:0:0:0:
76,194,179899,5,4,3:0:0:0:
76,194,180202,2,0,L|215:191,2,133.5,8|0|8,0:0|3:0|0:0,0:0:0:0:
461,96,181112,6,0,L|311:88,1,133.5,4|8,3:0|0:0,0:0:0:0:
261,80,181566,2,0,L|406:88,1,133.5,4|0,3:0|0:0,0:0:0:0:
394,87,182021,2,0,L|301:76,1,66.75,4|0,3:0|0:0,0:0:0:0:
94,180,182324,5,12,3:0:0:0:
229,168,182627,2,0,L|239:84,1,66.75,8|0,0:0|0:0,0:0:0:0:
308,88,182930,2,0,L|316:19,1,66.75,0|0,3:0|0:0,0:0:0:0:
243,41,183233,2,0,L|240:-33,1,66.75,8|0,0:0|0:0,0:0:0:0:
465,57,183536,6,0,P|499:72|454:137,1,133.5,4|8,3:0|0:0,0:0:0:0:
388,150,183990,2,0,P|341:153|328:232,1,133.5,0|0,3:0|0:0,0:0:0:0:
395,244,184445,2,0,L|395:325,1,66.75,8|0,0:0|0:0,0:0:0:0:
170,312,184748,6,0,L|21:295,1,133.5,4|8,3:0|0:0,0:0:0:0:
170,312,185354,2,0,L|21:295,1,133.5,0|8,3:0|0:0,0:0:0:0:
108,252,185809,1,0,0:0:0:0:
330,219,185960,6,0,P|373:196|318:147,1,133.5,4|8,3:0|0:0,0:0:0:0:
258,120,186415,1,4,3:0:0:0:
115,79,186566,2,0,L|113:213,1,133.5,0|4,0:0|3:0,0:0:0:0:
186,233,187021,1,0,0:0:0:0:
413,216,187172,6,0,P|459:218|474:298,1,133.5,12|8,3:0|0:0,0:0:0:0:
237,169,187778,2,0,P|191:171|176:251,1,133.5,0|8,3:0|0:0,0:0:0:0:
416,261,188384,6,0,L|253:261,1,133.5,4|8,3:0|0:0,0:0:0:0:
46,161,188990,2,0,P|11:133|67:73,1,133.5,0|8,0:0|0:0,0:0:0:0:
122,64,189445,1,0,0:0:0:0:
390,97,189596,6,0,P|448:105|458:179,1,133.5,4|4,3:0|3:0,0:0:0:0:
159,199,190657,5,4,3:0:0:0:
256,192,191187,12,0,193233,0:0:0:0:
