osu file format v14

[General]
AudioFilename: audio.mp3
AudioLeadIn: 0
PreviewTime: 48759
Countdown: 0
SampleSet: Soft
StackLeniency: 0.4
Mode: 0
LetterboxInBreaks: 0
WidescreenStoryboard: 0

[Editor]
DistanceSpacing: 0.3
BeatDivisor: 4
GridSize: 32
TimelineZoom: 1.4

[Metadata]
Title:Star
TitleUnicode:Star
Artist:LOONA
ArtistUnicode:이달의 소녀
Creator:Xandit
Version:Orbit
Source:
Tags:LOOΠΔ Girl of the Month ViVi 비비 Yves 이브 JinSoul 진솔 Kim Lip 김립 Chuu 츄 HeeJin 희진 HyunJin 현진 Go Won 고원 Choerry 최리 Olivia Hye 올리비아 혜 YeoJin 여진 1/3 Odd Eye Circle YYXY Kpop K-pop [12:00] korean pop english
BeatmapID:3062395
BeatmapSetID:1494124

[Difficulty]
HPDrainRate:5
CircleSize:3.8
OverallDifficulty:8
ApproachRate:8.5
SliderMultiplier:1.9
SliderTickRate:1

[Events]
//Background and Video events
0,0,"starbg.jpg",0,0
Video,-447,"loonastarvid.mp4"
//Break Periods
2,10750,11584
//Storyboard Layer 0 (Background)
//Storyboard Layer 1 (Fail)
//Storyboard Layer 2 (Pass)
//Storyboard Layer 3 (Foreground)
//Storyboard Layer 4 (Overlay)
//Storyboard Sound Samples

[TimingPoints]
297,379.746835443038,4,2,1,30,1,0
297,-250,4,2,1,30,0,0
12259,-133.333333333333,4,2,1,65,0,0
36752,-166.666666666667,4,2,1,50,0,0
37417,-166.666666666667,4,2,1,5,0,0
37512,-166.666666666667,4,2,1,50,0,0
45012,-166.666666666667,4,2,1,5,0,0
45107,-166.666666666667,4,2,1,50,0,0
47385,-166.666666666667,4,2,1,30,0,0
47765,-166.666666666667,4,2,1,40,0,0
48145,-166.666666666667,4,2,1,70,0,0
48904,-100,4,2,1,85,0,1
49189,-100,4,2,1,5,0,1
49284,-100,4,2,1,85,0,1
50328,-100,4,2,1,5,0,1
50423,-100,4,2,1,85,0,1
52227,-100,4,2,1,5,0,1
52322,-100,4,2,1,85,0,1
53366,-100,4,2,1,5,0,1
53461,-100,4,2,1,85,0,1
53746,-100,4,2,1,5,0,1
53841,-100,4,2,1,85,0,1
57828,-83.3333333333333,4,2,1,85,0,1
61056,-100,4,2,1,85,0,1
61341,-100,4,2,1,5,0,1
61436,-100,4,2,1,85,0,1
62480,-100,4,2,1,5,0,1
62575,-100,4,2,1,85,0,1
64379,-100,4,2,1,5,0,1
64474,-100,4,2,1,85,0,1
65518,-100,4,2,1,5,0,1
65613,-100,4,2,1,85,0,1
69980,-83.3333333333333,4,2,1,85,0,1
73018,-133.333333333333,4,2,1,65,0,0
73208,-133.333333333333,4,2,1,65,0,0
85360,-133.333333333333,4,2,1,70,0,0
89252,-133.333333333333,4,2,1,5,0,0
89347,-133.333333333333,4,2,1,70,0,0
95898,-133.333333333333,4,2,1,5,0,0
95993,-117.647058823529,4,2,1,70,0,0
97322,-166.666666666667,4,2,1,70,0,0
97512,-166.666666666667,4,2,1,50,0,0
108145,-166.666666666667,4,2,1,30,0,0
108524,-166.666666666667,4,2,1,40,0,0
108904,-166.666666666667,4,2,1,70,0,0
109664,-100,4,2,1,85,0,1
109948,-100,4,2,1,5,0,1
110043,-100,4,2,1,85,0,1
111088,-100,4,2,1,5,0,1
111183,-100,4,2,1,85,0,1
112986,-100,4,2,1,5,0,1
113081,-100,4,2,1,85,0,1
114126,-100,4,2,1,5,0,1
114221,-100,4,2,1,85,0,1
114505,-100,4,2,1,5,0,1
114600,-100,4,2,1,85,0,1
118588,-83.3333333333333,4,2,1,85,0,1
121815,-100,4,2,1,85,0,1
122100,-100,4,2,1,5,0,1
122195,-100,4,2,1,85,0,1
123240,-100,4,2,1,5,0,1
123334,-100,4,2,1,85,0,1
125138,-100,4,2,1,5,0,1
125233,-100,4,2,1,85,0,1
126278,-100,4,2,1,5,0,1
126372,-100,4,2,1,85,0,1
130740,-83.3333333333333,4,2,1,85,0,1
134062,-83.3333333333333,4,2,1,5,0,1
134157,-83.3333333333333,4,2,1,85,0,1
134252,-83.3333333333333,4,2,1,5,0,1
134347,-83.3333333333333,4,2,1,85,0,1
134442,-83.3333333333333,4,2,1,5,0,1
134537,-83.3333333333333,4,2,1,85,0,1
134632,-83.3333333333333,4,2,1,5,0,1
134727,-83.3333333333333,4,2,1,85,0,1
135012,-83.3333333333333,4,2,1,5,0,1
135107,-83.3333333333333,4,2,1,85,0,1
135771,-83.3333333333333,4,2,1,5,0,1
135866,-83.3333333333333,4,2,1,85,0,1
136151,-83.3333333333333,4,2,1,5,0,1
136246,-100,4,2,1,85,0,1
136531,-100,4,2,1,5,0,1
136626,-100,4,2,1,85,0,1
136910,-100,4,2,1,5,0,1
137005,-83.3333333333333,4,2,1,85,0,1
137100,-83.3333333333333,4,2,1,5,0,1
137195,-83.3333333333333,4,2,1,85,0,1
137290,-83.3333333333333,4,2,1,5,0,1
137385,-83.3333333333333,4,2,1,85,0,1
137480,-83.3333333333333,4,2,1,5,0,1
137575,-83.3333333333333,4,2,1,85,0,1
137670,-83.3333333333333,4,2,1,5,0,1
137765,-83.3333333333333,4,2,1,85,0,1
138050,-83.3333333333333,4,2,1,5,0,1
138145,-83.3333333333333,4,2,1,85,0,1
138809,-83.3333333333333,4,2,1,5,0,1
138904,-83.3333333333333,4,2,1,85,0,1
139189,-83.3333333333333,4,2,1,5,0,1
139284,-83.3333333333333,4,2,1,85,0,1
139569,-83.3333333333333,4,2,1,5,0,1
139664,-83.3333333333333,4,2,1,85,0,1
139948,-83.3333333333333,4,2,1,5,0,1
140043,-83.3333333333333,4,2,1,85,0,1
140138,-83.3333333333333,4,2,1,5,0,1
140233,-83.3333333333333,4,2,1,85,0,1
140328,-83.3333333333333,4,2,1,5,0,1
140423,-83.3333333333333,4,2,1,85,0,1
140518,-83.3333333333333,4,2,1,5,0,1
140613,-83.3333333333333,4,2,1,85,0,1
140708,-83.3333333333333,4,2,1,5,0,1
140803,-83.3333333333333,4,2,1,85,0,1
141088,-83.3333333333333,4,2,1,5,0,1
141183,-83.3333333333333,4,2,1,85,0,1
141847,-83.3333333333333,4,2,1,5,0,1
141942,-83.3333333333333,4,2,1,85,0,1
142227,-83.3333333333333,4,2,1,5,0,1
142322,-83.3333333333333,4,2,1,85,0,1
142607,-83.3333333333333,4,2,1,5,0,1
142702,-83.3333333333333,4,2,1,85,0,1
146214,-83.3333333333333,4,2,1,5,0,1
146309,-83.3333333333333,4,2,1,85,0,1
146404,-83.3333333333333,4,2,1,5,0,1
146499,-83.3333333333333,4,2,1,85,0,1
146594,-83.3333333333333,4,2,1,5,0,1
146689,-83.3333333333333,4,2,1,85,0,1
146784,-83.3333333333333,4,2,1,5,0,1
146879,-83.3333333333333,4,2,1,85,0,1
147164,-83.3333333333333,4,2,1,5,0,1
147259,-83.3333333333333,4,2,1,85,0,1
147923,-83.3333333333333,4,2,1,5,0,1
148018,-83.3333333333333,4,2,1,85,0,1
148303,-83.3333333333333,4,2,1,5,0,1
148398,-100,4,2,1,85,0,1
148683,-100,4,2,1,5,0,1
148778,-100,4,2,1,85,0,1
149062,-100,4,2,1,5,0,1
149157,-83.3333333333333,4,2,1,85,0,1
149252,-83.3333333333333,4,2,1,5,0,1
149347,-83.3333333333333,4,2,1,85,0,1
149442,-83.3333333333333,4,2,1,5,0,1
149537,-83.3333333333333,4,2,1,85,0,1
149632,-83.3333333333333,4,2,1,5,0,1
149727,-83.3333333333333,4,2,1,85,0,1
149822,-83.3333333333333,4,2,1,5,0,1
149917,-83.3333333333333,4,2,1,85,0,1
150202,-83.3333333333333,4,2,1,5,0,1
150297,-83.3333333333333,4,2,1,85,0,1
150961,-83.3333333333333,4,2,1,5,0,1
151056,-83.3333333333333,4,2,1,85,0,1
151341,-83.3333333333333,4,2,1,5,0,1
151436,-83.3333333333333,4,2,1,85,0,1
151721,-83.3333333333333,4,2,1,5,0,1
151815,-83.3333333333333,4,2,1,85,0,1
152100,-83.3333333333333,4,2,1,5,0,1
152195,-83.3333333333333,4,2,1,85,0,1
152290,-83.3333333333333,4,2,1,5,0,1
152385,-83.3333333333333,4,2,1,85,0,1
152480,-83.3333333333333,4,2,1,5,0,1
152575,-83.3333333333333,4,2,1,85,0,1
152670,-83.3333333333333,4,2,1,5,0,1
152765,-83.3333333333333,4,2,1,85,0,1
152860,-83.3333333333333,4,2,1,5,0,1
152955,-83.3333333333333,4,2,1,85,0,1
153240,-83.3333333333333,4,2,1,5,0,1
153334,-83.3333333333333,4,2,1,85,0,1
153999,-83.3333333333333,4,2,1,5,0,1
154094,-83.3333333333333,4,2,1,85,0,1
157891,-166.666666666667,4,2,1,85,0,1
158081,-166.666666666667,4,2,1,85,0,0
158271,-166.666666666667,4,2,1,50,0,0
162164,-166.666666666667,4,2,1,5,0,0
162259,-166.666666666667,4,2,1,50,0,0
168334,-166.666666666667,4,2,1,60,0,0
170423,-100,4,2,1,85,0,1
170708,-100,4,2,1,5,0,1
170803,-100,4,2,1,85,0,1
171847,-100,4,2,1,5,0,1
171942,-100,4,2,1,85,0,1
173746,-100,4,2,1,5,0,1
173841,-100,4,2,1,85,0,1
174885,-100,4,2,1,5,0,1
174980,-100,4,2,1,85,0,1
179347,-83.3333333333333,4,2,1,85,0,1
182670,-83.3333333333333,4,2,1,5,0,1
182765,-83.3333333333333,4,2,1,85,0,1
182860,-83.3333333333333,4,2,1,5,0,1
182955,-83.3333333333333,4,2,1,85,0,1
183050,-83.3333333333333,4,2,1,5,0,1
183145,-83.3333333333333,4,2,1,85,0,1
183240,-83.3333333333333,4,2,1,5,0,1
183334,-83.3333333333333,4,2,1,85,0,1
183619,-83.3333333333333,4,2,1,5,0,1
183714,-83.3333333333333,4,2,1,85,0,1
184379,-83.3333333333333,4,2,1,5,0,1
184474,-83.3333333333333,4,2,1,85,0,1
184759,-83.3333333333333,4,2,1,5,0,1
184853,-100,4,2,1,85,0,1
185138,-100,4,2,1,5,0,1
185233,-100,4,2,1,85,0,1
185518,-100,4,2,1,5,0,1
185613,-83.3333333333333,4,2,1,85,0,1
185708,-83.3333333333333,4,2,1,5,0,1
185803,-83.3333333333333,4,2,1,85,0,1
185898,-83.3333333333333,4,2,1,5,0,1
185993,-83.3333333333333,4,2,1,85,0,1
186088,-83.3333333333333,4,2,1,5,0,1
186183,-83.3333333333333,4,2,1,85,0,1
186278,-83.3333333333333,4,2,1,5,0,1
186372,-83.3333333333333,4,2,1,85,0,1
186657,-83.3333333333333,4,2,1,5,0,1
186752,-83.3333333333333,4,2,1,85,0,1
187417,-83.3333333333333,4,2,1,5,0,1
187512,-83.3333333333333,4,2,1,85,0,1
187797,-83.3333333333333,4,2,1,5,0,1
187891,-83.3333333333333,4,2,1,85,0,1
188176,-83.3333333333333,4,2,1,5,0,1
188271,-83.3333333333333,4,2,1,85,0,1
188556,-83.3333333333333,4,2,1,5,0,1
188651,-83.3333333333333,4,2,1,85,0,1
188746,-83.3333333333333,4,2,1,5,0,1
188841,-83.3333333333333,4,2,1,85,0,1
188936,-83.3333333333333,4,2,1,5,0,1
189031,-83.3333333333333,4,2,1,85,0,1
189126,-83.3333333333333,4,2,1,5,0,1
189221,-83.3333333333333,4,2,1,85,0,1
189315,-83.3333333333333,4,2,1,5,0,1
189410,-83.3333333333333,4,2,1,85,0,1
189695,-83.3333333333333,4,2,1,5,0,1
189790,-83.3333333333333,4,2,1,85,0,1
190455,-83.3333333333333,4,2,1,5,0,1
190550,-83.3333333333333,4,2,1,85,0,1
190834,-83.3333333333333,4,2,1,5,0,1
190929,-100,4,2,1,85,0,1
191214,-83.3333333333333,4,2,1,5,0,1
191309,-100,4,2,1,85,0,1
191499,-83.3333333333333,4,2,1,85,0,1
193018,-166.666666666667,4,2,1,60,0,0

[Colours]
Combo1 : 227,209,79
Combo2 : 83,82,95
Combo3 : 103,154,197
Combo4 : 204,149,87

[HitObjects]
313,333,297,6,0,P|370:352|328:239,1,266,2|0,0:0|0:0,0:0:0:0:
248,264,1815,2,0,B|158:257|189:318|103:308,1,152,2|0,0:0|0:0,0:0:0:0:
108,308,3145,6,0,B|69:131|69:131|99:181|139:192,1,266,2|8,0:0|0:1,0:0:0:0:
171,95,4664,6,0,B|249:104|249:104|313:166|313:166|414:183,1,266,2|8,0:0|0:1,0:0:0:0:
448,104,6183,6,0,B|367:71|274:134|350:184|279:248|199:215,1,304,2|0,0:0|0:0,0:0:0:0:
182,288,7891,6,0,B|201:190|201:190|210:181|210:181|233:64,1,228,2|8,0:0|0:1,0:0:0:0:
158,39,9221,6,0,B|91:-27|-48:5|22:152|100:86,1,266,2|8,0:0|0:1,0:0:0:0:
112,185,12259,5,2,0:0:0:0:
206,172,12448,5,0,3:0:0:0:
206,172,12638,2,0,P|191:216|183:250,1,71.2500027179719,2|8,0:0|0:0,0:0:0:0:
217,362,13018,1,2,0:0:0:0:
266,295,13208,2,0,P|217:277|138:332,1,142.500005435944,2|8,0:0|0:0,0:0:0:0:
25,227,13778,6,0,P|66:224|100:217,1,71.2500027179719,2|0,0:0|3:0,0:0:0:0:
143,319,14157,2,0,P|101:321|67:328,1,71.2500027179719,2|8,0:0|0:0,0:0:0:0:
173,200,14537,1,2,0:0:0:0:
266,295,14727,2,0,B|329:300|329:300|338:295|338:295|419:301,1,142.500005435944,2|8,0:0|0:0,0:0:0:0:
487,234,15297,6,0,P|498:197|488:163,1,71.2500027179719,2|0,0:0|3:0,0:0:0:0:
332,116,15676,2,0,P|321:153|331:187,1,71.2500027179719,2|8,0:0|0:0,0:0:0:0:
465,66,16056,1,2,0:0:0:0:
465,66,16246,2,0,P|406:60|380:55,1,71.2500027179719,2|0,0:0|0:0,0:0:0:0:
261,124,16626,1,10,0:0:0:0:
261,124,16816,6,0,P|296:118|331:115,1,71.2500027179719,2|0,0:0|3:0,0:0:0:0:
313,1,17195,2,0,P|277:6|242:9,1,71.2500027179719,2|8,0:0|0:0,0:0:0:0:
172,126,17575,1,2,0:0:0:0:
110,0,17765,2,0,P|147:17|170:47,1,71.2500027179719,2|8,0:0|0:1,0:0:0:0:
97,165,18145,1,10,0:0:0:0:
32,118,18334,6,0,B|103:99|100:144|175:125,1,142.500005435944,10|2,0:1|0:0,0:0:0:0:
264,146,18904,1,8,0:0:0:0:
199,213,19094,1,2,0:0:0:0:
304,308,19284,2,0,P|292:271|284:235,1,71.2500027179719,2|0,0:0|0:0,0:0:0:0:
349,183,19664,1,10,0:0:0:0:
381,318,19853,6,0,P|324:321|273:392,1,142.500005435944,2|2,0:0|0:0,0:0:0:0:
140,294,20423,2,0,P|180:304|215:307,1,71.2500027179719,8|2,0:0|0:0,0:0:0:0:
125,208,20803,1,2,0:0:0:0:
39,223,20993,1,2,0:0:0:0:
54,309,21183,1,10,0:0:0:0:
140,294,21372,1,2,0:0:0:0:
127,223,21562,5,2,3:0:0:0:
52,222,21752,1,2,0:0:0:0:
52,296,21942,1,10,0:0:0:0:
126,296,22131,1,2,0:0:0:0:
126,296,22512,1,0,0:0:0:0:
265,377,22702,6,0,P|253:334|264:297,1,71.2500027179719,10|0,0:0|0:0,0:0:0:0:
396,381,23081,2,0,P|355:362|334:330,1,71.2500027179719,2|0,3:0|0:0,0:0:0:0:
483,283,23461,2,0,P|442:302|404:297,1,71.2500027179719,10|0,0:0|0:0,0:0:0:0:
463,153,23841,2,0,P|451:196|423:222,1,71.2500027179719,2|0,0:0|0:0,0:0:0:0:
375,146,24221,1,8,0:0:0:0:
295,210,24410,6,0,B|255:186|216:206|216:206|202:239|169:249,1,142.500005435944,2|2,0:0|0:0,0:0:0:0:
62,137,24980,1,8,0:0:0:0:
138,163,25170,1,2,0:0:0:0:
90,287,25360,2,0,P|79:241|68:210,1,71.2500027179719,2|0,0:0|0:0,0:0:0:0:
39,117,25740,1,8,0:0:0:0:
138,63,25929,6,0,B|213:83|196:28|288:52,1,142.500005435944,2|2,0:0|0:0,0:0:0:0:
345,154,26499,1,8,0:0:0:0:
366,67,26689,1,2,0:0:0:0:
259,135,26879,2,0,P|274:186|278:223,1,71.2500027179719,2|0,0:0|0:0,0:0:0:0:
349,244,27259,1,8,0:0:0:0:
253,348,27448,6,0,P|260:309|283:279,1,71.2500027179719,2|0,0:0|3:0,0:0:0:0:
417,233,27828,2,0,P|379:246|342:241,1,71.2500027179719,2|8,0:0|0:0,0:0:0:0:
434,108,28208,1,2,0:0:0:0:
498,234,28398,2,0,P|485:277|479:310,1,71.2500027179719,2|0,0:0|0:0,0:0:0:0:
504,149,28778,1,10,0:0:0:0:
375,158,28967,6,0,B|308:163|308:163|300:170|300:170|228:176,1,142.500005435944,2|2,0:0|0:0,0:0:0:0:
115,79,29537,1,8,0:0:0:0:
201,97,29727,1,2,0:0:0:0:
144,237,29917,2,0,P|137:196|125:160,1,71.2500027179719,2|8,0:0|0:1,0:0:0:0:
49,224,30297,1,10,0:0:0:0:
118,330,30486,6,0,P|161:335|234:270,1,142.500005435944,10|2,0:1|0:0,0:0:0:0:
183,132,31056,1,8,0:0:0:0:
261,185,31246,1,2,0:0:0:0:
336,81,31436,2,0,P|289:93|254:97,1,71.2500027179719,2|0,0:0|0:0,0:0:0:0:
287,0,31815,1,10,0:0:0:0:
429,55,32005,6,0,B|419:113|419:113|425:129|425:129|410:212,1,142.500005435944,2|2,0:0|0:0,0:0:0:0:
288,320,32575,1,8,0:0:0:0:
335,243,32765,1,2,0:0:0:0:
358,367,32955,1,2,0:0:0:0:
342,229,33145,1,2,0:0:0:0:
212,275,33334,1,10,0:0:0:0:
288,320,33524,1,2,0:0:0:0:
240,189,33714,5,2,3:0:0:0:
210,110,33904,1,2,0:0:0:0:
289,80,34094,1,10,0:0:0:0:
319,159,34284,1,2,0:0:0:0:
200,104,34474,6,0,P|211:61|215:15,1,71.2500027179719
327,166,34853,2,0,P|316:209|312:255,1,71.2500027179719,8|0,0:0|0:0,0:0:0:0:
131,59,35233,5,8,3:0:0:0:
196,4,35423,1,8,0:3:0:0:
106,157,35613,5,10,0:0:0:0:
55,95,35803,1,4,0:3:0:0:
157,246,35993,5,2,3:0:0:0:
75,242,36183,1,0,3:3:0:0:
14,300,36372,1,10,0:0:0:0:
26,381,36562,1,2,3:3:0:0:
26,381,36752,6,0,P|60:371|100:365,1,56.9999982604981,0|2,0:0|0:0,0:0:0:0:
148,317,37132,2,0,P|185:346|230:346,1,85.4999973907472,10|0,0:1|0:0,0:0:0:0:
243,337,37512,1,2,0:0:0:0:
268,226,37891,1,10,0:1:0:0:
243,337,38271,1,2,0:0:0:0:
268,226,38650,1,10,0:1:0:0:
243,337,39031,2,0,P|249:303|270:222,1,113.999996520996,2|8,0:0|0:1,0:0:0:0:
332,161,39600,6,0,P|369:168|403:239,1,113.999996520996,2|2,0:0|0:0,0:0:0:0:
390,316,40170,1,10,0:1:0:0:
482,201,40550,1,2,0:0:0:0:
390,316,40929,1,10,0:1:0:0:
482,201,41309,1,2,0:0:0:0:
482,201,41689,6,0,P|469:164|467:138,1,56.9999982604981,10|0,0:1|0:0,0:0:0:0:
396,87,42069,2,0,P|409:50|411:24,1,56.9999982604981,2|0,0:0|0:0,0:0:0:0:
328,145,42448,1,10,0:1:0:0:
254,91,42638,6,0,P|203:86|154:132,1,113.999996520996,2|2,0:0|0:0,0:0:0:0:
186,205,43208,1,10,0:1:0:0:
168,317,43587,1,2,0:0:0:0:
186,205,43967,1,10,0:1:0:0:
168,317,44346,1,2,0:0:0:0:
186,205,44727,2,0,P|174:260|171:293,1,85.4999973907472,10|0,0:1|0:0,0:0:0:0:
168,317,45107,2,0,B|229:320|213:279|296:291,1,113.999996520996,2|8,0:0|0:1,0:0:0:0:
346,347,45676,6,0,P|396:343|428:272,1,113.999996520996,2|0,0:0|0:0,0:0:0:0:
409,208,46246,1,8,0:1:0:0:
409,208,47005,1,8,0:1:0:0:
409,208,47385,5,8,0:3:0:0:
400,210,47480,1,8,0:3:0:0:
391,212,47575,1,8,0:3:0:0:
382,214,47670,1,8,0:3:0:0:
317,260,47765,5,4,0:3:0:0:
308,258,47860,1,4,0:3:0:0:
299,256,47955,1,4,0:3:0:0:
290,254,48050,1,4,0:3:0:0:
230,192,48145,5,8,0:3:0:0:
249,111,48334,1,8,0:3:0:0:
159,249,48524,5,4,0:3:0:0:
178,330,48713,1,4,0:3:0:0:
92,164,48904,6,0,B|56:132|14:152|14:152|6:188|32:213,1,142.5,6|0,3:1|0:0,0:0:0:0:
121,149,49284,2,0,B|142:104|142:104|126:56,1,95,10|0,0:0|3:0,0:0:0:0:
279,38,49664,1,0,0:0:0:0:
224,107,49853,1,0,0:0:0:0:
340,176,50043,2,0,B|412:173|388:131|480:133,1,142.5,10|0,0:0|0:0,0:0:0:0:
319,190,50423,6,0,B|303:233|303:233|328:284,1,95,2|0,3:0|0:0,0:0:0:0:
206,384,50803,1,8,0:0:0:0:
123,327,50993,1,10,0:1:0:0:
134,99,51183,5,2,0:0:0:0:
176,206,51372,1,2,0:0:0:0:
68,249,51562,1,10,0:0:0:0:
25,141,51752,1,2,0:0:0:0:
205,51,51942,6,0,P|280:47|330:105,1,142.5,2|0,3:1|0:0,0:0:0:0:
408,87,52322,2,0,P|429:50|419:-7,1,95,10|0,0:0|3:0,0:0:0:0:
275,152,52702,1,0,0:0:0:0:
417,201,52891,1,0,0:0:0:0:
283,296,53081,2,0,B|217:287|217:287|214:279|214:279|124:267,1,142.5,10|0,0:0|0:0,0:0:0:0:
21,223,53461,6,0,B|49:235|65:278|65:278|61:230|95:207,1,142.5,2|0,3:0|0:0,0:0:0:0:
147,270,53841,1,8,0:0:0:0:
77,120,54031,1,8,0:1:0:0:
275,151,54221,6,0,P|228:161|185:180,1,95,2|0,0:0|0:0,0:0:0:0:
219,60,54600,1,8,0:0:0:0:
348,125,54790,6,0,P|327:167|336:219,1,95,2|0,0:0|3:1,0:0:0:0:
473,382,55170,2,0,P|466:335|428:298,1,95,2|8,0:0|0:0,0:0:0:0:
252,260,55550,2,0,P|286:292|338:300,1,95,2|0,3:0|0:0,0:0:0:0:
122,372,55929,2,0,P|76:365|29:389,1,95,2|8,0:0|0:0,0:0:0:0:
163,281,56309,6,0,P|156:229|143:179,1,95,2|0,0:0|3:0,0:0:0:0:
0,103,56689,2,0,P|48:122|98:136,1,95,2|8,0:0|0:0,0:0:0:0:
238,49,57069,2,0,P|196:81|159:117,1,95,10|0,0:1|0:0,0:0:0:0:
255,298,57448,1,0,0:0:0:0:
323,140,57638,1,8,0:0:0:0:
500,353,57828,6,0,B|449:342|449:342|442:334|442:334|377:319,1,113.999996520996,6|0,0:2|3:1,0:0:0:0:
419,123,58208,2,0,B|434:172|434:172|431:182|431:182|451:246,1,113.999996520996,6|8,0:2|0:0,0:0:0:0:
261,309,58588,2,0,B|296:270|296:270|306:268|306:268|351:219,1,113.999996520996,4|0,3:2|0:0,0:0:0:0:
254,44,58967,1,2,0:0:0:0:
419,123,59157,1,10,0:0:0:0:
252,186,59347,6,0,P|187:201|142:176,1,113.999996520996,6|0,0:2|3:0,0:0:0:0:
63,4,59727,2,0,P|108:52|109:104,1,113.999996520996,6|8,0:2|0:0,0:0:0:0:
0,259,60107,2,0,P|19:195|63:168,1,113.999996520996,4|0,0:2|0:0,0:0:0:0:
236,296,60486,1,2,0:0:0:0:
147,332,60676,1,10,0:0:0:0:
90,253,60866,1,2,0:0:0:0:
235,166,61056,6,0,B|288:161|288:161|324:186|324:186|385:179,1,142.5,6|0,3:1|0:0,0:0:0:0:
212,184,61436,2,0,P|184:135|192:80,1,95,10|0,0:0|3:0,0:0:0:0:
266,253,61815,1,0,0:0:0:0:
369,180,62005,1,0,0:0:0:0:
301,327,62195,2,0,P|233:338|154:357,1,142.5,10|0,0:0|0:0,0:0:0:0:
326,340,62575,6,0,P|349:294|333:246,1,95,2|0,3:0|0:0,0:0:0:0:
134,156,62955,1,8,0:0:0:0:
183,230,63145,1,8,0:1:0:0:
344,51,63334,5,2,0:0:0:0:
243,26,63524,1,2,0:0:0:0:
221,135,63714,1,10,0:0:0:0:
322,159,63904,1,2,0:0:0:0:
232,34,64094,6,0,B|156:13|161:73|83:43,1,142.5,2|0,3:1|0:0,0:0:0:0:
21,1,64474,2,0,P|6:58|21:94,1,95,10|0,0:0|3:0,0:0:0:0:
148,220,64853,1,0,0:0:0:0:
100,139,65043,1,0,0:0:0:0:
26,280,65233,2,0,B|110:295|110:295|76:308|61:351,1,142.5,10|0,0:0|0:0,0:0:0:0:
159,363,65613,6,0,B|220:385|274:332|274:332|264:285|193:270,1,190,2|8,3:0|0:0,0:0:0:0:
311,196,66183,1,8,0:1:0:0:
171,65,66372,2,0,P|185:110|192:157,1,95,2|0,0:0|0:0,0:0:0:0:
329,32,66752,1,8,0:0:0:0:
370,101,66942,6,0,P|307:111|275:91,1,95,2|0,0:0|3:1,0:0:0:0:
188,343,67322,2,0,P|217:306|262:294,1,95,2|8,0:0|0:0,0:0:0:0:
80,188,67702,2,0,P|124:204|150:243,1,95,2|0,3:0|0:0,0:0:0:0:
368,288,68081,2,0,P|341:249|344:202,1,95,2|8,0:0|0:0,0:0:0:0:
203,86,68461,6,0,P|222:138|233:191,1,95,2|0,0:0|3:0,0:0:0:0:
403,113,68841,2,0,P|348:103|297:86,1,95,2|8,0:0|0:0,0:0:0:0:
279,272,69221,2,0,P|314:229|354:193,1,95,10|0,0:1|0:0,0:0:0:0:
466,339,69600,1,0,0:0:0:0:
512,268,69790,1,8,0:0:0:0:
325,360,69980,6,0,B|273:377|273:377|206:350,1,113.999996520996,6|0,0:2|3:1,0:0:0:0:
152,107,70360,2,0,B|192:143|192:143|202:215,1,113.999996520996,6|8,0:2|0:0,0:0:0:0:
20,384,70740,2,0,B|31:330|31:330|88:285,1,113.999996520996,4|0,3:2|0:0,0:0:0:0:
283,196,71119,1,2,0:0:0:0:
143,356,71309,1,10,0:0:0:0:
41,134,71499,6,0,P|103:123|174:97,1,113.999996520996,6|0,0:2|3:0,0:0:0:0:
291,0,71879,2,0,P|269:59|256:133,1,113.999996520996,6|8,0:2|0:0,0:0:0:0:
282,283,72259,2,0,P|241:234|183:186,1,113.999996520996,4|0,0:2|0:0,0:0:0:0:
435,53,72638,1,0,0:0:0:0:
347,180,72828,1,8,0:0:0:0:
422,235,73018,6,0,P|434:187|448:151,1,71.2500027179719,2|0,0:0|3:0,0:0:0:0:
383,360,73398,2,0,P|371:312|357:276,1,71.2500027179719,2|8,0:0|0:0,0:0:0:0:
287,247,73778,1,2,0:0:0:0:
232,316,73967,2,0,P|181:328|125:264,1,142.500005435944,2|8,0:0|0:0,0:0:0:0:
174,167,74537,6,0,P|182:123|182:77,1,71.2500027179719,2|0,0:0|3:0,0:0:0:0:
56,32,74917,2,0,P|58:67|65:102,1,71.2500027179719,2|8,0:0|0:0,0:0:0:0:
139,8,75297,1,2,0:0:0:0:
182,96,75486,2,0,B|249:106|249:106|258:113|258:113|338:125,1,142.500005435944,2|8,0:0|0:0,0:0:0:0:
373,24,76056,6,0,P|329:34|281:39,1,71.2500027179719,2|0,0:0|3:0,0:0:0:0:
410,136,76436,2,0,P|454:126|502:121,1,71.2500027179719,2|8,0:0|0:0,0:0:0:0:
423,230,76815,1,2,0:0:0:0:
334,189,77005,2,0,P|317:145|326:108,1,71.2500027179719,2|0,0:0|0:0,0:0:0:0:
432,238,77385,1,10,0:0:0:0:
336,298,77575,6,0,P|292:288|244:283,1,71.2500027179719,2|0,0:0|3:0,0:0:0:0:
174,204,77955,2,0,P|209:198|243:190,1,71.2500027179719,2|8,0:0|0:0,0:0:0:0:
192,316,78334,1,2,0:0:0:0:
89,243,78524,2,0,P|76:193|132:120,1,142.500005435944,2|10,0:0|0:0,0:0:0:0:
215,120,79094,6,0,P|203:66|192:34,1,71.2500027179719,10|0,0:1|3:0,0:0:0:0:
314,0,79474,2,0,P|304:34|297:69,1,71.2500027179719,2|8,0:0|0:0,0:0:0:0:
353,155,79853,1,2,0:0:0:0:
441,94,80043,2,0,B|435:160|435:160|440:171|440:171|433:251,1,142.500005435944,2|10,0:0|0:0,0:0:0:0:
390,331,80613,6,0,B|354:342|354:342|315:324,1,71.2500027179719,2|0,0:0|3:0,0:0:0:0:
220,225,80993,2,0,B|256:271|256:271|224:372,1,142.500005435944,2|2,0:0|0:0,0:0:0:0:
92,334,81562,1,2,0:0:0:0:
159,282,81752,1,2,0:0:0:0:
107,215,81942,1,10,0:0:0:0:
40,267,82132,1,2,0:0:0:0:
77,131,82322,6,0,P|136:124|228:102,1,142.500005435944,0|8,3:0|0:0,0:0:0:0:
318,0,82891,2,0,P|304:39|295:76,1,71.2500027179719
366,136,83271,1,0,0:0:0:0:
268,131,83461,6,0,P|275:96|297:68,1,71.2500027179719,10|0,0:0|0:0,0:0:0:0:
206,199,83841,2,0,P|184:171|176:136,1,71.2500027179719,2|0,3:0|0:0,0:0:0:0:
218,290,84221,2,0,P|182:289|151:272,1,71.2500027179719,10|0,0:0|0:0,0:0:0:0:
295,339,84600,2,0,P|271:365|238:378,1,71.2500027179719,2|2,0:0|0:0,0:0:0:0:
303,247,84980,1,10,0:0:0:0:
413,353,85170,6,0,P|418:294|440:205,1,142.500005435944,2|2,0:0|0:0,0:0:0:0:
352,150,85740,1,10,0:0:0:0:
448,210,85929,2,0,P|443:151|421:62,1,142.500005435944,2|2,3:0|0:0,0:0:0:0:
336,5,86499,1,10,0:0:0:0:
216,135,86689,6,0,P|226:79|236:48,1,71.2500027179719,2|0,0:0|3:0,0:0:0:0:
77,22,87069,2,0,P|85:56|91:91,1,71.2500027179719,2|8,0:0|0:0,0:0:0:0:
187,145,87448,2,0,P|197:89|207:58,1,71.2500027179719,2|0,0:0|0:0,0:0:0:0:
270,209,87828,1,2,0:0:0:0:
182,254,88018,1,10,0:0:0:0:
94,211,88208,6,0,P|65:257|106:337,1,142.500005435944,2|2,0:0|0:0,0:0:0:0:
182,239,88778,1,10,0:0:0:0:
115,342,88967,2,0,P|162:331|238:323,1,106.875004076958,2|0,3:0|0:0,0:0:0:0:
239,340,89347,1,2,0:0:0:0:
303,260,89537,1,10,0:0:0:0:
382,322,89727,6,0,P|432:324|462:298,1,71.2500027179719,2|0,0:0|3:0,0:0:0:0:
433,180,90107,2,0,P|383:178|353:204,1,71.2500027179719,2|8,0:0|0:0,0:0:0:0:
378,305,90486,2,0,P|428:307|458:281,1,71.2500027179719,2|0,0:0|0:0,0:0:0:0:
436,195,90866,2,0,P|386:193|356:219,1,71.2500027179719,10|8,0:1|0:0,0:0:0:0:
293,128,91246,6,0,P|300:82|303:43,1,71.2500027179719,2|0,0:0|3:0,0:0:0:0:
214,192,91626,2,0,P|221:238|224:277,1,71.2500027179719,2|8,0:0|0:0,0:0:0:0:
180,337,92005,1,2,3:0:0:0:
122,191,92195,2,0,P|81:230|-2:213,1,142.500005435944,2|10,0:0|0:0,0:0:0:0:
47,86,92765,6,0,B|39:121|39:121|53:153,1,71.2500027179719,2|0,0:0|3:0,0:0:0:0:
111,31,93145,2,0,B|83:6|83:6|49:2,1,71.2500027179719,2|8,0:0|0:0,0:0:0:0:
128,113,93524,1,2,0:0:0:0:
241,17,93714,1,2,0:0:0:0:
213,90,93904,1,2,0:0:0:0:
270,150,94094,1,10,0:0:0:0:
229,220,94284,1,2,0:0:0:0:
242,35,94474,5,2,3:0:0:0:
219,94,94664,1,2,0:0:0:0:
265,142,94854,1,10,0:0:0:0:
232,199,95043,2,0,P|245:254|250:289,1,71.2500027179719,2|0,3:0|0:0,0:0:0:0:
363,378,95423,1,0,0:0:0:0:
425,312,95613,2,0,P|380:289|310:305,1,106.875004076958,8|0,0:0|0:0,0:0:0:0:
311,307,95993,6,0,B|270:317|270:317|217:293,1,80.750001540184,4|0,3:2|0:0,0:0:0:0:
199,130,96372,2,0,B|228:160|228:160|233:218,1,80.750001540184,14|0,0:2|0:0,0:0:0:0:
102,316,96752,2,0,B|113:275|113:275|161:241,1,80.750001540184,6|0,0:0|0:0,0:0:0:0:
206,378,97132,1,14,0:0:0:0:
87,306,97322,6,0,P|80:242|61:181,1,113.999996520996,2|2,0:0|0:0,0:0:0:0:
22,104,97891,1,10,0:1:0:0:
168,159,98271,1,2,0:0:0:0:
22,104,98651,1,10,0:1:0:0:
168,159,99031,1,2,0:0:0:0:
132,18,99410,1,10,0:1:0:0:
132,18,99790,2,0,P|173:49|254:33,1,113.999996520996,2|8,0:0|0:1,0:0:0:0:
320,11,100360,6,0,P|308:67|298:140,1,113.999996520996,2|2,0:0|0:0,0:0:0:0:
352,202,100929,1,10,0:1:0:0:
291,326,101309,1,2,0:0:0:0:
352,202,101689,1,10,0:1:0:0:
291,326,102069,1,2,0:0:0:0:
231,203,102448,6,0,P|203:191|164:190,1,56.9999982604981,10|0,0:1|0:0,0:0:0:0:
115,129,102828,2,0,P|139:110|159:77,1,56.9999982604981,2|0,0:0|0:0,0:0:0:0:
179,13,103208,1,10,0:1:0:0:
243,69,103398,6,0,B|292:78|292:78|305:92|305:92|371:102,1,113.999996520996,2|2,0:0|0:0,0:0:0:0:
435,52,103967,1,10,0:1:0:0:
402,223,104347,1,2,0:0:0:0:
435,52,104727,1,10,0:1:0:0:
402,223,105107,1,2,0:0:0:0:
347,14,105486,1,10,0:1:0:0:
473,180,105866,2,0,P|459:227|448:307,1,113.999996520996,2|8,0:0|0:1,0:0:0:0:
445,374,106436,6,0,B|384:378|404:339|324:339,1,113.999996520996,2|0,0:0|0:0,0:0:0:0:
257,372,107005,1,8,0:1:0:0:
257,372,107765,1,8,0:1:0:0:
257,372,108145,5,8,0:3:0:0:
255,363,108240,1,8,0:3:0:0:
253,354,108335,1,8,0:3:0:0:
251,345,108430,1,8,0:3:0:0:
205,280,108525,5,4,0:3:0:0:
207,271,108620,1,4,0:3:0:0:
209,262,108715,1,4,0:3:0:0:
211,253,108810,1,4,0:3:0:0:
277,182,108904,5,8,0:3:0:0:
354,161,109094,1,8,0:3:0:0:
250,84,109284,5,4,0:3:0:0:
173,63,109474,1,4,0:3:0:0:
22,81,109664,6,0,P|46:139|63:228,1,142.5,6|0,3:1|0:0,0:0:0:0:
3,63,110043,2,0,P|32:36|100:37,1,95,10|0,0:0|3:0,0:0:0:0:
179,169,110423,1,0,0:0:0:0:
208,85,110613,1,0,0:0:0:0:
255,214,110803,2,0,P|207:259|114:240,1,142.5,10|0,0:0|0:0,0:0:0:0:
276,204,111183,6,0,P|332:214|384:234,1,95,2|0,3:0|0:0,0:0:0:0:
510,131,111562,1,8,0:0:0:0:
466,209,111752,1,10,0:1:0:0:
450,59,111942,5,2,0:0:0:0:
355,28,112132,1,2,0:0:0:0:
278,87,112322,1,10,0:0:0:0:
287,179,112512,1,2,0:0:0:0:
209,25,112702,6,0,B|159:5|117:36|117:36|110:61|86:75,1,142.5,2|0,3:1|0:0,0:0:0:0:
15,44,113081,2,0,B|1:90|1:90|30:138,1,95,10|0,0:0|3:0,0:0:0:0:
167,210,113461,1,0,0:0:0:0:
121,139,113651,1,0,0:0:0:0:
44,268,113841,2,0,B|126:255|97:319|194:302,1,142.5,10|0,0:0|0:0,0:0:0:0:
248,246,114221,6,0,B|272:280|270:317|270:317|286:281|323:269,1,142.5,2|0,3:0|0:0,0:0:0:0:
344,355,114600,1,8,0:0:0:0:
380,208,114790,1,8,0:1:0:0:
494,308,114980,2,0,B|448:319|448:319|403:289,1,95,2|0,0:0|0:0,0:0:0:0:
354,123,115360,1,8,0:0:0:0:
415,56,115550,6,0,P|445:99|441:153,1,95,2|0,0:0|3:1,0:0:0:0:
293,192,115929,2,0,P|263:149|267:95,1,95,2|8,0:0|0:0,0:0:0:0:
361,251,116309,2,0,P|318:281|264:277,1,95,2|0,3:0|0:0,0:0:0:0:
178,138,116689,2,0,P|221:108|275:112,1,95,2|8,0:0|0:0,0:0:0:0:
195,329,117069,6,0,P|129:313|83:308,1,95,2|0,0:0|3:0,0:0:0:0:
266,245,117448,2,0,P|285:310|303:352,1,95,2|8,0:0|0:0,0:0:0:0:
158,226,117828,2,0,P|204:176|232:139,1,95,10|0,0:1|0:0,0:0:0:0:
303,11,118208,1,0,0:0:0:0:
169,50,118398,1,8,0:0:0:0:
301,204,118588,6,0,B|354:189|354:189|359:184|359:184|433:167,1,113.999996520996,6|0,0:2|3:1,0:0:0:0:
183,131,118967,2,0,B|143:92|143:92|136:90|136:90|84:36,1,113.999996520996,6|8,0:2|0:0,0:0:0:0:
183,264,119347,2,0,B|169:317|169:317|171:324|171:324|149:396,1,113.999996520996,4|0,3:2|0:0,0:0:0:0:
260,112,119727,1,2,0:0:0:0:
89,183,119917,1,10,0:0:0:0:
280,323,120107,6,0,B|307:271|307:271|283:203,1,113.999996520996,6|0,0:2|3:0,0:0:0:0:
73,314,120486,2,0,B|104:363|104:363|175:376,1,113.999996520996,6|8,0:2|0:0,0:0:0:0:
184,139,120866,2,0,B|125:141|125:141|78:196,1,113.999996520996,4|0,0:2|0:0,0:0:0:0:
313,166,121246,1,2,0:0:0:0:
182,46,121436,1,10,0:0:0:0:
219,242,121626,1,2,0:0:0:0:
346,71,121815,6,0,B|446:50|446:50|427:64|420:92,1,142.5,6|0,3:1|0:0,0:0:0:0:
319,87,122195,2,0,P|300:50|313:-3,1,95,10|0,0:0|3:0,0:0:0:0:
425,160,122575,1,0,0:0:0:0:
347,199,122765,1,0,0:0:0:0:
438,297,122955,2,0,B|368:316|373:257|277:286,1,142.5,10|0,0:0|0:0,0:0:0:0:
451,325,123334,6,0,B|467:280|467:280|444:225,1,95,2|0,3:0|0:0,0:0:0:0:
304,123,123714,1,8,0:0:0:0:
347,199,123904,1,8,0:1:0:0:
164,26,124094,5,2,0:0:0:0:
111,109,124284,1,2,0:0:0:0:
162,196,124474,1,10,0:0:0:0:
257,199,124664,1,2,0:0:0:0:
259,44,124853,6,0,P|323:24|398:80,1,142.5,2|0,3:1|0:0,0:0:0:0:
416,140,125233,2,0,P|399:184|388:241,1,95,10|0,0:0|3:0,0:0:0:0:
237,294,125613,1,0,0:0:0:0:
290,230,125803,1,0,0:0:0:0:
327,367,125993,2,0,B|403:381|380:327|478:350,1,142.5,10|0,0:0|0:0,0:0:0:0:
512,285,126372,6,0,P|432:286|401:185,1,190,2|8,3:0|0:0,0:0:0:0:
459,53,126942,1,8,0:1:0:0:
316,99,127132,2,0,B|272:106|272:106|265:111|265:111|209:117,1,95,2|0,0:0|0:0,0:0:0:0:
47,67,127512,1,8,0:0:0:0:
149,0,127702,6,0,B|162:46|162:46|139:107,1,95,2|0,0:0|3:1,0:0:0:0:
74,250,128081,2,0,B|61:204|61:204|84:143,1,95,2|8,0:0|0:0,0:0:0:0:
264,213,128461,2,0,P|206:217|147:227,1,95,2|0,3:0|0:0,0:0:0:0:
253,47,128841,2,0,P|311:43|370:33,1,95,2|8,0:0|0:0,0:0:0:0:
413,278,129221,6,0,P|369:237|366:180,1,95,2|0,0:0|3:0,0:0:0:0:
498,114,129600,2,0,P|484:172|436:203,1,95,2|8,0:0|0:0,0:0:0:0:
314,123,129980,2,0,P|371:105|422:131,1,95,10|0,0:1|0:0,0:0:0:0:
507,275,130360,1,0,0:0:0:0:
498,114,130550,1,8,0:0:0:0:
403,270,130740,6,0,P|344:280|286:301,1,113.999996520996,6|0,0:2|3:1,0:0:0:0:
185,120,131119,2,0,P|223:166|265:203,1,113.999996520996,6|8,0:2|0:0,0:0:0:0:
165,383,131499,2,0,P|185:326|199:271,1,113.999996520996,4|0,3:2|0:0,0:0:0:0:
174,100,131879,1,2,0:0:0:0:
74,260,132069,1,10,0:0:0:0:
28,17,132259,6,0,B|84:-1|84:-1|136:24,1,113.999996520996,6|0,0:2|3:0,0:0:0:0:
165,263,132638,2,0,B|121:223|121:223|117:165,1,113.999996520996,6|8,0:2|0:0,0:0:0:0:
310,22,133018,2,0,B|297:79|297:79|249:112,1,113.999996520996,4|8,0:2|0:3,0:0:0:0:
336,331,133398,1,8,0:3:0:0:
417,149,133588,1,8,0:0:0:0:
230,215,133778,1,4,0:3:0:0:
450,284,133967,6,0,P|454:254|463:221,1,56.9999982604981,6|0,3:1|0:0,0:0:0:0:
437,295,134157,6,0,P|435:264|438:230,1,56.9999982604981,2|0,0:0|0:0,0:0:0:0:
428,303,134347,6,0,P|421:273|418:239,1,56.9999982604981,10|0,0:0|0:0,0:0:0:0:
421,310,134537,6,0,P|409:282|400:248,1,56.9999982604981,2|0,3:1|0:0,0:0:0:0:
353,93,134727,6,0,P|408:60|469:146,1,170.999994781494,2|0,0:0|0:0,0:0:0:0:
332,106,135107,2,0,P|269:87|210:81,1,113.999996520996,10|0,0:0|0:0,0:0:0:0:
155,260,135486,6,0,B|173:271|173:271|204:174|123:138,1,170.999994781494,2|0,3:1|0:0,0:0:0:0:
108,25,135866,2,0,B|90:14|90:14|59:111|140:147,1,170.999994781494,10|0,0:0|0:0,0:0:0:0:
231,114,136246,6,0,B|243:96|243:96|119:148,1,142.5,2|0,0:0|0:0,0:0:0:0:
32,171,136626,2,0,B|20:189|20:189|144:137,1,142.5,10|0,0:0|0:0,0:0:0:0:
178,312,137005,6,0,P|179:279|193:248,1,56.9999982604981,2|0,3:1|0:0,0:0:0:0:
197,330,137195,6,0,P|186:298|189:264,1,56.9999982604981,2|0,0:0|0:0,0:0:0:0:
216,339,137385,6,0,P|200:309|196:276,1,56.9999982604981,10|0,0:0|0:0,0:0:0:0:
231,340,137575,6,0,P|206:318|191:287,1,56.9999982604981,2|0,3:1|0:0,0:0:0:0:
289,223,137765,6,0,B|354:237|354:237|365:247|365:247|467:268,1,170.999994781494,2|0,0:0|0:0,0:0:0:0:
512,192,138145,2,0,L|384:169,1,113.999996520996,10|0,0:0|0:0,0:0:0:0:
235,118,138524,6,0,B|191:67|225:18|225:18|257:18|283:65,1,170.999994781494,2|0,3:1|0:0,0:0:0:0:
228,132,138904,6,0,B|175:89|200:35|200:35|232:29|266:71,1,170.999994781494,10|0,0:0|0:0,0:0:0:0:
223,144,139284,6,0,B|164:111|179:53|179:53|209:42|249:77,1,170.999994781494,2|0,0:0|0:0,0:0:0:0:
219,156,139664,6,0,B|155:133|160:74|160:74|188:58|234:86,1,170.999994781494,10|0,0:0|0:0,0:0:0:0:
260,257,140043,6,0,P|273:293|277:327,1,56.9999982604981,2|0,3:1|0:0,0:0:0:0:
269,255,140233,6,0,P|275:292|273:326,1,56.9999982604981,2|0,0:0|0:0,0:0:0:0:
279,254,140423,6,0,P|278:292|271:325,1,56.9999982604981,10|0,0:0|0:0,0:0:0:0:
289,256,140613,6,0,P|282:293|268:325,1,56.9999982604981,2|0,3:1|0:0,0:0:0:0:
166,353,140803,6,0,B|74:375|86:297|-4:326,1,170.999994781494,2|0,0:0|0:0,0:0:0:0:
51,239,141183,2,0,B|80:189|80:189|53:121,1,113.999996520996,10|0,0:0|0:0,0:0:0:0:
209,53,141562,6,0,B|177:45|156:13|156:13|186:130,1,170.999994781494,2|0,3:1|0:0,0:0:0:0:
154,172,141942,2,0,B|186:180|207:212|207:212|177:95,1,170.999994781494,10|0,0:0|0:0,0:0:0:0:
283,20,142322,6,0,B|377:24|329:91|447:98,1,170.999994781494,10|0,0:3|0:0,0:0:0:0:
438,7,142702,1,10,0:0:0:0:
282,107,142891,6,0,B|273:160|273:160|277:169|277:169|265:247,1,113.999996520996,6|0,0:2|3:1,0:0:0:0:
454,278,143271,2,0,B|412:243|412:243|402:242|402:242|341:193,1,113.999996520996,6|8,0:2|0:0,0:0:0:0:
219,341,143651,2,0,B|269:322|269:322|275:314|275:314|348:285,1,113.999996520996,6|0,3:2|0:0,0:0:0:0:
182,111,144031,1,2,0:0:0:0:
98,278,144221,1,10,0:0:0:0:
273,157,144410,6,0,B|292:106|292:106|260:26,1,113.999996520996,6|0,0:0|3:1,0:0:0:0:
94,158,144790,2,0,B|128:199|128:199|213:212,1,113.999996520996,6|8,0:0|0:0,0:0:0:0:
182,2,145170,2,0,B|128:11|128:11|75:78,1,113.999996520996,6|0,0:2|0:0,0:0:0:0:
37,247,145550,1,10,0:0:0:0:
183,107,145740,1,10,0:0:0:0:
118,337,145929,1,10,0:0:0:0:
288,332,146119,6,0,P|284:308|283:265,1,56.9999982604981,6|0,3:1|0:0,0:0:0:0:
284,342,146309,6,0,P|275:319|267:276,1,56.9999982604981,2|0,0:0|0:0,0:0:0:0:
279,351,146499,6,0,P|267:329|251:289,1,56.9999982604981,10|0,0:0|0:0,0:0:0:0:
274,359,146689,6,0,P|258:340|236:303,1,56.9999982604981,2|0,3:1|0:0,0:0:0:0:
290,177,146879,6,0,B|400:159|400:159|390:202|426:240,1,170.999994781494,2|0,0:0|0:0,0:0:0:0:
478,286,147259,2,0,B|501:236|501:236|472:168,1,113.999996520996,10|0,0:0|0:0,0:0:0:0:
366,148,147638,6,0,B|305:155|305:155|256:122|256:122|175:132,1,170.999994781494,2|0,3:1|0:0,0:0:0:0:
45,107,148018,2,0,B|104:101|104:101|153:134|153:134|234:124,1,170.999994781494,10|0,0:0|0:0,0:0:0:0:
187,258,148398,6,0,B|220:219|220:219|200:98,1,142.5,2|0,0:0|0:0,0:0:0:0:
224,0,148778,2,0,B|191:39|191:39|211:160,1,142.5,10|0,0:0|0:0,0:0:0:0:
402,87,149157,6,0,P|371:80|332:80,1,56.9999982604981,2|0,3:1|0:0,0:0:0:0:
405,97,149347,6,0,P|373:95|334:102,1,56.9999982604981,2|0,0:0|0:0,0:0:0:0:
408,108,149537,6,0,P|376:112|339:125,1,56.9999982604981,10|0,0:0|0:0,0:0:0:0:
410,122,149727,6,0,P|379:131|345:150,1,56.9999982604981,2|0,3:1|0:0,0:0:0:0:
317,285,149917,6,0,P|290:225|185:236,1,170.999994781494,2|0,0:0|0:0,0:0:0:0:
129,280,150297,2,0,B|154:228|154:228|125:149,1,113.999996520996,10|0,0:0|0:0,0:0:0:0:
0,61,150676,6,0,B|46:62|73:98|73:98|69:46|116:18,1,170.999994781494,2|0,3:1|0:0,0:0:0:0:
10,68,151056,6,0,B|55:76|75:117|75:117|80:65|131:45,1,170.999994781494,10|0,0:0|0:0,0:0:0:0:
23,73,151436,6,0,B|65:89|78:132|78:132|92:82|146:72,1,170.999994781494,2|0,0:0|0:0,0:0:0:0:
37,79,151815,6,0,B|76:102|81:147|81:147|104:100|158:99,1,170.999994781494,10|0,0:0|0:0,0:0:0:0:
283,143,152195,6,0,P|273:114|273:76,1,56.9999982604981,2|0,3:1|0:0,0:0:0:0:
289,133,152385,6,0,P|284:102|290:65,1,56.9999982604981,2|0,0:0|0:0,0:0:0:0:
296,122,152575,6,0,P|296:91|309:55,1,56.9999982604981,10|0,0:0|0:0,0:0:0:0:
304,114,152765,6,0,P|309:83|328:50,1,56.9999982604981,2|0,3:1|0:0,0:0:0:0:
451,17,152955,6,0,B|442:87|442:87|447:97|447:97|436:192,1,170.999994781494,2|0,0:0|0:0,0:0:0:0:
375,239,153334,2,0,P|416:268|479:256,1,113.999996520996,10|0,0:0|0:0,0:0:0:0:
284,338,153714,6,0,B|230:359|188:290|188:290|206:260|192:215,1,170.999994781494,2|0,3:1|0:0,0:0:0:0:
137,183,154094,2,0,P|117:182|75:260,1,113.999996520996,10|8,0:0|0:1,0:0:0:0:
234,154,154474,2,0,P|219:99|210:37,1,113.999996520996,10|8,0:3|0:3,0:0:0:0:
126,96,154853,1,10,0:0:0:0:
325,137,155043,6,0,B|379:150|379:150|437:113,1,113.999996520996,6|0,0:3|3:1,0:0:0:0:
352,335,155423,2,0,B|336:281|336:281|275:250,1,113.999996520996,2|8,0:0|0:0,0:0:0:0:
510,213,155803,2,0,B|471:253|471:253|474:321,1,113.999996520996,2|0,3:1|0:0,0:0:0:0:
271,165,156183,1,2,0:0:0:0:
344,113,156372,1,10,0:0:0:0:
416,180,156562,1,2,0:0:0:0:
231,63,156752,6,0,B|184:52|184:52|175:44|175:44|99:25,1,113.999996520996,4|2,3:2|0:0,0:0:0:0:
0,172,157132,2,0,B|47:161|47:161|56:153|56:153|132:134,1,113.999996520996,12|10,0:2|0:1,0:0:0:0:
234,303,157512,2,0,B|187:292|187:292|178:284|178:284|102:265,1,113.999996520996,4|2,0:0|0:0,0:0:0:0:
232,169,157891,1,14,0:0:0:0:
331,276,158081,6,0,P|388:276|412:209,1,113.999996520996,2|2,0:0|0:0,0:0:0:0:
500,242,158651,1,2,0:0:0:0:
500,242,158841,2,0,P|489:201|477:127,1,113.999996520996,2|2,0:0|0:0,0:0:0:0:
485,48,159410,1,2,0:0:0:0:
485,48,159600,6,0,P|446:52|415:72,1,56.9999982604981,2|0,0:0|0:0,0:0:0:0:
369,2,159980,2,0,P|346:34|342:71,1,56.9999982604981,2|0,0:0|0:0,0:0:0:0:
256,47,160360,2,0,P|264:90|343:131,1,113.999996520996,2|2,0:0|0:0,0:0:0:0:
357,214,160929,1,2,0:0:0:0:
357,214,161119,6,0,B|303:208|303:208|293:212|293:212|233:206,1,113.999996520996,2|2,0:0|0:0,0:0:0:0:
186,146,161689,1,2,0:0:0:0:
186,146,161879,2,0,B|145:150|145:150|137:147|137:147|92:152,1,85.4999973907472,2|0,0:0|0:0,0:0:0:0:
84,158,162259,2,0,P|75:194|82:221,1,56.9999982604981,2|2,0:0|0:0,0:0:0:0:
134,275,162638,6,0,B|95:251|95:251|8:271,3,113.999996520996,2|2|2|2,0:0|0:0|0:0|0:0,0:0:0:0:
234,369,164157,6,0,P|243:323|255:303,1,56.9999982604981,2|0,0:0|0:0,0:0:0:0:
306,259,164537,2,0,P|297:213|285:193,1,56.9999982604981,2|0,0:0|0:0,0:0:0:0:
225,161,164917,1,2,0:0:0:0:
225,161,165107,2,0,P|289:156|321:113,1,113.999996520996,2|2,0:0|0:0,0:0:0:0:
356,53,165676,6,0,P|321:41|287:48,1,56.9999982604981,2|0,0:0|0:0,0:0:0:0:
230,1,166056,2,0,P|176:13|96:23,1,113.999996520996,2|2,0:0|0:0,0:0:0:0:
35,60,166626,2,0,P|26:23|31:-2,2,56.9999982604981,2|2|2,0:0|0:0|0:0,0:0:0:0:
122,102,167195,6,0,B|161:56|238:80|254:154|203:199|203:199|241:170|293:178|319:211,1,341.999989562989,2|2,0:0|0:0,0:0:0:0:
381,274,168524,2,0,P|410:269|454:266,1,56.9999982604981,2|2,0:0|0:0,0:0:0:0:
320,338,168904,6,0,B|242:328|242:328|232:333|232:333|147:323,1,170.999994781494,2|0,0:0|0:0,0:0:0:0:
92,263,169664,5,8,0:3:0:0:
13,289,169853,1,8,0:3:0:0:
136,180,170043,5,6,0:3:0:0:
215,201,170233,1,4,0:3:0:0:
341,68,170423,6,0,B|248:54|248:54|245:93|216:111,1,142.5,6|0,3:1|0:0,0:0:0:0:
369,88,170803,2,0,B|389:43|389:43|361:-23,1,95,10|0,0:0|3:0,0:0:0:0:
288,161,171183,1,0,0:0:0:0:
371,207,171372,1,0,0:0:0:0:
267,318,171562,2,0,B|184:319|219:259|116:269,1,142.5,10|0,0:0|0:0,0:0:0:0:
281,341,171942,6,0,P|297:300|285:248,1,95,2|0,3:0|0:0,0:0:0:0:
165,117,172322,1,8,0:0:0:0:
233,163,172512,1,10,0:1:0:0:
331,11,172702,5,2,0:0:0:0:
229,35,172891,1,2,0:0:0:0:
254,137,173081,1,10,0:0:0:0:
355,112,173271,1,2,0:0:0:0:
471,0,173461,6,0,P|502:43|450:140,1,142.5,2|0,3:1|0:0,0:0:0:0:
423,190,173841,2,0,P|437:237|440:292,1,95,10|0,0:0|3:0,0:0:0:0:
268,294,174221,1,0,0:0:0:0:
318,219,174410,1,0,0:0:0:0:
252,384,174600,2,0,P|197:366|100:355,1,142.5,10|0,0:0|0:0,0:0:0:0:
29,384,174980,6,0,B|45:298|45:298|41:283|41:283|60:182,1,190,2|8,3:0|0:0,0:0:0:0:
25,32,175550,1,8,0:1:0:0:
175,110,175740,2,0,B|134:133|134:133|88:118,1,95,2|0,0:0|0:0,0:0:0:0:
194,3,176119,1,8,0:0:0:0:
298,87,176309,6,0,P|289:149|291:199,1,95,2|0,0:0|3:1,0:0:0:0:
147,316,176689,2,0,P|155:253|153:203,1,95,2|8,0:0|0:0,0:0:0:0:
341,271,177069,2,0,P|285:287|247:278,1,95,2|0,3:0|0:0,0:0:0:0:
116,137,177448,2,0,P|162:129|206:145,1,95,2|8,0:0|0:0,0:0:0:0:
354,13,177828,6,0,P|337:67|328:122,1,95,2|0,0:0|3:0,0:0:0:0:
456,245,178208,2,0,P|417:203|374:167,1,95,2|8,0:0|0:0,0:0:0:0:
204,217,178588,2,0,P|259:204|311:185,1,95,10|0,0:1|0:0,0:0:0:0:
122,117,178967,1,0,0:0:0:0:
85,274,179157,1,8,0:0:0:0:
145,110,179347,6,0,B|153:60|153:60|160:52|160:52|169:-9,1,113.999996520996,6|0,0:2|3:1,0:0:0:0:
106,286,179727,2,0,B|58:304|58:304|48:302|48:302|-9:324,1,113.999996520996,6|8,0:2|0:0,0:0:0:0:
277,231,180107,2,0,B|316:262|316:262|319:272|319:272|368:311,1,113.999996520996,4|0,3:2|0:0,0:0:0:0:
289,108,180486,1,2,0:0:0:0:
187,271,180676,1,10,0:0:0:0:
381,171,180866,6,0,B|403:120|403:120|372:41,1,113.999996520996,6|0,0:2|3:0,0:0:0:0:
190,162,181246,2,0,B|223:206|223:206|307:219,1,113.999996520996,6|8,0:2|0:0,0:0:0:0:
293,1,181626,2,0,B|237:7|237:7|184:73,1,113.999996520996,4|8,0:2|0:3,0:0:0:0:
130,227,182005,1,8,0:0:0:0:
289,108,182195,1,8,0:0:0:0:
89,64,182385,1,8,0:0:0:0:
241,195,182575,6,0,P|247:214|250:263,1,56.9999982604981,6|0,3:1|0:0,0:0:0:0:
234,206,182765,6,0,P|236:225|231:274,1,56.9999982604981,2|0,0:0|0:0,0:0:0:0:
230,217,182955,6,0,P|229:236|215:283,1,56.9999982604981,10|0,0:0|0:0,0:0:0:0:
226,226,183145,6,0,P|221:245|199:289,1,56.9999982604981,2|0,3:1|0:0,0:0:0:0:
295,384,183334,6,0,P|346:327|444:353,1,170.999994781494,2|0,0:0|0:0,0:0:0:0:
489,277,183714,2,0,P|510:221|486:170,1,113.999996520996,10|0,0:0|0:0,0:0:0:0:
346,92,184094,6,0,B|283:102|283:102|256:136|256:136|188:150,1,170.999994781494,2|0,3:1|0:0,0:0:0:0:
41,205,184474,2,0,B|104:195|104:195|131:161|131:161|199:147,1,170.999994781494,10|0,0:0|0:0,0:0:0:0:
202,57,184853,6,0,B|176:44|176:44|141:104|209:163,1,142.5,2|0,0:0|0:0,0:0:0:0:
184,238,185233,2,0,B|210:251|210:251|245:191|177:132,1,142.5,10|0,0:0|0:0,0:0:0:0:
51,231,185613,6,0,P|78:231|114:244,1,56.9999982604981,2|0,3:1|0:0,0:0:0:0:
57,243,185803,6,0,P|83:247|116:266,1,56.9999982604981,2|0,0:0|0:0,0:0:0:0:
66,255,185993,6,0,P|91:264|120:288,1,56.9999982604981,10|0,0:0|0:0,0:0:0:0:
72,265,186183,6,0,P|95:278|120:307,1,56.9999982604981,2|0,3:1|0:0,0:0:0:0:
228,370,186372,6,0,B|253:315|326:327|326:327|340:370|384:391,1,170.999994781494,2|0,0:0|0:0,0:0:0:0:
408,304,186752,2,0,P|419:251|446:196,1,113.999996520996,10|0,0:0|0:0,0:0:0:0:
330,39,187132,6,0,B|384:84|361:160|361:160|323:183,1,170.999994781494,2|0,3:1|0:0,0:0:0:0:
327,47,187512,6,0,B|372:100|336:171|336:171|295:187,1,170.999994781494,10|0,0:0|0:0,0:0:0:0:
326,54,187891,6,0,B|361:114|313:178|313:178|270:186,1,170.999994781494,2|0,0:0|0:0,0:0:0:0:
323,61,188271,6,0,B|347:126|289:181|289:181|244:182,1,170.999994781494,10|0,0:0|0:0,0:0:0:0:
165,86,188651,6,0,P|181:71|228:55,1,56.9999982604981,2|0,3:1|0:0,0:0:0:0:
153,86,188841,6,0,P|166:68|209:44,1,56.9999982604981,2|0,0:0|0:0,0:0:0:0:
144,87,189031,6,0,P|153:67|192:36,1,56.9999982604981,10|0,0:0|0:0,0:0:0:0:
135,88,189221,6,0,P|141:67|174:29,1,56.9999982604981,2|0,3:1|0:0,0:0:0:0:
43,141,189410,6,0,P|100:170|109:280,1,170.999994781494,2|0,0:0|0:0,0:0:0:0:
69,331,189790,2,0,P|123:313|206:309,1,113.999996520996,10|0,0:0|0:0,0:0:0:0:
325,315,190170,6,0,B|333:334|316:355|316:355|272:296|322:234,1,170.999994781494,2|0,3:1|0:0,0:0:0:0:
313,160,190550,2,0,B|305:141|322:120|322:120|366:179|316:241,1,170.999994781494,10|0,0:0|0:0,0:0:0:0:
204,118,190929,6,0,B|129:106|164:48|67:42,1,142.5,10|0,0:3|0:0,0:0:0:0:
69,128,191309,1,10,0:0:0:0:
238,36,191499,6,0,B|293:13|293:13|357:42,1,113.999996520996,6|0,0:2|3:1,0:0:0:0:
256,208,191879,2,0,B|208:171|208:171|201:101,1,113.999996520996,6|8,0:2|0:0,0:0:0:0:
395,106,192259,2,0,B|387:165|387:165|330:206,1,113.999996520996,6|0,3:2|0:0,0:0:0:0:
146,279,192638,1,2,0:0:0:0:
294,117,192828,1,10,0:0:0:0:
344,301,193018,6,0,P|286:303|219:326,2,113.999996520996,2|2|2,0:0|0:0|0:0,0:0:0:0:
