osu file format v14

[General]
AudioFilename: audio.mp3
AudioLeadIn: 0
PreviewTime: 48759
Countdown: 0
SampleSet: Soft
StackLeniency: 0.4
Mode: 0
LetterboxInBreaks: 0
WidescreenStoryboard: 1

[Editor]
Bookmarks: 109614
DistanceSpacing: 1
BeatDivisor: 4
GridSize: 32
TimelineZoom: 1.4

[Metadata]
Title:Star
TitleUnicode:Star
Artist:LOONA
ArtistUnicode:이달의 소녀
Creator:Xandit
Version:Hard
Source:
Tags:LOOΠΔ Girl of the Month ViVi 비비 Yves 이브 JinSoul 진솔 Kim Lip 김립 Chuu 츄 HeeJin 희진 HyunJin 현진 Go Won 고원 Choerry 최리 Olivia Hye 올리비아 혜 YeoJin 여진 1/3 Odd Eye Circle YYXY Kpop K-pop [12:00] korean pop english
BeatmapID:3062393
BeatmapSetID:1494124

[Difficulty]
HPDrainRate:4
CircleSize:3.5
OverallDifficulty:6
ApproachRate:7.5
SliderMultiplier:1.5
SliderTickRate:1

[Events]
//Background and Video events
0,0,"starbg.jpg",0,0
Video,-447,"loonastarvid.mp4"
//Break Periods
//Storyboard Layer 0 (Background)
//Storyboard Layer 1 (Fail)
//Storyboard Layer 2 (Pass)
//Storyboard Layer 3 (Foreground)
//Storyboard Layer 4 (Overlay)
//Storyboard Sound Samples

[TimingPoints]
297,379.746835443038,4,2,1,30,1,0
12259,-117.647058823529,4,2,1,65,0,0
36562,-133.333333333333,4,2,1,65,0,0
36752,-133.333333333333,4,2,1,50,0,0
47385,-133.333333333333,4,2,1,30,0,0
47765,-133.333333333333,4,2,1,40,0,0
48145,-133.333333333333,4,2,1,70,0,0
48904,-100,4,2,1,85,0,1
73018,-117.647058823529,4,2,1,65,0,0
73208,-117.647058823529,4,2,1,65,0,0
85360,-117.647058823529,4,2,1,70,0,0
97322,-133.333333333333,4,2,1,70,0,0
97512,-133.333333333333,4,2,1,50,0,0
108145,-133.333333333333,4,2,1,30,0,0
108524,-133.333333333333,4,2,1,40,0,0
108904,-133.333333333333,4,2,1,70,0,0
109664,-100,4,2,1,85,0,1
158081,-133.333333333333,4,2,1,85,0,0
158271,-133.333333333333,4,2,1,50,0,0
168334,-133.333333333333,4,2,1,60,0,0
170423,-100,4,2,1,85,0,1
193018,-133.333333333333,4,2,1,60,0,0

[Colours]
Combo1 : 227,209,79
Combo2 : 83,82,95
Combo3 : 103,154,197
Combo4 : 204,149,87

[HitObjects]
66,70,12259,6,0,P|106:59|139:68,1,63.7500012159348,2|0,0:0|3:0,0:0:0:0:
178,133,12638,2,0,P|169:185|168:212,1,63.7500012159348,2|8,0:0|0:0,0:0:0:0:
250,75,13018,1,2,0:0:0:0:
250,75,13208,2,0,P|305:96|370:61,1,127.50000243187,2|8,0:0|0:0,0:0:0:0:
434,123,13778,6,0,P|421:167|414:206,1,63.7500012159348,2|0,0:0|3:0,0:0:0:0:
353,246,14157,2,0,P|366:290|373:329,1,63.7500012159348,2|8,0:0|0:0,0:0:0:0:
307,370,14537,1,2,0:0:0:0:
307,370,14727,1,2,0:0:0:0:
174,341,15107,1,8,0:0:0:0:
174,341,15297,6,0,P|163:297|174:261,1,63.7500012159348,2|0,0:0|3:0,0:0:0:0:
114,217,15676,2,0,P|125:173|114:137,1,63.7500012159348,2|8,0:0|0:0,0:0:0:0:
65,93,16056,1,2,0:0:0:0:
65,93,16246,2,0,P|133:106|184:62,1,127.50000243187,2|10,0:0|0:0,0:0:0:0:
252,33,16815,6,0,P|299:27|329:20,1,63.7500012159348,2|0,0:0|3:0,0:0:0:0:
375,83,17195,2,0,P|367:117|360:154,1,63.7500012159348,2|8,0:0|0:0,0:0:0:0:
286,189,17575,1,2,0:0:0:0:
286,189,17765,1,2,0:0:0:0:
253,332,18145,1,10,0:0:0:0:
253,332,18334,6,0,P|297:321|332:319,1,63.7500012159348,10|0,0:1|3:0,0:0:0:0:
398,322,18714,2,0,P|406:353|400:384,1,63.7500012159348,2|8,0:0|0:0,0:0:0:0:
425,246,19094,1,2,0:0:0:0:
425,246,19284,2,0,P|439:179|449:114,1,127.50000243187,2|10,0:0|0:0,0:0:0:0:
405,46,19853,6,0,P|366:40|334:54,1,63.7500012159348,2|0,0:0|3:0,0:0:0:0:
292,119,20233,2,0,B|209:137|209:137|148:109,1,127.50000243187,2|2,0:0|0:0,0:0:0:0:
103,62,20803,2,0,P|113:17|116:-11,2,63.7500012159348,2|2|10,0:0|0:0|0:0,0:0:0:0:
44,129,21372,1,2,0:0:0:0:
44,129,21562,5,2,3:0:0:0:
15,259,21942,1,10,0:0:0:0:
15,259,22132,2,0,P|68:247|144:248,1,127.50000243187,2|0,0:0|0:0,0:0:0:0:
226,265,22702,6,0,P|237:233|237:199,1,63.7500012159348,10|0,0:0|0:0,0:0:0:0:
201,107,23081,2,0,P|233:118|267:118,1,63.7500012159348,2|0,3:0|0:0,0:0:0:0:
359,90,23461,2,0,P|348:122|348:156,1,63.7500012159348,10|0,0:0|0:0,0:0:0:0:
387,250,23841,2,0,P|355:239|321:239,1,63.7500012159348,2|0,0:0|0:0,0:0:0:0:
265,308,24221,1,8,0:0:0:0:
265,308,24410,6,0,P|274:351|277:381,1,63.7500012159348,2|0,0:0|3:0,0:0:0:0:
198,235,24790,2,0,P|207:192|210:162,1,63.7500012159348,2|8,0:0|0:0,0:0:0:0:
163,98,25170,1,2,0:0:0:0:
163,98,25360,2,0,P|221:122|289:86,1,127.50000243187,2|8,0:0|0:0,0:0:0:0:
335,35,25929,6,0,P|375:28|409:18,1,63.7500012159348,2|0,0:0|3:0,0:0:0:0:
457,89,26309,2,0,P|448:122|443:151,1,63.7500012159348,2|8,0:0|0:0,0:0:0:0:
493,225,26689,1,2,0:0:0:0:
493,225,26879,1,2,0:0:0:0:
384,307,27259,1,8,0:0:0:0:
384,307,27448,6,0,P|377:344|373:384,1,63.7500012159348,2|0,0:0|3:0,0:0:0:0:
307,242,27828,2,0,P|300:205|296:165,1,63.7500012159348,2|8,0:0|0:0,0:0:0:0:
217,294,28208,1,2,0:0:0:0:
217,294,28398,2,0,P|167:284|89:340,1,127.50000243187,2|10,0:0|0:0,0:0:0:0:
25,259,28967,6,0,P|37:206|40:175,1,63.7500012159348,2|0,0:0|3:0,0:0:0:0:
33,106,29347,2,0,P|86:118|117:121,1,63.7500012159348,2|8,0:0|0:0,0:0:0:0:
169,67,29727,1,2,0:0:0:0:
169,67,29917,1,2,0:0:0:0:
306,5,30297,1,10,0:0:0:0:
306,5,30486,6,0,P|296:44|292:77,1,63.7500012159348,10|0,0:1|3:0,0:0:0:0:
239,143,30866,2,0,P|249:182|253:215,1,63.7500012159348,2|8,0:0|0:0,0:0:0:0:
304,282,31246,1,2,0:0:0:0:
304,282,31436,2,0,P|266:261|172:283,1,127.50000243187,2|10,0:0|0:0,0:0:0:0:
239,353,32005,6,0,P|279:362|315:376,1,63.7500012159348,2|0,0:0|3:0,0:0:0:0:
385,335,32385,2,0,B|411:299|411:299|389:214,1,127.50000243187,2|2,0:0|0:0,0:0:0:0:
445,141,32955,2,0,P|496:151|528:155,2,63.7500012159348,2|2|10,0:0|0:0|0:0,0:0:0:0:
394,62,33524,1,2,0:0:0:0:
394,62,33714,5,2,3:0:0:0:
254,42,34094,1,10,0:0:0:0:
254,42,34284,2,0,P|263:94|274:184,1,127.50000243187,2|0,0:0|0:0,0:0:0:0:
189,231,34853,2,0,P|184:186|178:151,1,63.7500012159348,8|0,0:0|0:0,0:0:0:0:
89,140,35233,5,8,3:0:0:0:
89,140,35423,1,8,0:3:0:0:
25,202,35613,2,0,P|18:244|27:272,1,63.7500012159348,10|4,0:0|0:3,0:0:0:0:
95,322,35993,1,2,3:0:0:0:
95,322,36183,1,0,3:3:0:0:
174,279,36372,1,10,0:0:0:0:
240,345,36562,6,0,B|294:355|287:307|366:327,1,112.500004291535,2|2,3:3|0:0,0:0:0:0:
410,263,37132,2,0,P|435:310|418:371,2,112.500004291535,10|2|10,0:1|0:0|0:1,0:0:0:0:
305,151,38271,2,0,P|312:103|328:16,1,112.500004291535,2|10,0:0|0:1,0:0:0:0:
147,82,39031,2,0,P|181:111|182:191,1,112.500004291535,2|8,0:0|0:1,0:0:0:0:
133,235,39600,6,0,B|192:229|192:229|202:234|202:234|264:227,1,112.500004291535,2|2,0:0|0:0,0:0:0:0:
320,289,40170,1,10,0:1:0:0:
435,137,40550,2,0,P|440:183|456:251,2,112.500004291535,2|10|2,0:0|0:1|0:0,0:0:0:0:
321,5,41689,1,10,0:1:0:0:
189,93,42069,2,0,P|157:70|66:74,1,112.500004291535,2|10,0:0|0:1,0:0:0:0:
34,136,42638,6,0,P|45:183|54:253,1,112.500004291535,2|2,0:0|0:0,0:0:0:0:
12,332,43208,1,10,0:1:0:0:
171,384,43588,2,0,P|219:357|296:376,1,112.500004291535,2|10,0:0|0:1,0:0:0:0:
399,262,44347,2,0,P|445:271|521:280,2,112.500004291535,2|10|2,0:0|0:1|0:0,0:0:0:0:
296,134,45486,1,8,0:1:0:0:
296,134,45676,6,0,B|306:95|306:95|298:55|298:55|305:19,1,112.500004291535,2|0,0:0|0:0,0:0:0:0:
213,22,46246,1,8,0:1:0:0:
213,22,47005,1,8,0:1:0:0:
115,152,47385,6,0,P|96:148|71:145,3,28.1250010728836,8|8|8|8,0:3|0:3|0:3|0:3,0:0:0:0:
151,183,47765,2,0,P|170:179|195:176,3,28.1250010728836,4|4|4|4,0:3|0:3|0:3|0:3,0:0:0:0:
127,226,48145,5,8,0:3:0:0:
127,226,48334,1,8,0:3:0:0:
64,297,48524,5,4,0:3:0:0:
64,297,48714,1,4,0:3:0:0:
141,359,48904,6,0,P|187:351|230:352,1,75,6|0,3:1|0:0,0:0:0:0:
294,384,49284,2,0,P|265:331|309:259,1,150,10|0,0:0|0:0,0:0:0:0:
397,222,49853,1,0,0:0:0:0:
397,222,50043,2,0,P|403:172|414:138,1,75,10|0,0:0|0:0,0:0:0:0:
359,70,50423,6,0,B|288:80|288:80|276:75|276:75|200:84,1,150,2|8,3:0|0:0,0:0:0:0:
127,34,50993,1,10,0:1:0:0:
60,96,51183,2,0,P|71:140|74:179,1,75,2|2,0:0|0:0,0:0:0:0:
14,235,51562,1,10,0:0:0:0:
14,235,51752,1,2,0:0:0:0:
78,300,51942,6,0,P|121:307|153:292,1,75,2|0,3:1|0:0,0:0:0:0:
211,226,52322,2,0,B|293:215|293:215|314:247|348:254,1,150,10|0,0:0|0:0,0:0:0:0:
432,207,52891,1,0,0:0:0:0:
432,207,53081,2,0,P|442:159|457:131,1,75,10|0,0:0|0:0,0:0:0:0:
470,52,53461,6,0,B|383:48|417:92|328:96,1,150,2|8,3:0|0:0,0:0:0:0:
265,35,54031,1,8,0:1:0:0:
195,94,54221,2,0,P|157:93|121:84,1,75,2|0,0:0|0:0,0:0:0:0:
47,41,54600,1,8,0:0:0:0:
7,118,54790,6,0,P|22:176|34:272,1,150,2|2,0:0|0:0,0:0:0:0:
93,335,55360,1,8,0:0:0:0:
93,335,55550,2,0,P|138:341|167:327,1,75,2|0,3:0|0:0,0:0:0:0:
214,256,55929,2,0,P|259:250|288:264,1,75,2|8,0:0|0:0,0:0:0:0:
359,322,56309,6,0,P|369:273|381:243,1,75,2|0,0:0|3:0,0:0:0:0:
437,184,56689,2,0,P|427:135|415:105,1,75,2|8,0:0|0:0,0:0:0:0:
443,35,57069,2,0,P|386:68|307:32,1,150,10|0,0:1|0:0,0:0:0:0:
235,85,57638,1,8,0:0:0:0:
290,158,57828,6,0,P|299:202|301:251,1,75,6|0,0:2|3:1,0:0:0:0:
353,314,58208,2,0,P|309:323|260:325,1,75,6|8,0:2|0:0,0:0:0:0:
197,367,58588,2,0,P|188:323|186:274,1,75,4|0,3:2|0:0,0:0:0:0:
219,208,58967,1,2,0:0:0:0:
148,152,59157,1,10,0:0:0:0:
209,91,59347,6,0,P|227:41|218:0,1,75,6|0,0:2|3:0,0:0:0:0:
316,37,59727,2,0,P|366:55|407:46,1,75,6|8,0:2|0:0,0:0:0:0:
369,150,60107,2,0,P|351:200|360:241,1,75,4|0,0:2|0:0,0:0:0:0:
428,278,60486,1,2,0:0:0:0:
428,278,60676,2,0,P|476:271|513:272,1,75,10|2,0:0|0:0,0:0:0:0:
364,345,61056,6,0,P|330:361|274:332,1,75,6|0,3:1|0:0,0:0:0:0:
243,288,61436,2,0,B|190:278|190:278|148:303|148:303|81:291,1,150,10|0,0:0|0:0,0:0:0:0:
9,303,62005,1,0,0:0:0:0:
9,303,62195,2,0,P|23:244|25:223,1,75,10|0,0:0|0:0,0:0:0:0:
0,152,62575,6,0,P|52:178|123:125,1,150,2|8,3:0|0:0,0:0:0:0:
175,56,63145,1,8,0:1:0:0:
249,116,63334,2,0,P|299:109|332:108,1,75,2|2,0:0|0:0,0:0:0:0:
389,60,63714,1,10,0:0:0:0:
461,109,63904,1,2,0:0:0:0:
448,194,64094,6,0,P|436:240|433:275,1,75,2|0,3:1|0:0,0:0:0:0:
495,322,64474,2,0,B|456:293|413:304|413:304|401:343|358:352,1,150,10|0,0:0|0:0,0:0:0:0:
289,298,65043,1,0,0:0:0:0:
289,298,65233,2,0,P|240:307|201:308,1,75,10|0,0:0|0:0,0:0:0:0:
133,345,65613,6,0,P|182:297|152:220,1,150,2|8,3:0|0:0,0:0:0:0:
87,177,66183,1,8,0:1:0:0:
87,177,66372,2,0,P|45:188|5:196,1,75,2|0,0:0|0:0,0:0:0:0:
41,92,66752,1,8,0:0:0:0:
131,90,66942,6,0,P|171:75|245:137,1,150,2|2,0:0|0:0,0:0:0:0:
260,230,67512,1,8,0:0:0:0:
260,230,67702,2,0,P|303:219|342:216,1,75,2|0,3:0|0:0,0:0:0:0:
385,143,68081,2,0,P|428:154|467:157,1,75,2|8,0:0|0:0,0:0:0:0:
508,91,68461,6,0,B|499:152|499:152|504:162|504:162|491:250,1,150,2|2,0:0|0:0,0:0:0:0:
470,323,69031,1,8,0:0:0:0:
470,323,69221,2,0,B|433:336|433:336|385:319,1,75,10|0,0:1|0:0,0:0:0:0:
343,252,69600,1,0,0:0:0:0:
283,315,69790,1,8,0:0:0:0:
217,254,69980,6,0,P|227:205|228:178,1,75,6|0,0:2|3:1,0:0:0:0:
280,102,70360,2,0,P|231:92|204:91,1,75,6|8,0:2|0:0,0:0:0:0:
128,39,70740,2,0,P|118:88|117:115,1,75,4|0,3:2|0:0,0:0:0:0:
53,170,71119,1,2,0:0:0:0:
121,229,71309,1,10,0:0:0:0:
76,301,71499,6,0,P|118:315|150:309,1,75,6|0,0:2|3:0,0:0:0:0:
218,355,71879,2,0,P|232:313|226:281,1,75,6|8,0:2|0:0,0:0:0:0:
271,206,72259,2,0,P|229:192|197:198,1,75,4|0,0:2|0:0,0:0:0:0:
324,126,72638,1,0,0:0:0:0:
369,215,72828,1,8,0:0:0:0:
425,133,73018,6,0,P|430:93|439:61,1,63.7500012159348,2|0,0:0|3:0,0:0:0:0:
383,3,73398,2,0,P|347:20|318:18,1,63.7500012159348,2|8,0:0|0:0,0:0:0:0:
240,1,73778,1,2,0:0:0:0:
240,1,73967,2,0,P|253:50|267:140,1,127.50000243187,2|8,0:0|0:0,0:0:0:0:
214,199,74537,6,0,P|176:211|145:206,1,63.7500012159348,2|0,0:0|3:0,0:0:0:0:
222,316,74917,2,0,P|257:287|335:297,1,127.50000243187,2|2,0:0|0:0,0:0:0:0:
401,350,75486,1,2,0:0:0:0:
472,212,75866,1,8,0:0:0:0:
472,212,76056,6,0,B|406:229|412:178|335:199,1,127.50000243187,2|2,0:0|0:0,0:0:0:0:
300,130,76626,1,8,0:0:0:0:
222,175,76815,1,2,0:0:0:0:
222,175,77005,2,0,P|206:132|208:103,1,63.7500012159348,2|0,0:0|0:0,0:0:0:0:
110,82,77385,1,10,0:0:0:0:
110,82,77575,6,0,P|122:145|130:215,1,127.50000243187,2|2,0:0|0:0,0:0:0:0:
59,266,78145,1,8,0:0:0:0:
59,266,78334,1,2,0:0:0:0:
140,314,78524,1,2,0:0:0:0:
290,250,78904,1,10,0:0:0:0:
290,250,79094,6,0,P|297:211|305:182,1,63.7500012159348,10|0,0:1|3:0,0:0:0:0:
270,109,79474,2,0,P|263:70|255:41,1,63.7500012159348,2|8,0:0|0:0,0:0:0:0:
359,68,79853,1,2,0:0:0:0:
359,68,80043,2,0,P|412:57|471:115,1,127.50000243187,2|10,0:0|0:0,0:0:0:0:
451,179,80613,6,0,P|463:214|469:247,1,63.7500012159348,2|0,0:0|3:0,0:0:0:0:
475,324,80993,2,0,B|422:314|422:314|400:322|400:322|345:312,1,127.50000243187,2|2,0:0|0:0,0:0:0:0:
294,242,81562,1,2,0:0:0:0:
294,242,81752,1,2,0:0:0:0:
220,299,81942,2,0,P|185:299|144:308,1,63.7500012159348,10|2,0:0|0:0,0:0:0:0:
89,244,82322,5,0,3:0:0:0:
125,108,82702,1,8,0:0:0:0:
125,108,82891,2,0,B|171:135|171:135|255:112,1,127.50000243187
250,25,83461,6,0,P|286:33|323:38,1,63.7500012159348,10|0,0:0|0:0,0:0:0:0:
397,25,83841,2,0,P|389:61|384:98,1,63.7500012159348,2|0,3:0|0:0,0:0:0:0:
401,173,84221,2,0,P|365:165|328:160,1,63.7500012159348,10|0,0:0|0:0,0:0:0:0:
263,211,84600,2,0,P|227:219|190:224,1,63.7500012159348,2|2,0:0|0:0,0:0:0:0:
128,178,84980,1,10,0:0:0:0:
128,178,85170,6,0,P|112:232|147:291,1,127.50000243187,2|2,0:0|0:0,0:0:0:0:
190,367,85740,1,10,0:0:0:0:
190,367,85929,2,0,B|245:362|245:362|253:368|253:368|321:360,1,127.50000243187,2|2,3:0|0:0,0:0:0:0:
398,384,86499,1,10,0:0:0:0:
398,384,86689,6,0,P|408:342|418:310,1,63.7500012159348,2|0,0:0|3:0,0:0:0:0:
452,245,87069,2,0,P|442:203|432:171,1,63.7500012159348,2|8,0:0|0:0,0:0:0:0:
410,106,87448,1,2,0:0:0:0:
271,173,87828,2,0,P|281:131|291:99,1,63.7500012159348,2|10,0:0|0:0,0:0:0:0:
269,31,88208,6,0,B|220:36|220:36|197:59|197:59|122:66,1,127.50000243187,2|2,0:0|0:0,0:0:0:0:
56,60,88778,1,10,0:0:0:0:
56,60,88967,2,0,P|67:95|75:141,1,63.7500012159348,2|0,3:0|0:0,0:0:0:0:
45,206,89347,1,2,0:0:0:0:
45,206,89537,1,10,0:0:0:0:
102,280,89727,5,2,0:0:0:0:
215,182,90107,2,0,P|259:175|291:172,1,63.7500012159348,2|8,0:0|0:0,0:0:0:0:
315,250,90486,2,0,P|359:257|391:260,1,63.7500012159348,2|0,0:0|0:0,0:0:0:0:
440,324,90866,1,10,0:1:0:0:
440,324,91056,1,8,0:0:0:0:
510,264,91246,6,0,P|516:229|507:202,1,63.7500012159348,2|0,0:0|3:0,0:0:0:0:
448,138,91626,2,0,P|442:103|451:76,1,63.7500012159348,2|8,0:0|0:0,0:0:0:0:
512,15,92005,1,2,3:0:0:0:
512,15,92195,2,0,P|471:35|394:-12,1,127.50000243187,2|10,0:0|0:0,0:0:0:0:
342,70,92765,5,2,0:0:0:0:
161,14,93145,2,0,P|170:51|178:147,1,127.50000243187,2|2,0:0|0:0,0:0:0:0:
126,209,93714,2,0,P|90:198|54:204,2,63.7500012159348,2|2|10,0:0|0:0|0:0,0:0:0:0:
152,302,94284,1,2,0:0:0:0:
152,302,94474,6,0,P|144:352|142:388,1,63.7500012159348,2|2,3:0|0:0,0:0:0:0:
222,234,94853,1,10,0:0:0:0:
222,234,95043,2,0,P|266:264|339:249,1,127.50000243187,2|0,3:0|0:0,0:0:0:0:
370,168,95613,2,0,P|362:129|361:102,1,63.7500012159348,8|0,0:0|0:0,0:0:0:0:
296,37,95993,6,0,B|263:31|263:31|220:43,1,63.7500012159348,4|0,3:2|0:0,0:0:0:0:
144,10,96372,2,0,B|138:43|138:43|150:86,1,63.7500012159348,14|0,0:2|0:0,0:0:0:0:
117,162,96752,2,0,B|150:168|150:168|193:156,1,63.7500012159348,6|0,0:0|0:0,0:0:0:0:
251,217,97132,1,14,0:0:0:0:
251,217,97322,6,0,P|296:208|371:203,1,112.500004291535,2|2,0:0|0:0,0:0:0:0:
433,256,97891,2,0,P|441:293|426:327,1,56.2500021457673,10|0,0:1|0:0,0:0:0:0:
376,368,98271,1,2,0:0:0:0:
245,301,98651,1,10,0:1:0:0:
121,366,99031,2,0,P|71:355|0:347,2,112.500004291535,2|10|2,0:0|0:1|0:0,0:0:0:0:
203,214,100170,1,8,0:1:0:0:
203,214,100360,6,0,P|221:156|188:93,1,112.500004291535,2|2,0:0|0:0,0:0:0:0:
131,57,100929,2,0,P|72:72|3:82,2,112.500004291535,10|2|10,0:1|0:0|0:1,0:0:0:0:
302,10,102069,2,0,B|347:22|347:22|362:40|362:40|411:58,1,112.500004291535,2|10,0:0|0:1,0:0:0:0:
466,223,102828,2,0,P|419:200|347:218,1,112.500004291535,2|10,0:0|0:1,0:0:0:0:
270,182,103398,6,0,P|281:237|287:301,1,112.500004291535,2|2,0:0|0:0,0:0:0:0:
244,360,103967,2,0,B|288:339|288:339|365:360,2,112.500004291535,10|2|10,0:1|0:0|0:1,0:0:0:0:
98,267,105107,2,0,P|88:328|75:384,2,112.500004291535,2|10|2,0:0|0:1|0:0,0:0:0:0:
33,94,106246,1,8,0:1:0:0:
33,94,106436,6,0,P|83:58|148:65,1,112.500004291535,2|0,0:0|0:0,0:0:0:0:
199,116,107005,1,8,0:1:0:0:
199,116,107765,1,8,0:1:0:0:
337,30,108145,6,0,P|357:32|380:35,3,28.1250010728836,8|8|8|8,0:3|0:3|0:3|0:3,0:0:0:0:
404,74,108524,2,0,P|424:72|447:69,3,28.1250010728836,4|4|4|4,0:3|0:3|0:3|0:3,0:0:0:0:
483,110,108904,5,8,0:3:0:0:
483,110,109094,1,8,0:3:0:0:
418,174,109284,5,4,0:3:0:0:
418,174,109474,1,4,0:3:0:0:
478,245,109664,6,0,P|467:288|462:328,1,75,6|0,3:1|0:0,0:0:0:0:
391,375,110043,2,0,P|342:327|261:345,1,150,10|0,0:0|0:0,0:0:0:0:
192,285,110613,1,0,0:0:0:0:
192,285,110803,2,0,B|210:250|210:250|197:193,1,75,10|0,0:0|0:0,0:0:0:0:
137,158,111183,6,0,P|192:166|298:171,1,150,2|8,3:0|0:0,0:0:0:0:
356,116,111752,1,10,0:1:0:0:
356,116,111942,2,0,P|372:70|365:42,1,75,2|2,0:0|0:0,0:0:0:0:
293,0,112322,2,0,P|238:6|197:6,1,75,10|2,0:0|0:0,0:0:0:0:
151,64,112702,6,0,B|140:132|140:132|144:140|144:140|130:225,1,150,2|10,3:1|0:0,0:0:0:0:
89,288,113271,1,0,3:0:0:0:
89,288,113461,2,0,B|125:302|125:302|172:287,1,75
215,225,113841,2,0,B|251:211|251:211|298:226,1,75,10|0,0:0|0:0,0:0:0:0:
321,300,114221,6,0,P|330:238|355:148,1,150,2|8,3:0|0:0,0:0:0:0:
374,63,114790,1,8,0:1:0:0:
374,63,114980,2,0,P|311:72|280:58,1,75,2|0,0:0|0:0,0:0:0:0:
243,5,115360,1,8,0:0:0:0:
169,55,115550,6,0,B|81:38|104:102|18:78,1,150,2|2,0:0|0:0,0:0:0:0:
68,169,116119,1,8,0:0:0:0:
68,169,116309,2,0,P|79:209|83:247,1,75,2|0,3:0|0:0,0:0:0:0:
137,311,116689,2,0,P|184:291|225:299,1,75,2|8,0:0|0:0,0:0:0:0:
285,346,117069,6,0,B|372:370|372:370|441:333,1,150,2|2,0:0|0:0,0:0:0:0:
394,255,117638,1,8,0:0:0:0:
394,255,117828,2,0,P|403:202|410:179,1,75,10|0,0:1|0:0,0:0:0:0:
480,119,118208,1,0,0:0:0:0:
480,119,118398,1,8,0:0:0:0:
433,32,118588,6,0,P|383:23|337:45,1,75,6|0,0:2|3:1,0:0:0:0:
301,95,118967,2,0,P|251:104|205:82,1,75,6|8,0:2|0:0,0:0:0:0:
169,31,119347,2,0,P|119:22|73:44,1,75,4|0,3:2|0:0,0:0:0:0:
46,105,119727,1,2,0:0:0:0:
134,104,119917,1,10,0:0:0:0:
89,183,120107,6,0,P|76:232|65:261,1,75,6|0,0:2|3:0,0:0:0:0:
13,329,120486,2,0,P|62:342|91:353,1,75,6|8,0:2|0:0,0:0:0:0:
172,384,120866,2,0,P|185:335|196:306,1,75,4|0,0:2|0:0,0:0:0:0:
269,252,121246,1,2,0:0:0:0:
269,252,121436,1,10,0:0:0:0:
342,308,121626,1,2,0:0:0:0:
414,253,121815,6,0,P|433:217|431:176,1,75,6|0,3:1|0:0,0:0:0:0:
381,108,122195,2,0,B|319:96|319:96|289:112|289:112|217:98,1,150,10|0,0:0|0:0,0:0:0:0:
139,66,122765,1,0,0:0:0:0:
139,66,122955,2,0,P|152:114|157:154,1,75,10|0,0:0|0:0,0:0:0:0:
95,199,123334,6,0,B|142:181|184:212|184:212|182:253|209:278,1,150,2|8,3:0|0:0,0:0:0:0:
279,310,123904,1,8,0:1:0:0:
279,310,124094,2,0,P|328:297|356:296,1,75,2|2,0:0|0:0,0:0:0:0:
450,315,124474,2,0,P|437:266|436:238,1,75,10|2,0:0|0:0,0:0:0:0:
505,186,124853,6,0,B|434:209|437:141|351:167,1,150,2|10,3:1|0:0,0:0:0:0:
294,97,125423,1,0,3:0:0:0:
294,97,125613,2,0,P|302:54|317:10,1,75
225,158,125993,2,0,P|235:193|242:230,1,75,10|0,0:0|0:0,0:0:0:0:
149,96,126372,6,0,B|97:89|97:89|64:103|64:103|-5:93,1,150,2|8,3:0|0:0,0:0:0:0:
33,185,126942,1,8,0:1:0:0:
33,185,127132,2,0,P|41:233|45:294,1,75,2|0,0:0|0:0,0:0:0:0:
17,351,127512,1,8,0:0:0:0:
103,326,127702,6,0,P|139:304|178:304,1,75,2|0,0:0|3:1,0:0:0:0:
227,231,128081,2,0,P|263:253|302:253,1,75,2|8,0:0|0:0,0:0:0:0:
376,315,128461,2,0,P|386:262|399:226,1,75,2|0,3:0|0:0,0:0:0:0:
459,180,128841,2,0,P|449:127|436:91,1,75,2|8,0:0|0:0,0:0:0:0:
373,48,129221,6,0,P|336:84|241:75,1,150,2|2,0:0|0:0,0:0:0:0:
163,31,129790,1,8,0:0:0:0:
163,31,129980,2,0,B|149:68|149:68|163:122,1,75,10|0,0:1|0:0,0:0:0:0:
211,171,130360,1,0,0:0:0:0:
156,243,130550,1,8,0:0:0:0:
222,302,130740,6,0,P|271:290|307:288,1,75,6|0,0:2|3:1,0:0:0:0:
391,315,131119,2,0,P|379:266|377:230,1,75,6|8,0:2|0:0,0:0:0:0:
396,148,131499,2,0,P|347:160|311:162,1,75,4|0,3:2|0:0,0:0:0:0:
268,81,131879,1,2,0:0:0:0:
268,81,132069,1,10,0:0:0:0:
212,151,132259,6,0,P|171:158|140:149,1,75,6|0,0:2|3:0,0:0:0:0:
47,106,132638,2,0,P|54:147|45:178,1,75,6|8,0:2|0:0,0:0:0:0:
8,268,133018,2,0,P|49:261|80:270,1,75,4|8,0:2|0:3,0:0:0:0:
138,336,133398,1,8,0:3:0:0:
211,288,133588,1,8,0:0:0:0:
268,356,133778,1,4,0:3:0:0:
346,306,133967,6,0,P|340:263|339:225,1,75,6|2,3:1|0:0,0:0:0:0:
385,152,134347,1,10,0:0:0:0:
330,83,134537,1,2,3:1:0:0:
411,46,134727,2,0,P|333:47|244:34,1,150,2|10,0:0|0:0,0:0:0:0:
189,0,135297,1,0,0:0:0:0:
138,77,135486,6,0,P|92:83|54:60,1,75,2|0,3:1|0:0,0:0:0:0:
13,149,135866,2,0,P|19:195|-4:233,1,75,10|8,0:0|0:1,0:0:0:0:
63,283,136246,2,0,B|119:277|119:277|153:299|153:299|221:290,1,150,2|10,0:0|0:0,0:0:0:0:
396,264,137005,5,2,3:1:0:0:
396,264,137195,1,2,0:0:0:0:
380,179,137385,1,10,0:0:0:0:
380,179,137575,1,2,3:1:0:0:
401,90,137765,2,0,B|317:75|332:132|245:110,1,150,2|10,0:0|0:0,0:0:0:0:
199,37,138334,1,0,0:0:0:0:
129,103,138524,6,0,P|141:156|144:198,1,75,2|0,3:1|0:0,0:0:0:0:
203,240,138904,2,0,P|191:293|188:335,1,75,10|8,0:0|0:1,0:0:0:0:
264,374,139284,2,0,P|304:342|402:370,1,150,2|10,0:0|0:0,0:0:0:0:
387,225,140043,5,2,3:1:0:0:
387,225,140233,1,2,0:0:0:0:
300,191,140423,1,10,0:0:0:0:
300,191,140613,1,2,3:1:0:0:
216,155,140803,2,0,B|157:164|157:164|123:148|123:148|70:154,1,150,2|10,0:0|0:0,0:0:0:0:
16,224,141372,1,0,0:0:0:0:
16,224,141562,6,0,P|31:265|36:303,1,75,2|0,3:1|0:0,0:0:0:0:
27,384,141942,2,0,P|68:369|106:364,1,75,10|8,0:0|0:1,0:0:0:0:
192,356,142322,2,0,P|163:305|201:225,1,150,10|10,0:3|0:0,0:0:0:0:
283,190,142891,6,0,P|321:198|359:187,1,75,6|0,0:2|3:1,0:0:0:0:
441,224,143271,2,0,P|449:186|438:148,1,75,6|8,0:2|0:0,0:0:0:0:
472,70,143651,2,0,P|434:62|396:73,1,75,6|0,3:2|0:0,0:0:0:0:
333,13,144031,1,2,0:0:0:0:
273,83,144221,1,10,0:0:0:0:
197,30,144410,6,0,P|160:25|120:25,1,75,6|0,0:0|3:1,0:0:0:0:
36,0,144790,2,0,P|31:37|31:77,1,75,6|8,0:0|0:0,0:0:0:0:
0,159,145170,2,0,P|37:164|77:164,1,75,6|0,0:2|0:0,0:0:0:0:
161,103,145550,2,0,P|166:66|166:26,2,75,10|10|10,0:0|0:0|0:0,0:0:0:0:
250,147,146119,5,6,3:1:0:0:
250,147,146309,1,2,0:0:0:0:
283,235,146499,1,10,0:0:0:0:
283,235,146689,1,2,3:1:0:0:
341,164,146879,2,0,P|387:135|480:172,1,150,2|10,0:0|0:0,0:0:0:0:
504,245,147448,1,0,0:0:0:0:
504,245,147638,6,0,P|495:293|493:338,1,75,2|0,3:1|0:0,0:0:0:0:
417,363,148018,2,0,P|369:354|324:352,1,75,10|8,0:0|0:1,0:0:0:0:
264,384,148398,2,0,B|300:344|300:344|276:237,1,150,2|10,0:0|0:0,0:0:0:0:
255,163,148967,1,0,0:0:0:0:
176,215,149157,5,2,3:1:0:0:
176,215,149347,1,2,0:0:0:0:
97,155,149537,1,10,0:0:0:0:
97,155,149727,1,2,3:1:0:0:
28,209,149917,2,0,P|41:263|54:363,1,150,2|10,0:0|0:0,0:0:0:0:
136,310,150486,1,0,0:0:0:0:
136,310,150676,6,0,P|179:316|211:339,1,75,2|0,3:1|0:0,0:0:0:0:
294,384,151056,2,0,P|300:341|323:309,1,75,10|8,0:0|0:1,0:0:0:0:
368,226,151436,2,0,P|325:220|293:197,1,75,2|0,0:0|0:0,0:0:0:0:
210,152,151815,2,0,P|204:195|181:227,1,75,10|0,0:0|0:0,0:0:0:0:
102,251,152195,5,2,3:1:0:0:
102,251,152385,1,2,0:0:0:0:
71,162,152575,1,10,0:0:0:0:
71,162,152765,1,2,3:1:0:0:
139,96,152955,2,0,P|197:62|273:93,1,150,2|10,0:0|0:0,0:0:0:0:
364,50,153524,1,0,0:0:0:0:
364,50,153714,6,0,P|350:99|343:133,1,75,2|0,3:1|0:0,0:0:0:0:
393,200,154094,2,0,P|407:249|414:283,1,75,10|8,0:0|0:1,0:0:0:0:
343,346,154474,2,0,B|259:348|288:300|196:297,1,150,10|10,0:3|0:0,0:0:0:0:
102,340,155043,6,0,B|90:300|90:300|108:245,1,75,6|0,0:3|3:1,0:0:0:0:
171,210,155423,2,0,B|183:170|183:170|165:115,1,75,2|8,0:0|0:0,0:0:0:0:
108,81,155803,2,0,P|175:91|268:91,1,150,2|2,3:1|0:0,0:0:0:0:
333,47,156372,1,10,0:0:0:0:
394,102,156562,1,2,0:0:0:0:
471,66,156752,6,0,P|481:106|467:148,1,75,4|2,3:2|0:0,0:0:0:0:
410,186,157132,2,0,P|400:226|414:268,1,75,12|10,0:2|0:1,0:0:0:0:
359,335,157512,2,0,P|292:321|262:318,1,75,4|2,0:0|0:0,0:0:0:0:
213,270,157891,1,14,0:0:0:0:
148,337,158081,6,0,P|123:304|129:229,1,112.500004291535,2|2,0:0|0:0,0:0:0:0:
198,177,158651,1,2,0:0:0:0:
198,177,158841,2,0,P|223:144|217:69,1,112.500004291535,2|2,0:0|0:0,0:0:0:0:
147,32,159410,1,2,0:0:0:0:
147,32,159600,6,0,P|202:39|257:53,3,112.500004291535,2|2|2|2,0:0|0:0|0:0|0:0,0:0:0:0:
341,17,160929,1,2,0:0:0:0:
341,17,161119,6,0,B|334:61|334:61|343:86|343:86|333:138,1,112.500004291535,2|2,0:0|0:0,0:0:0:0:
275,191,161689,1,2,0:0:0:0:
275,191,161879,2,0,P|293:248|305:316,1,112.500004291535,2|2,0:0|0:0,0:0:0:0:
308,384,162448,1,2,0:0:0:0:
308,384,162638,6,0,P|262:340|193:342,3,112.500004291535,2|2|2|2,0:0|0:0|0:0|0:0,0:0:0:0:
58,202,164157,6,0,P|69:162|72:128,1,56.2500021457673,2|0,0:0|0:0,0:0:0:0:
39,71,164537,2,0,P|84:104|159:88,1,112.500004291535,2|2,0:0|0:0,0:0:0:0:
196,43,165107,2,0,B|234:36|234:36|271:49|271:49|315:42,1,112.500004291535,2|2,0:0|0:0,0:0:0:0:
397,28,165676,6,0,P|388:76|387:103,1,56.2500021457673,2|0,0:0|0:0,0:0:0:0:
449,140,166056,2,0,P|398:135|353:195,1,112.500004291535,2|2,0:0|0:0,0:0:0:0:
387,259,166626,2,0,P|434:263|461:269,2,56.2500021457673,2|2|2,0:0|0:0|0:0,0:0:0:0:
336,334,167195,6,0,B|233:343|233:343|145:275|145:275|21:287,1,337.500012874604,2|2,0:0|0:0,0:0:0:0:
46,198,168524,2,0,P|53:157|55:131,1,56.2500021457673,2|2,0:0|0:0,0:0:0:0:
18,65,168904,6,0,B|60:114|127:106|127:106|143:80|176:64,1,168.750006437302,2|0,0:0|0:0,0:0:0:0:
237,31,169664,5,8,0:3:0:0:
237,31,169853,1,8,0:3:0:0:
312,85,170043,5,6,0:3:0:0:
312,85,170233,1,4,0:3:0:0:
382,22,170423,6,0,P|402:56|403:99,1,75,6|0,3:1|0:0,0:0:0:0:
355,167,170803,2,0,P|371:229|388:329,1,150,10|0,0:0|0:0,0:0:0:0:
309,375,171372,1,0,0:0:0:0:
309,375,171562,2,0,P|274:349|216:345,1,75,10|0,0:0|0:0,0:0:0:0:
167,383,171942,6,0,B|205:338|205:338|168:229,1,150,2|8,3:0|0:0,0:0:0:0:
109,189,172512,1,10,0:1:0:0:
109,189,172702,2,0,P|127:140|132:107,1,75,2|2,0:0|0:0,0:0:0:0:
120,32,173081,1,10,0:0:0:0:
201,67,173271,1,2,0:0:0:0:
272,11,173461,6,0,P|311:8|348:27,1,75,2|0,3:1|0:0,0:0:0:0:
385,94,173841,2,0,P|349:136|370:225,1,150,10|0,0:0|0:0,0:0:0:0:
445,273,174410,1,0,0:0:0:0:
381,343,174600,2,0,P|334:333|298:328,1,75,10|0,0:0|0:0,0:0:0:0:
241,262,174980,6,0,B|174:271|174:271|159:264|159:264|87:272,1,150,2|8,3:0|0:0,0:0:0:0:
27,208,175550,1,8,0:1:0:0:
27,208,175740,2,0,P|54:174|56:133,1,75,2|0,0:0|0:0,0:0:0:0:
8,69,176119,1,8,0:0:0:0:
74,11,176309,6,0,P|124:18|167:20,1,75,2|0,0:0|3:1,0:0:0:0:
204,92,176689,2,0,P|254:85|297:83,1,75,2|8,0:0|0:0,0:0:0:0:
368,72,177069,2,0,P|376:23|364:-7,1,75,2|0,3:0|0:0,0:0:0:0:
333,155,177448,2,0,P|325:204|337:234,1,75,2|8,0:0|0:0,0:0:0:0:
368,322,177828,6,0,P|316:306|261:298,1,75,2|0,0:0|3:0,0:0:0:0:
227,239,178208,2,0,P|175:255|120:263,1,75,2|8,0:0|0:0,0:0:0:0:
77,302,178588,2,0,P|110:259|82:174,1,150,10|0,0:1|0:0,0:0:0:0:
15,112,179157,1,8,0:0:0:0:
81,44,179347,6,0,P|126:53|164:55,1,75,6|0,0:2|3:1,0:0:0:0:
247,36,179727,2,0,P|238:81|236:119,1,75,6|8,0:2|0:0,0:0:0:0:
255,202,180107,2,0,P|210:193|172:191,1,75,4|0,3:2|0:0,0:0:0:0:
311,127,180486,1,2,0:0:0:0:
347,210,180676,1,10,0:0:0:0:
426,171,180866,6,0,P|464:164|512:182,1,75,6|0,0:2|3:0,0:0:0:0:
461,253,181246,2,0,P|468:291|450:339,1,75,6|8,0:2|0:0,0:0:0:0:
379,288,181626,2,0,P|341:295|293:277,1,75,4|8,0:2|0:3,0:0:0:0:
250,211,182005,2,0,P|258:157|267:118,2,75,8|8|8,0:0|0:0|0:0,0:0:0:0:
183,276,182575,5,6,3:1:0:0:
183,276,182765,1,2,0:0:0:0:
115,214,182955,1,10,0:0:0:0:
115,214,183145,1,2,3:1:0:0:
41,262,183334,2,0,P|66:189|76:114,1,150,2|10,0:0|0:0,0:0:0:0:
132,44,183904,1,0,0:0:0:0:
207,93,184094,6,0,P|254:100|290:85,1,75,2|0,3:1|0:0,0:0:0:0:
331,24,184474,2,0,P|378:17|414:32,1,75,10|8,0:0|0:1,0:0:0:0:
456,101,184853,2,0,P|416:145|436:241,1,150,2|10,0:0|0:0,0:0:0:0:
500,296,185423,1,0,0:0:0:0:
440,369,185613,5,2,3:1:0:0:
440,369,185803,1,2,0:0:0:0:
364,309,185993,1,10,0:0:0:0:
364,309,186183,1,2,3:1:0:0:
283,361,186372,2,0,B|196:357|226:302|136:304,1,150,2|10,0:0|0:0,0:0:0:0:
86,240,186942,1,0,0:0:0:0:
86,240,187132,6,0,P|97:187|97:150,1,75,2|0,3:1|0:0,0:0:0:0:
73,79,187512,2,0,P|126:90|163:90,1,75,10|8,0:0|0:1,0:0:0:0:
234,66,187891,2,0,P|223:119|223:156,1,75,2|0,0:0|0:0,0:0:0:0:
247,227,188271,2,0,P|194:216|157:216,1,75,10|0,0:0|0:0,0:0:0:0:
103,281,188651,5,2,3:1:0:0:
103,281,188841,1,2,0:0:0:0:
168,347,189031,1,10,0:0:0:0:
168,347,189221,1,2,3:1:0:0:
251,317,189410,2,0,P|311:304|375:368,1,150,2|10,0:0|0:0,0:0:0:0:
445,300,189980,1,0,0:0:0:0:
445,300,190170,6,0,P|454:250|463:218,1,75,2|0,3:1|0:0,0:0:0:0:
511,143,190550,2,0,P|461:134|429:125,1,75,10|8,0:0|0:1,0:0:0:0:
356,76,190929,2,0,P|347:126|338:158,1,75,10|8,0:3|0:3,0:0:0:0:
281,222,191309,1,10,0:0:0:0:
207,160,191499,6,0,P|166:152|135:162,1,75,6|0,0:2|3:1,0:0:0:0:
53,136,191879,2,0,P|45:177|55:208,1,75,6|8,0:2|0:0,0:0:0:0:
25,288,192259,2,0,P|66:296|97:286,1,75,6|0,3:2|0:0,0:0:0:0:
160,345,192638,1,2,0:0:0:0:
224,283,192828,1,10,0:0:0:0:
292,346,193018,6,0,P|362:354|404:368,2,112.500004291535,2|2|2,0:0|0:0|0:0,0:0:0:0:
