osu file format v14

[General]
AudioFilename: audio.mp3
AudioLeadIn: 0
PreviewTime: 56047
Countdown: 0
SampleSet: Soft
StackLeniency: 0.7
Mode: 0
LetterboxInBreaks: 0
WidescreenStoryboard: 1

[Editor]
Bookmarks: 8047,24047,40047,48047,56047,70047,72047,78047,80047,88047,104047,118047,120047,126047,128047,136047
DistanceSpacing: 0.15
BeatDivisor: 8
GridSize: 4
TimelineZoom: 2.1

[Metadata]
Title:HULA HOOP (ZSunder Future Funk Mix)
TitleUnicode:HULA HOOP (ZSunder Future Funk Mix)
Artist:LOONA
ArtistUnicode:今月の少女
Creator:Jiysea
Version:Normal
Source:
Tags:japanese english electronic dance music EDM korean pop kpop k-pop loonaverse LOOΠΔ 이달의 소녀 Kongetsu no shōjo shojo shoujo M_i_X
BeatmapID:3279949
BeatmapSetID:1605101

[Difficulty]
HPDrainRate:3
CircleSize:3
OverallDifficulty:4
ApproachRate:5
SliderMultiplier:1.2
SliderTickRate:1

[Events]
//Background and Video events
0,0,"dancing with the wind.jpg",0,0
//Break Periods
2,88247,94847
//Storyboard Layer 0 (Background)
//Storyboard Layer 1 (Fail)
//Storyboard Layer 2 (Pass)
//Storyboard Layer 3 (Foreground)
//Storyboard Layer 4 (Overlay)
//Storyboard Sound Samples

[TimingPoints]
47,500,4,2,1,50,1,0
6047,-100,4,2,1,50,0,0
8047,-90.9090909090909,4,2,1,85,0,0
24047,-100,4,2,2,65,0,0
40047,-100,4,2,1,75,0,0
48047,-100,4,2,2,50,0,0
56047,-90.9090909090909,4,2,1,85,0,1
70047,-90.9090909090909,4,2,1,85,0,0
72047,-90.9090909090909,4,2,1,85,0,1
78047,-90.9090909090909,4,2,1,85,0,0
80047,-90.9090909090909,4,2,1,85,0,1
86047,-90.9090909090909,4,2,1,85,0,0
88047,-100,4,2,2,50,0,0
104047,-90.9090909090909,4,2,1,85,0,1
118047,-90.9090909090909,4,2,1,85,0,0
120047,-90.9090909090909,4,2,1,85,0,1
126047,-90.9090909090909,4,2,1,85,0,0
128047,-90.9090909090909,4,2,1,85,0,1
134047,-90.9090909090909,4,2,1,85,0,0
136047,-100,4,2,1,75,0,0

[Colours]
Combo1 : 227,153,98
Combo2 : 128,128,64
Combo3 : 183,197,129
Combo4 : 224,201,109

[HitObjects]
24,244,8047,6,0,P|69:289|133:292,1,132.00000402832,6|10,1:2|1:2,0:0:0:0:
188,256,8797,1,2,0:0:0:0:
249,279,9047,2,0,L|258:346,1,66.0000020141602,2|2,1:2|0:0,0:0:0:0:
318,370,9547,2,0,P|349:353|380:356,1,66.0000020141602,8|0,1:2|0:0,0:0:0:0:
439,329,10047,5,2,1:2:0:0:
503,213,10547,2,0,P|500:148|456:101,1,132.00000402832,10|2,1:2|1:2,0:0:0:0:
404,140,11297,1,2,0:0:0:0:
404,140,11547,2,0,L|339:128,1,66.0000020141602,8|0,1:2|0:0,0:0:0:0:
288,88,12047,6,0,B|215:88|248:132|163:133,1,132.00000402832,2|8,1:2|1:2,0:0:0:0:
48,184,13047,2,0,B|120:184|87:228|172:229,1,132.00000402832,2|8,1:2|1:2,0:0:0:0:
268,316,14047,6,0,L|256:380,2,66.0000020141602,2|2|10,1:2|0:0|1:2,0:0:0:0:
324,276,14797,1,2,0:0:0:0:
324,276,15047,2,0,P|383:297|432:257,1,132.00000402832,2|10,1:2|1:2,0:0:0:0:
492,140,16047,6,0,B|501:84|501:84|498:80|498:80|510:10,1,132.00000402832,6|10,1:2|1:2,0:0:0:0:
444,8,16797,1,2,0:0:0:0:
388,40,17047,2,0,P|357:51|342:80,1,66.0000020141602,2|2,1:2|0:0,0:0:0:0:
356,144,17547,2,0,L|291:132,1,66.0000020141602,8|0,1:2|0:0,0:0:0:0:
236,168,18047,6,0,L|171:179,2,66.0000020141602,2|2|10,1:2|0:0|1:2,0:0:0:0:
336,272,19047,1,2,1:2:0:0:
336,272,19297,1,2,0:0:0:0:
336,272,19547,2,0,L|400:283,1,66.0000020141602,10|0,1:2|0:0,0:0:0:0:
452,244,20047,6,0,B|468:149|468:149|443:108,1,132.00000402832,2|8,1:2|1:2,0:0:0:0:
344,40,21047,2,0,B|327:134|327:134|346:165,1,132.00000402832,2|8,1:2|1:2,0:0:0:0:
232,232,22047,5,2,1:2:0:0:
112,180,22547,2,0,L|47:191,2,66.0000020141602,2|2|2,1:2|0:0|1:2,0:0:0:0:
168,140,23297,1,2,0:0:0:0:
168,140,23547,2,0,P|179:109|171:78,1,66.0000020141602,10|2,1:2|0:0,0:0:0:0:
208,30,24047,6,0,B|279:17|328:75|296:84|346:138|433:112,1,240,6|2,1:2|1:2,0:0:0:0:
492,174,25547,1,8,1:2:0:0:
465,266,26047,2,0,B|351:246|351:246|346:250|346:250|226:229,1,240,2|2,1:2|1:2,0:0:0:0:
139,263,27547,2,0,L|129:203,1,60,10|2,1:2|0:0,0:0:0:0:
82,194,28047,6,0,P|70:84|177:60,1,240,2|2,1:2|1:2,0:0:0:0:
260,12,29547,1,10,1:2:0:0:
343,60,30047,1,0,1:2:0:0:
348,64,31297,1,2,0:0:0:0:
348,64,31547,2,0,L|407:53,1,60,8|2,1:2|0:0,0:0:0:0:
449,75,32047,6,0,B|417:248|417:248|365:289,1,240,2|2,1:2|1:2,0:0:0:0:
286,340,33547,1,8,1:2:0:0:
211,278,34047,2,0,P|138:188|24:202,1,240,2|2,1:2|1:2,0:0:0:0:
15,105,35547,2,0,L|26:46,1,60,10|2,1:2|0:0,0:0:0:0:
74,38,36047,6,0,B|147:19|206:65|167:75|220:123|305:101,1,240,2|2,1:2|1:2,0:0:0:0:
375,57,37547,1,10,1:2:0:0:
420,40,37797,1,2,0:0:0:0:
466,26,38047,2,0,L|486:144,2,120,2|10|2,1:2|1:2|1:2,0:0:0:0:
375,57,39547,2,0,L|363:115,1,60,8|2,1:2|0:0,0:0:0:0:
325,146,40047,6,0,B|344:264,1,120,6|10,1:2|1:2,0:0:0:0:
315,360,41047,1,0,1:2:0:0:
315,360,41297,2,0,P|288:345|259:344,1,60,2|8,0:0|1:2,0:0:0:0:
214,361,41797,1,2,0:0:0:0:
178,329,42047,2,0,B|60:306,1,120,2|10,1:2|1:2,0:0:0:0:
28,216,43047,1,0,1:2:0:0:
99,151,43547,1,10,1:2:0:0:
193,168,44047,6,0,B|311:147,1,120,2|8,1:2|1:2,0:0:0:0:
358,137,44797,1,0,0:0:0:0:
403,120,45047,2,0,P|418:94|419:64,1,60,2|2,1:2|0:0,0:0:0:0:
393,24,45547,2,0,L|333:33,1,60,10|2,1:2|0:0,0:0:0:0:
288,50,46047,2,0,P|230:59|181:25,2,120,2|8|2,1:2|1:2|1:2,0:0:0:0:
318,141,47547,1,10,1:2:0:0:
241,199,48047,5,2,1:2:0:0:
152,175,50047,5,2,1:2:0:0:
128,265,52047,6,0,L|9:285,2,120,2|10|0,1:2|1:2|1:2,0:0:0:0:
217,289,53547,2,0,L|204:347,1,60,8|2,1:2|0:0,0:0:0:0:
243,375,54047,5,8,0:0:0:0:
334,345,54547,1,8,0:2:0:0:
425,315,55047,1,8,0:2:0:0:
508,89,56047,6,0,P|459:46|394:47,1,132.00000402832,6|10,1:2|1:2,0:0:0:0:
333,20,56797,1,2,0:0:0:0:
285,65,57047,2,0,L|220:53,1,66.0000020141602,2|2,1:2|0:0,0:0:0:0:
159,78,57547,1,8,1:2:0:0:
98,103,57797,1,2,0:0:0:0:
59,156,58047,5,2,1:2:0:0:
10,278,58547,2,0,P|15:309|39:332,1,66.0000020141602,10|2,1:2|0:0,0:0:0:0:
99,358,59047,2,0,B|164:346|164:346|168:350|168:350|231:340,1,132.00000402832,2|8,1:2|1:2,0:0:0:0:
286,309,59797,1,0,0:0:0:0:
286,309,60047,6,0,P|313:325|346:326,1,66.0000020141602,2|2,1:2|0:0,0:0:0:0:
402,363,60547,1,8,1:2:0:0:
456,243,61047,2,0,P|428:226|395:225,1,66.0000020141602,2|2,1:2|0:0,0:0:0:0:
340,189,61547,1,8,1:2:0:0:
228,252,62047,5,2,1:2:0:0:
228,252,62297,1,2,0:0:0:0:
228,252,62547,2,0,L|163:240,1,66.0000020141602,10|2,1:2|0:0,0:0:0:0:
116,287,63047,2,0,L|246:309,1,132.00000402832,2|10,1:2|1:2,0:0:0:0:
359,376,64047,6,0,P|401:327|400:262,1,132.00000402832,4|10,1:2|1:2,0:0:0:0:
428,202,64797,1,2,0:0:0:0:
396,143,65047,2,0,L|331:131,1,66.0000020141602,2|2,1:2|0:0,0:0:0:0:
277,93,65547,1,8,1:2:0:0:
263,28,65797,1,2,0:0:0:0:
199,11,66047,6,0,L|133:1,2,66.0000020141602,2|2|10,1:2|0:0|1:2,0:0:0:0:
186,142,67047,2,0,P|170:170|142:187,1,66.0000020141602,2|2,1:2|0:0,0:0:0:0:
80,210,67547,1,10,1:2:0:0:
2,316,68047,6,0,L|67:326,1,66.0000020141602,2|2,1:2|0:0,0:0:0:0:
121,364,68547,1,8,1:2:0:0:
232,292,69047,2,0,L|297:281,1,66.0000020141602,2|2,1:2|0:0,0:0:0:0:
351,244,69547,1,8,1:2:0:0:
394,119,70047,6,0,B|311:121|353:154|269:161,2,132.00000402832,2|2|2,1:2|1:2|1:2,0:0:0:0:
296,29,71547,1,10,1:2:0:0:
296,29,71797,1,0,0:0:0:0:
253,79,72047,6,0,B|190:88|190:88|188:93|188:93|123:102,1,132.00000402832,6|10,1:2|1:2,0:0:0:0:
60,87,72797,1,2,0:3:0:0:
17,137,73047,1,0,1:2:0:0:
37,199,73297,2,0,L|101:211,1,66.0000020141602,2|8,0:3|1:2,0:0:0:0:
139,265,73797,2,0,L|203:253,1,66.0000020141602,2|2,0:3|1:2,0:0:0:0:
299,345,74547,5,10,1:2:0:0:
361,365,74797,1,2,0:3:0:0:
420,335,75047,1,2,1:2:0:0:
422,269,75297,2,0,L|410:204,1,66.0000020141602,2|8,0:3|1:2,0:0:0:0:
459,159,75797,1,2,0:3:0:0:
459,159,76047,5,2,1:2:0:0:
386,48,76547,1,10,1:2:0:0:
325,20,76797,1,2,0:3:0:0:
262,41,77047,1,0,1:2:0:0:
251,106,77297,2,0,L|186:94,1,66.0000020141602,2|8,0:3|1:2,0:0:0:0:
127,126,77797,1,2,0:3:0:0:
126,191,78047,6,0,B|123:281|78:227|81:315,1,132.00000402832,10|10,0:2|0:2,0:0:0:0:
196,374,79047,2,0,B|277:377|223:331|314:329,1,132.00000402832,10|10,0:2|0:2,0:0:0:0:
377,345,79797,1,0,0:0:0:0:
428,303,80047,6,0,P|422:239|370:201,1,132.00000402832,4|10,1:2|1:2,0:0:0:0:
330,149,80797,1,2,0:3:0:0:
362,91,81047,1,0,1:2:0:0:
325,36,81297,2,0,L|261:24,1,66.0000020141602,2|8,0:3|1:2,0:0:0:0:
205,61,81797,2,0,P|182:84|150:91,1,66.0000020141602,2|2,0:3|1:2,0:0:0:0:
32,151,82547,5,10,1:2:0:0:
46,215,82797,1,2,0:3:0:0:
98,254,83047,1,2,1:2:0:0:
83,318,83297,2,0,L|148:330,1,66.0000020141602,2|8,0:3|1:2,0:0:0:0:
203,375,83797,1,2,0:3:0:0:
203,375,84047,5,2,1:2:0:0:
259,255,84547,1,10,1:2:0:0:
309,212,84797,1,2,0:3:0:0:
373,225,85047,1,0,1:2:0:0:
398,285,85297,2,0,L|463:297,1,66.0000020141602,2|8,0:3|1:2,0:0:0:0:
509,249,85797,1,2,0:3:0:0:
499,183,86047,6,0,P|481:121|424:93,1,132.00000402832,2|2,1:2|1:2,0:0:0:0:
300,48,87047,2,0,P|274:68|266:99,1,66.0000020141602,2|0,1:2|0:0,0:0:0:0:
215,141,87547,1,8,1:2:0:0:
259,252,88047,5,4,1:2:0:0:
256,192,96047,12,2,102047,0:0:0:0:
477,258,104047,6,0,B|401:261|441:298|352:303,1,132.00000402832,6|10,1:2|1:2,0:0:0:0:
293,283,104797,1,2,0:0:0:0:
256,228,105047,2,0,P|251:195|265:166,1,66.0000020141602,2|2,1:2|0:0,0:0:0:0:
308,117,105547,1,8,1:2:0:0:
312,51,105797,1,2,0:0:0:0:
254,19,106047,5,2,1:2:0:0:
122,3,106547,2,0,L|57:14,1,66.0000020141602,10|2,1:2|0:0,0:0:0:0:
20,69,107047,2,0,P|51:125|38:188,1,132.00000402832,2|8,1:2|1:2,0:0:0:0:
10,250,107797,1,0,0:0:0:0:
10,250,108047,6,0,P|37:266|70:267,1,66.0000020141602,2|2,1:2|0:0,0:0:0:0:
132,242,108547,1,8,1:2:0:0:
247,178,109047,2,0,P|239:147|216:123,1,66.0000020141602,2|2,1:2|0:0,0:0:0:0:
155,98,109547,1,8,1:2:0:0:
255,12,110047,5,2,1:2:0:0:
320,22,110297,1,2,0:0:0:0:
385,33,110547,2,0,L|450:21,1,66.0000020141602,10|2,1:2|0:0,0:0:0:0:
499,64,111047,2,0,L|369:86,1,132.00000402832,2|10,1:2|1:2,0:0:0:0:
283,186,112047,6,0,P|333:224|331:288,1,132.00000402832,6|10,1:2|1:2,0:0:0:0:
277,325,112797,1,2,0:0:0:0:
216,296,113047,2,0,P|186:284|153:284,1,66.0000020141602,2|2,1:2|0:0,0:0:0:0:
106,331,113547,1,8,1:2:0:0:
42,347,113797,1,2,0:0:0:0:
11,289,114047,6,0,L|1:223,2,66.0000020141602,2|2|10,1:2|0:0|1:2,0:0:0:0:
116,208,115047,2,0,P|144:191|160:162,1,66.0000020141602,2|2,1:2|0:0,0:0:0:0:
145,98,115547,1,10,1:2:0:0:
267,48,116047,6,0,L|257:113,1,66.0000020141602,2|2,1:2|0:0,0:0:0:0:
310,152,116547,1,8,1:2:0:0:
432,201,117047,2,0,L|442:266,1,66.0000020141602,2|2,1:2|0:0,0:0:0:0:
389,305,117547,1,8,1:2:0:0:
271,366,118047,6,0,B|181:350|181:350|154:317,2,132.00000402832,2|2|2,1:2|1:2|1:2,0:0:0:0:
320,243,119547,1,10,1:2:0:0:
271,198,119797,1,0,0:0:0:0:
206,212,120047,6,0,P|141:218|89:180,1,132.00000402832,6|10,1:2|1:2,0:0:0:0:
67,118,120797,1,2,0:3:0:0:
109,67,121047,1,0,1:2:0:0:
174,78,121297,2,0,L|238:66,1,66.0000020141602,2|8,0:3|1:2,0:0:0:0:
287,21,121797,2,0,P|319:18|349:31,1,66.0000020141602,2|2,0:3|1:2,0:0:0:0:
471,82,122547,5,10,1:2:0:0:
428,132,122797,1,2,0:3:0:0:
433,197,123047,1,2,1:2:0:0:
489,231,123297,2,0,L|501:296,1,66.0000020141602,2|8,0:3|1:2,0:0:0:0:
470,356,123797,1,2,0:3:0:0:
470,356,124047,5,2,1:2:0:0:
352,296,124547,1,10,1:2:0:0:
288,313,124797,1,2,0:3:0:0:
228,284,125047,1,0,1:2:0:0:
203,222,125297,2,0,L|215:157,1,66.0000020141602,2|8,0:3|1:2,0:0:0:0:
184,98,125797,1,2,0:3:0:0:
236,58,126047,6,0,B|260:29|260:29|353:12,1,132.00000402832,10|10,0:2|0:2,0:0:0:0:
471,71,127047,2,0,B|446:99|446:99|353:116,1,132.00000402832,10|10,0:2|0:2,0:0:0:0:
317,171,127797,1,0,0:0:0:0:
357,223,128047,6,0,B|367:286|367:286|372:288|372:288|384:352,1,132.00000402832,4|10,1:2|1:2,0:0:0:0:
326,381,128797,1,2,0:3:0:0:
265,353,129047,1,0,1:2:0:0:
199,361,129297,2,0,L|135:349,1,66.0000020141602,2|8,0:3|1:2,0:0:0:0:
87,302,129797,2,0,P|69:274|69:241,1,66.0000020141602,2|2,0:3|1:2,0:0:0:0:
133,126,130547,5,10,1:2:0:0:
198,135,130797,1,2,0:3:0:0:
242,85,131047,1,2,1:2:0:0:
219,22,131297,2,0,L|154:10,1,66.0000020141602,2|8,0:3|1:2,0:0:0:0:
93,26,131797,1,2,0:3:0:0:
93,26,132047,5,2,1:2:0:0:
12,130,132547,1,10,1:2:0:0:
51,183,132797,1,2,0:3:0:0:
26,244,133047,1,0,1:2:0:0:
68,294,133297,2,0,P|96:309|129:307,1,66.0000020141602,2|8,0:3|1:2,0:0:0:0:
186,275,133797,1,2,0:3:0:0:
251,285,134047,6,0,B|338:300|338:300|368:333,1,132.00000402832,2|2,1:2|1:2,0:0:0:0:
461,239,135047,2,0,P|452:207|427:187,1,66.0000020141602,2|0,1:2|0:0,0:0:0:0:
419,122,135547,1,8,1:2:0:0:
317,58,136047,5,4,1:2:0:0:
