osu file format v14

[General]
AudioFilename: audio.mp3
AudioLeadIn: 0
PreviewTime: 56047
Countdown: 0
SampleSet: Soft
StackLeniency: 0.7
Mode: 0
LetterboxInBreaks: 0
WidescreenStoryboard: 1

[Editor]
Bookmarks: 8047,24047,40047,48047,56047,70047,72047,78047,80047,88047,104047,118047,120047,126047,128047,136047
DistanceSpacing: 0.15
BeatDivisor: 4
GridSize: 4
TimelineZoom: 2.1

[Metadata]
Title:HULA HOOP (ZSunder Future Funk Mix)
TitleUnicode:HULA HOOP (ZSunder Future Funk Mix)
Artist:LOONA
ArtistUnicode:今月の少女
Creator:Jiysea
Version:Hard
Source:
Tags:japanese english electronic dance music EDM korean pop kpop k-pop loonaverse LOOΠΔ 이달의 소녀 Kongetsu no shōjo shojo shoujo M_i_X
BeatmapID:3280003
BeatmapSetID:1605101

[Difficulty]
HPDrainRate:4
CircleSize:3.5
OverallDifficulty:6
ApproachRate:7.5
SliderMultiplier:1.5
SliderTickRate:1

[Events]
//Background and Video events
0,0,"dancing with the wind.jpg",0,0
//Break Periods
//Storyboard Layer 0 (Background)
//Storyboard Layer 1 (Fail)
//Storyboard Layer 2 (Pass)
//Storyboard Layer 3 (Foreground)
//Storyboard Layer 4 (Overlay)
//Storyboard Sound Samples

[TimingPoints]
47,500,4,2,2,50,1,0
6047,-111.111111111111,4,2,2,50,0,0
8047,-90.9090909090909,4,2,1,85,0,0
24047,-111.111111111111,4,2,2,65,0,0
40047,-100,4,2,1,75,0,0
48047,-111.111111111111,4,2,2,50,0,0
56047,-90.9090909090909,4,2,1,85,0,1
69922,-90.9090909090909,4,2,1,5,0,1
70047,-90.9090909090909,4,2,1,85,0,0
72047,-90.9090909090909,4,2,1,85,0,1
78047,-90.9090909090909,4,2,1,85,0,0
80047,-90.9090909090909,4,2,1,85,0,1
86047,-90.9090909090909,4,2,1,85,0,0
88047,-100,4,2,2,50,0,0
104047,-90.9090909090909,4,2,1,85,0,1
117922,-90.9090909090909,4,2,1,5,0,1
118047,-90.9090909090909,4,2,1,85,0,0
120047,-90.9090909090909,4,2,1,85,0,1
126047,-90.9090909090909,4,2,1,85,0,0
128047,-90.9090909090909,4,2,1,85,0,1
134047,-90.9090909090909,4,2,1,85,0,0
136047,-100,4,2,1,75,0,0

[Colours]
Combo1 : 227,153,98
Combo2 : 128,128,64
Combo3 : 183,197,129
Combo4 : 224,201,109

[HitObjects]
256,192,6047,12,8,7547,0:2:0:0:
16,238,8047,6,0,B|112:228|74:291|176:280,1,165.000005035401,6|10,1:2|1:2,0:0:0:0:
240,237,8797,1,2,0:0:0:0:
306,289,9047,2,0,P|342:307|363:342,1,82.5000025177003,2|2,1:2|0:0,0:0:0:0:
396,366,9422,1,2,0:0:0:0:
470,334,9672,2,0,P|500:308|507:268,1,82.5000025177003,2|2,0:0|0:0,0:0:0:0:
475,242,10047,5,2,1:2:0:0:
505,165,10297,2,0,L|498:124,1,41.2500012588501,2|0,0:0|0:0,0:0:0:0:
457,116,10547,2,0,P|426:89|386:83,1,82.5000025177003,10|2,1:2|0:0,0:0:0:0:
316,36,11047,1,2,1:2:0:0:
250,86,11297,1,2,0:0:0:0:
250,86,11422,2,0,L|243:127,2,41.2500012588501,2|8|2,0:0|1:2|0:0,0:0:0:0:
128,245,12047,6,0,P|199:206|280:211,1,165.000005035401,2|8,1:2|1:2,0:0:0:0:
359,189,12797,1,0,0:0:0:0:
387,111,13047,2,0,P|316:72|235:77,1,165.000005035401,2|8,1:2|1:2,0:0:0:0:
156,55,13797,1,0,0:0:0:0:
78,78,14047,6,0,L|71:119,3,41.2500012588501,2|2|2|2,1:2|0:0|0:0|0:0,0:0:0:0:
90,152,14547,2,0,L|97:193,3,41.2500012588501,10|2|2|2,1:2|0:0|0:0|0:0,0:0:0:0:
65,213,15047,2,0,B|86:326|86:326|127:354,1,165.000005035401,2|10,1:2|1:2,0:0:0:0:
200,316,15797,2,0,L|241:323,1,41.2500012588501,2|8,0:0|0:2,0:0:0:0:
276,343,16047,6,0,B|372:353|334:290|436:301,1,165.000005035401,6|10,1:2|1:2,0:0:0:0:
478,234,16797,1,2,0:0:0:0:
455,154,17047,2,0,P|437:118|402:97,1,82.5000025177003,2|2,1:2|0:0,0:0:0:0:
362,110,17422,1,2,0:0:0:0:
347,188,17672,2,0,L|264:195,1,82.5000025177003,2|2,0:0|0:0,0:0:0:0:
254,164,18047,6,0,L|213:158,2,41.2500012588501,2|0|2,1:2|0:0|0:0,0:0:0:0:
275,83,18547,1,10,1:2:0:0:
199,50,18797,2,0,L|205:9,2,41.2500012588501,2|2|2,0:0|0:0|1:2,0:0:0:0:
119,74,19297,1,2,0:0:0:0:
92,152,19547,2,0,L|106:233,1,82.5000025177003,10|0,1:2|0:0,0:0:0:0:
68,307,20047,6,0,B|152:321|152:321|153:325|153:325|229:338,1,165.000005035401,2|8,1:2|1:2,0:0:0:0:
283,276,20797,1,0,0:0:0:0:
212,233,21047,2,0,B|296:219|296:219|297:215|297:215|373:202,1,165.000005035401,2|8,1:2|1:2,0:0:0:0:
427,264,21797,1,0,0:0:0:0:
512,216,22047,5,2,1:2:0:0:
512,216,22547,5,2,1:2:0:0:
442,172,22797,2,0,L|401:179,2,41.2500012588501,2|2|2,0:0|0:0|1:2,0:0:0:0:
453,123,23172,2,0,L|464:71,2,41.2500012588501,2|2|10,0:0|0:0|0:2,0:0:0:0:
414,114,23547,5,10,1:2:0:0:
353,49,23797,2,0,L|312:56,1,41.2500012588501,2|8,0:0|0:2,0:0:0:0:
286,78,24047,6,0,L|219:66,1,67.4999979400635,6|2,1:2|0:0,0:0:0:0:
143,48,24547,1,10,1:2:0:0:
55,110,25047,2,0,P|34:136|30:170,1,67.4999979400635,2|2,1:2|0:0,0:0:0:0:
100,206,25547,2,0,P|120:231|124:265,1,67.4999979400635,8|2,1:2|0:0,0:0:0:0:
126,344,26047,6,0,L|192:332,2,67.4999979400635,2|2|10,1:2|0:0|1:2,0:0:0:0:
282,371,27047,2,0,B|365:369|329:321|408:324,1,134.999995880127,2|10,1:2|1:2,0:0:0:0:
467,280,27797,1,2,0:0:0:0:
423,215,28047,6,0,L|433:148,1,67.4999979400635,2|2,1:2|0:0,0:0:0:0:
499,105,28547,1,10,1:2:0:0:
324,44,29047,2,0,P|285:12|235:14,2,101.249996910095,2|2|2,1:2|0:0|0:0,0:0:0:0:
351,129,30047,5,0,1:2:0:0:
351,129,30547,1,8,1:2:0:0:
351,129,31047,1,0,1:2:0:0:
281,170,31297,2,0,L|286:203,1,33.7499989700318,2|2,0:0|0:0,0:0:0:0:
283,237,31547,2,0,L|277:270,1,33.7499989700318,8|2,1:2|0:0,0:0:0:0:
274,311,31797,1,2,0:0:0:0:
207,351,32047,6,0,L|140:363,1,67.4999979400635,2|2,1:2|0:0,0:0:0:0:
82,313,32547,1,10,1:2:0:0:
24,178,33047,2,0,P|50:157|121:151,1,101.249996910095,2|2,1:2|0:0,0:0:0:0:
131,127,33547,2,0,L|120:60,1,67.4999979400635,8|2,1:2|0:0,0:0:0:0:
188,18,34047,6,0,P|221:23|251:9,2,67.4999979400635,2|2|10,1:2|0:0|1:2,0:0:0:0:
376,73,35047,2,0,B|363:139|363:139|367:142|367:142|356:208,1,134.999995880127,2|10,1:2|1:2,0:0:0:0:
428,238,35797,1,2,0:0:0:0:
415,319,36047,6,0,P|382:312|352:325,1,67.4999979400635,2|2,1:2|0:0,0:0:0:0:
296,378,36547,1,10,1:2:0:0:
183,276,37047,2,0,P|144:308|94:306,1,101.249996910095,2|2,1:2|0:0,0:0:0:0:
74,289,37547,2,0,L|64:222,1,67.4999979400635,10|2,1:2|0:0,0:0:0:0:
104,153,38047,5,2,1:2:0:0:
189,48,38547,1,10,1:2:0:0:
318,86,39047,1,2,1:2:0:0:
402,73,39297,1,2,0:0:0:0:
402,73,39422,1,2,0:0:0:0:
402,73,39547,2,0,L|408:40,2,33.7499989700318,8|2|2,1:2|0:0|0:0,0:0:0:0:
477,122,40047,6,0,P|498:151|498:188,1,75,6|2,1:2|0:0,0:0:0:0:
423,239,40547,2,0,L|349:225,1,75,10|0,1:2|0:0,0:0:0:0:
285,286,41047,1,0,1:2:0:0:
228,355,41297,1,2,0:0:0:0:
228,355,41422,2,0,L|153:366,1,75,2|2,0:0|0:2,0:0:0:0:
133,351,41797,1,2,0:2:0:0:
62,303,42047,6,0,P|41:274|41:237,1,75,2|2,1:2|0:0,0:0:0:0:
114,182,42547,2,0,P|135:153|135:116,1,75,10|0,1:2|0:0,0:0:0:0:
94,34,43047,1,0,1:2:0:0:
186,10,43297,1,0,0:0:0:0:
186,10,43422,1,0,0:0:0:0:
186,10,43547,2,0,L|259:21,1,75,10|0,1:2|0:0,0:0:0:0:
317,91,44047,6,0,B|396:76|396:76|401:79|401:79|472:65,1,150,2|8,1:2|1:2,0:0:0:0:
509,156,44797,1,0,0:0:0:0:
509,156,44922,1,2,0:0:0:0:
509,156,45047,2,0,L|503:193,2,37.5,2|2|2,1:2|0:0|0:0,0:0:0:0:
416,187,45547,2,0,L|429:260,1,75,10|2,1:2|0:0,0:0:0:0:
371,329,46047,6,0,B|282:327|327:282|229:279,2,150,2|8|2,1:2|1:2|1:2,0:0:0:0:
189,368,47422,1,2,0:0:0:0:
189,368,47547,2,0,P|152:368|122:347,1,75,10|2,1:2|0:0,0:0:0:0:
104,264,48047,6,0,B|84:114|252:40|361:154|272:270|203:201,1,404.999987640381,2|8,1:2|1:2,2:0:0:0:
437,114,50047,6,0,B|454:81|492:75|492:75|373:55|373:55|369:58|369:58|235:34|235:34|280:30|302:1,1,404.999987640381,2|8,1:2|1:2,0:0:0:0:
301,5,52047,6,0,L|289:71,2,67.4999979400635,2|2|10,1:2|0:0|1:2,0:0:0:0:
217,22,52797,2,0,P|150:25|103:71,1,134.999995880127,2|2,0:0|0:0,0:0:0:0:
41,123,53547,2,0,L|52:189,1,67.4999979400635,8|2,1:2|0:0,0:0:0:0:
28,271,54047,5,8,0:0:0:0:
28,271,54547,1,8,0:0:0:0:
28,271,55047,1,8,0:0:0:0:
84,329,55297,2,0,L|117:335,1,33.7499989700318
153,315,55547,1,8,0:0:0:0:
243,321,55797,2,0,L|276:315,1,33.7499989700318,0|8,0:0|0:0,0:0:0:0:
303,295,56047,6,0,B|371:307|371:307|394:329|394:329|457:340,1,165.000005035401,6|10,1:2|1:2,0:0:0:0:
503,253,56797,1,2,0:0:0:0:
424,192,57047,2,0,L|409:111,1,82.5000025177003,2|2,1:2|0:0,0:0:0:0:
366,85,57422,2,0,L|325:78,1,41.2500012588501,2|8,0:0|1:2,0:0:0:0:
287,45,57672,2,0,L|205:56,1,82.5000025177003,2|2,0:0|0:0,0:0:0:0:
207,79,58047,5,2,1:2:0:0:
109,59,58297,2,0,L|102:100,1,41.2500012588501,2|0,0:0|0:0,0:0:0:0:
72,140,58547,2,0,P|31:143|-2:167,1,82.5000025177003,10|2,1:2|0:0,0:0:0:0:
29,260,59047,1,2,1:2:0:0:
130,246,59297,1,2,0:0:0:0:
130,246,59422,2,0,L|137:287,1,41.2500012588501,2|8,0:0|1:2,0:0:0:0:
177,315,59672,2,0,P|208:341|248:344,1,82.5000025177003,2|2,0:0|0:0,0:0:0:0:
288,314,60047,6,0,L|369:301,1,82.5000025177003,2|2,1:2|0:0,0:0:0:0:
411,272,60422,2,0,L|419:231,1,41.2500012588501,2|8,0:0|1:2,0:0:0:0:
462,208,60672,1,2,0:0:0:0:
353,106,61047,6,0,L|272:93,1,82.5000025177003,2|2,1:2|0:0,0:0:0:0:
230,64,61422,2,0,L|222:23,1,41.2500012588501,2|8,0:0|1:2,0:0:0:0:
179,0,61672,1,2,0:0:0:0:
45,53,62047,5,2,1:2:0:0:
45,53,62172,1,2,0:0:0:0:
45,53,62297,2,0,L|38:94,1,41.2500012588501,2|2,0:0|0:0,0:0:0:0:
71,129,62547,1,10,1:2:0:0:
71,129,62672,1,2,0:0:0:0:
71,129,62797,2,0,L|78:170,1,41.2500012588501,2|2,0:0|0:0,0:0:0:0:
107,209,63047,6,0,B|159:220|196:181|171:175|207:142|262:152,1,165.000005035401,2|10,1:2|1:2,0:0:0:0:
338,199,63797,2,0,L|331:240,1,41.2500012588501,2|8,0:0|0:2,0:0:0:0:
358,281,64047,6,0,B|371:206|371:206|375:201|375:201|390:117,1,165.000005035401,4|10,1:2|1:2,0:0:0:0:
341,32,64797,1,2,0:0:0:0:
243,14,65047,2,0,P|205:27|187:63,1,82.5000025177003,2|2,1:2|0:0,0:0:0:0:
149,94,65422,2,0,L|108:101,1,41.2500012588501,2|8,0:0|1:2,0:0:0:0:
68,130,65672,2,0,L|53:211,1,82.5000025177003,2|2,0:0|0:0,0:0:0:0:
57,259,66047,6,0,L|98:253,2,41.2500012588501,2|0|2,1:2|0:0|0:0,0:0:0:0:
108,343,66547,1,10,1:2:0:0:
196,298,66797,2,0,L|202:257,1,41.2500012588501,2|2,0:0|0:0,0:0:0:0:
239,223,67047,1,2,1:2:0:0:
328,286,67297,1,2,0:0:0:0:
328,286,67422,1,2,0:0:0:0:
328,286,67547,2,0,P|363:306|404:303,1,82.5000025177003,10|0,1:2|0:0,0:0:0:0:
457,219,68047,6,0,P|470:181|452:144,1,82.5000025177003,2|2,1:2|0:0,0:0:0:0:
417,108,68422,2,0,L|376:100,1,41.2500012588501,2|8,0:0|1:2,0:0:0:0:
336,129,68672,1,2,0:0:0:0:
224,30,69047,6,0,P|186:17|149:35,1,82.5000025177003,2|2,1:2|0:0,0:0:0:0:
113,70,69422,2,0,L|105:111,1,41.2500012588501,2|8,0:0|1:2,0:0:0:0:
133,151,69672,2,0,L|147:232,1,82.5000025177003,2|0,0:0|0:0,0:0:0:0:
120,274,70047,5,2,1:2:0:0:
299,356,70547,1,2,1:2:0:0:
288,158,71047,1,2,1:2:0:0:
288,158,71172,2,0,L|280:198,1,41.2500012588501,8|0,0:2|0:0,0:0:0:0:
318,239,71422,1,8,0:2:0:0:
318,239,71547,2,0,P|347:266|387:274,1,82.5000025177003,10|0,1:2|0:0,0:0:0:0:
433,253,71922,1,8,0:2:0:0:
466,217,72047,6,0,B|474:160|474:160|478:154|478:154|480:136,1,82.5000025177003,6|0,1:2|0:0,0:0:0:0:
457,56,72547,1,10,1:2:0:0:
416,27,72672,1,2,0:0:0:0:
368,43,72797,2,0,L|327:35,2,41.2500012588501,2|2|0,0:3|0:0|1:2,0:0:0:0:
254,125,73297,1,2,0:3:0:0:
254,125,73422,2,0,L|213:132,1,41.2500012588501,2|8,0:0|1:2,0:0:0:0:
182,170,73672,2,0,L|100:157,1,82.5000025177003,2|2,0:0|0:0,0:0:0:0:
55,179,74047,6,0,P|37:215|45:255,1,82.5000025177003,2|2,1:2|0:3,0:0:0:0:
110,329,74547,2,0,L|150:322,1,41.2500012588501,10|0,1:2|0:0,0:0:0:0:
194,299,74797,2,0,L|234:305,1,41.2500012588501,2|0,0:3|0:0,0:0:0:0:
273,337,75047,1,2,1:2:0:0:
352,298,75297,1,2,0:3:0:0:
352,298,75422,2,0,L|359:257,1,41.2500012588501,2|8,0:0|1:2,0:0:0:0:
341,222,75672,2,0,P|358:185|349:146,1,82.5000025177003,2|2,0:0|0:0,0:0:0:0:
309,131,76047,6,0,P|290:95|297:55,1,82.5000025177003,2|2,1:2|0:3,0:0:0:0:
209,7,76547,1,10,1:2:0:0:
159,6,76672,1,2,0:0:0:0:
124,47,76797,2,0,L|117:87,1,41.2500012588501,2|2,0:3|0:0,0:0:0:0:
150,127,77047,1,0,1:2:0:0:
110,220,77297,1,2,0:3:0:0:
110,220,77422,2,0,L|69:214,1,41.2500012588501,2|8,0:0|1:2,0:0:0:0:
39,253,77672,2,0,L|120:268,1,82.5000025177003,2|2,0:0|0:0,0:0:0:0:
150,307,78047,6,0,B|200:313|238:279|216:275|255:239|305:251,2,165.000005035401,10|10|10,0:2|0:2|0:2,0:0:0:0:
301,343,79297,1,2,1:2:0:0:
301,343,79422,1,8,0:2:0:0:
301,343,79547,2,0,L|382:357,1,82.5000025177003,10|0,0:2|0:0,0:0:0:0:
424,331,79922,1,8,0:2:0:0:
467,305,80047,6,0,P|498:280|511:241,1,82.5000025177003,4|0,1:2|0:0,0:0:0:0:
462,173,80547,1,10,1:2:0:0:
414,187,80672,1,2,0:0:0:0:
367,169,80797,2,0,L|359:128,2,41.2500012588501,2|2|0,0:3|0:0|1:2,0:0:0:0:
221,83,81297,1,2,0:3:0:0:
221,83,81422,2,0,L|214:124,1,41.2500012588501,2|8,0:0|1:2,0:0:0:0:
176,156,81672,2,0,P|186:195|216:222,1,82.5000025177003,2|2,0:0|0:0,0:0:0:0:
259,247,82047,6,0,L|274:328,1,82.5000025177003,2|2,1:2|0:3,0:0:0:0:
182,367,82547,2,0,L|142:360,1,41.2500012588501,10|0,1:2|0:0,0:0:0:0:
99,332,82797,2,0,L|93:292,1,41.2500012588501,2|0,0:3|0:0,0:0:0:0:
53,260,83047,1,2,1:2:0:0:
95,184,83297,1,2,0:3:0:0:
95,184,83422,2,0,L|88:143,1,41.2500012588501,2|8,0:0|1:2,0:0:0:0:
90,107,83672,2,0,P|93:66|124:40,1,82.5000025177003,2|2,0:0|0:0,0:0:0:0:
159,46,84047,6,0,L|240:61,1,82.5000025177003,2|2,1:2|0:3,0:0:0:0:
327,15,84547,1,10,1:2:0:0:
336,63,84672,1,2,0:0:0:0:
346,111,84797,2,0,L|359:179,1,41.2500012588501,2|2,0:3|0:0,0:0:0:0:
366,207,85047,1,0,1:2:0:0:
456,259,85297,1,2,0:3:0:0:
456,259,85422,2,0,L|450:300,1,41.2500012588501,2|8,0:0|1:2,0:0:0:0:
418,338,85672,2,0,P|385:314|345:316,1,82.5000025177003,2|2,0:0|0:0,0:0:0:0:
305,346,86047,6,0,B|232:356|232:356|227:360|227:360|142:375,2,165.000005035401,2|2|2,1:2|1:2|1:2,0:0:0:0:
208,262,87297,1,0,0:0:0:0:
208,262,87422,1,8,0:2:0:0:
208,262,87547,2,0,L|194:181,1,82.5000025177003,8|0,1:2|0:0,0:0:0:0:
220,139,87922,1,8,0:2:0:0:
211,94,88047,5,4,1:2:0:0:
294,8,88547,1,8,1:2:0:0:
409,42,89047,1,0,1:0:0:0:
294,8,89547,1,8,1:2:0:0:
321,124,90047,5,0,1:2:0:0:
404,211,90547,1,8,1:2:0:0:
344,315,91047,1,0,1:2:0:0:
227,283,91547,1,8,1:2:0:0:
226,283,92047,6,0,B|214:211|214:211|210:206|210:206|199:135,1,150,0|8,1:2|1:2,0:0:0:0:
103,63,93047,2,0,P|41:99|42:171,1,150,0|8,1:2|1:2,0:0:0:0:
124,259,94047,5,0,1:2:0:0:
154,337,94547,1,8,1:2:0:0:
262,369,95047,1,0,1:2:0:0:
336,266,95547,1,8,1:2:0:0:
268,149,96047,6,0,P|332:113|402:132,1,150,0|8,1:2|1:2,0:0:0:0:
467,88,96797,1,0,0:0:0:0:
512,155,97047,2,0,L|487:303,1,150,0|8,1:2|1:2,0:0:0:0:
422,347,97797,1,0,0:0:0:0:
422,347,98047,6,0,P|350:334|272:349,1,150,0|8,1:2|1:2,0:0:0:0:
113,320,99047,2,0,P|125:285|116:249,1,75,0|0,1:2|0:0,0:0:0:0:
65,180,99547,2,0,L|77:106,1,75,8|0,1:2|0:0,0:0:0:0:
154,66,100047,5,0,1:2:0:0:
275,40,100547,1,8,1:2:0:0:
295,162,101047,1,0,1:2:0:0:
174,187,101547,1,8,1:2:0:0:
256,192,102047,12,8,103547,0:0:0:0:
207,327,104047,6,0,B|159:332|124:300|149:294|115:259|51:270,1,165.000005035401,6|10,1:2|1:2,0:0:0:0:
15,180,104797,1,2,0:0:0:0:
94,120,105047,2,0,L|109:39,1,82.5000025177003,2|2,1:2|0:0,0:0:0:0:
154,17,105422,2,0,L|195:24,1,41.2500012588501,2|8,0:0|1:2,0:0:0:0:
239,45,105672,2,0,L|327:32,1,82.5000025177003,2|2,0:0|0:0,0:0:0:0:
377,25,106047,5,2,1:2:0:0:
458,81,106297,2,0,P|459:101|452:120,1,41.2500012588501,2|0,0:0|0:0,0:0:0:0:
412,150,106547,2,0,L|426:231,1,82.5000025177003,10|2,1:2|0:0,0:0:0:0:
496,301,107047,1,2,1:2:0:0:
428,373,107297,1,2,0:0:0:0:
379,364,107422,2,0,L|338:357,1,41.2500012588501,2|8,0:0|1:2,0:0:0:0:
307,318,107672,2,0,P|266:320|235:346,1,82.5000025177003,2|2,0:0|0:0,0:0:0:0:
186,337,108047,6,0,L|173:256,1,82.5000025177003,2|2,1:2|0:0,0:0:0:0:
132,225,108422,2,0,L|140:184,1,41.2500012588501,2|8,0:0|1:2,0:0:0:0:
151,135,108672,1,2,0:0:0:0:
251,25,109047,6,0,L|264:106,1,82.5000025177003,2|2,1:2|0:0,0:0:0:0:
305,137,109422,2,0,L|297:178,1,41.2500012588501,2|8,0:0|1:2,0:0:0:0:
286,227,109672,1,2,0:0:0:0:
396,326,110047,5,2,1:2:0:0:
386,277,110172,1,2,0:0:0:0:
415,237,110297,2,0,L|456:244,1,41.2500012588501,2|2,0:0|0:0,0:0:0:0:
488,206,110547,1,10,1:2:0:0:
498,157,110672,1,2,0:0:0:0:
469,117,110797,2,0,L|428:124,1,41.2500012588501,2|2,0:0|0:0,0:0:0:0:
396,85,111047,6,0,B|315:70,1,82.5000025177003,2|2,1:2|0:0,0:0:0:0:
280,42,111422,1,2,0:0:0:0:
270,1,111547,1,10,1:2:0:0:
194,70,111797,2,0,L|187:111,1,41.2500012588501,2|8,0:0|0:2,0:0:0:0:
151,145,112047,6,0,P|213:195|208:274,1,165.000005035401,6|10,1:2|1:2,0:0:0:0:
117,316,112797,1,2,0:0:0:0:
36,258,113047,2,0,L|22:177,1,82.5000025177003,2|2,1:2|0:0,0:0:0:0:
51,137,113422,2,0,P|59:118|59:97,1,41.2500012588501,2|8,0:0|1:2,0:0:0:0:
23,62,113672,2,0,P|15:43|15:22,1,41.2500012588501,0|2,0:0|0:0,0:0:0:0:
60,1,113922,1,2,0:0:0:0:
107,15,114047,6,0,L|148:9,2,41.2500012588501,2|0|2,1:2|0:0|0:0,0:0:0:0:
161,98,114547,1,10,1:2:0:0:
257,76,114797,2,0,L|251:117,1,41.2500012588501,2|2,0:0|0:0,0:0:0:0:
282,154,115047,1,2,1:2:0:0:
378,129,115297,1,2,0:0:0:0:
422,150,115422,1,2,0:0:0:0:
423,199,115547,2,0,L|406:284,1,82.5000025177003,10|0,1:2|0:0,0:0:0:0:
326,338,116047,6,0,P|293:315|285:276,1,82.5000025177003,2|2,1:2|0:0,0:0:0:0:
242,249,116422,2,0,L|201:241,1,41.2500012588501,2|8,0:0|1:2,0:0:0:0:
152,229,116672,1,2,0:0:0:0:
45,124,117047,6,0,P|78:101|86:62,1,82.5000025177003,2|2,1:2|0:0,0:0:0:0:
129,35,117422,2,0,L|170:27,1,41.2500012588501,2|8,0:0|1:2,0:0:0:0:
219,15,117672,2,0,P|256:31|276:66,1,82.5000025177003,2|0,0:0|0:0,0:0:0:0:
253,110,118047,5,2,1:2:0:0:
443,57,118547,1,2,1:2:0:0:
389,250,119047,1,2,1:2:0:0:
389,250,119172,2,0,L|381:290,1,41.2500012588501,8|0,0:2|0:0,0:0:0:0:
341,318,119422,1,8,0:2:0:0:
341,318,119547,2,0,P|312:291|272:283,1,82.5000025177003,10|0,1:2|0:0,0:0:0:0:
225,304,119922,1,8,0:2:0:0:
186,335,120047,6,0,B|97:319,1,82.5000025177003,6|0,1:2|0:0,0:0:0:0:
42,256,120547,1,10,1:2:0:0:
59,209,120672,1,2,0:0:0:0:
108,208,120797,2,0,L|149:200,2,41.2500012588501,2|2|0,0:3|0:0|1:2,0:0:0:0:
282,170,121297,1,2,0:3:0:0:
288,120,121422,2,0,L|295:79,1,41.2500012588501,2|8,0:0|1:2,0:0:0:0:
335,50,121672,2,0,P|374:40|411:57,1,82.5000025177003,2|2,0:0|0:0,0:0:0:0:
451,85,122047,6,0,L|466:166,1,82.5000025177003,2|2,1:2|0:3,0:0:0:0:
427,257,122547,2,0,P|407:256|388:264,1,41.2500012588501,10|0,1:2|0:0,0:0:0:0:
339,273,122797,2,0,P|326:289|321:309,1,41.2500012588501,2|0,0:3|0:0,0:0:0:0:
282,338,123047,1,2,1:2:0:0:
198,318,123297,1,2,0:3:0:0:
174,274,123422,2,0,P|182:255|181:234,1,41.2500012588501,2|8,0:0|1:2,0:0:0:0:
154,199,123672,2,0,P|136:162|100:143,1,82.5000025177003,2|2,0:0|0:0,0:0:0:0:
77,110,124047,6,0,L|158:94,1,82.5000025177003,2|2,1:2|0:3,0:0:0:0:
232,29,124547,1,10,1:2:0:0:
281,35,124672,1,2,0:0:0:0:
329,43,124797,2,0,L|395:53,1,41.2500012588501,2|2,0:3|0:0,0:0:0:0:
425,59,125047,1,0,1:2:0:0:
478,148,125297,1,2,0:3:0:0:
504,189,125422,2,0,L|498:230,1,41.2500012588501,2|8,0:0|1:2,0:0:0:0:
466,268,125672,2,0,P|429:250|389:258,1,82.5000025177003,2|2,0:0|0:0,0:0:0:0:
343,276,126047,6,0,B|322:159|322:159|373:120,2,165.000005035401,10|10|10,0:2|0:2|0:2,0:0:0:0:
283,357,127297,1,0,0:0:0:0:
283,357,127422,1,8,0:2:0:0:
283,357,127547,2,0,P|242:360|207:340,1,82.5000025177003,10|0,0:2|0:0,0:0:0:0:
157,336,127922,1,8,0:2:0:0:
126,297,128047,6,0,B|70:286|70:286|65:288|65:288|45:284,1,82.5000025177003,4|0,1:2|0:2,0:0:0:0:
0,210,128547,1,10,1:2:0:0:
24,167,128672,1,2,0:0:0:0:
73,164,128797,2,0,L|65:122,2,41.2500012588501,2|2|0,0:3|0:0|1:2,0:0:0:0:
165,21,129297,1,2,0:3:0:0:
158,67,129422,2,0,L|151:108,1,41.2500012588501,2|8,0:0|1:2,0:0:0:0:
191,136,129672,2,0,P|225:156|265:154,1,82.5000025177003,2|2,0:0|0:0,0:0:0:0:
293,112,130047,6,0,P|330:95|370:99,1,82.5000025177003,2|2,1:2|0:3,0:0:0:0:
466,126,130547,2,0,L|459:166,1,41.2500012588501,10|0,1:2|0:0,0:0:0:0:
436,211,130797,2,0,P|417:217|397:217,1,41.2500012588501,2|0,0:3|0:0,0:0:0:0:
353,240,131047,1,2,1:2:0:0:
330,321,131297,1,2,0:3:0:0:
284,340,131422,2,0,P|264:333|244:333,1,41.2500012588501,2|8,0:0|1:2,0:0:0:0:
200,336,131672,2,0,P|160:326|134:295,1,82.5000025177003,2|2,0:0|0:0,0:0:0:0:
132,253,132047,6,0,L|147:172,1,82.5000025177003,2|2,1:2|0:3,0:0:0:0:
231,118,132547,1,10,1:2:0:0:
276,97,132672,1,2,0:0:0:0:
324,108,132797,2,0,P|338:122|346:141,1,41.2500012588501,2|2,0:3|0:0,0:0:0:0:
350,194,133047,1,0,1:2:0:0:
263,291,133297,1,2,0:3:0:0:
303,283,133422,2,0,L|344:277,1,41.2500012588501,2|8,0:0|1:2,0:0:0:0:
382,308,133672,2,0,P|414:331|455:329,1,82.5000025177003,2|2,0:0|0:0,0:0:0:0:
487,293,134047,6,0,P|513:216|478:144,2,165.000005035401,2|2|2,1:2|1:2|1:2,0:0:0:0:
432,224,135297,1,0,0:0:0:0:
432,224,135422,1,8,0:2:0:0:
432,224,135547,2,0,L|351:210,1,82.5000025177003,8|0,1:2|0:0,0:0:0:0:
323,175,135922,1,8,0:2:0:0:
334,131,136047,5,4,1:2:0:0:
