osu file format v14

[General]
AudioFilename: audio.mp3
AudioLeadIn: 0
PreviewTime: 119916
Countdown: 0
SampleSet: Soft
StackLeniency: 0.6
Mode: 0
LetterboxInBreaks: 0
WidescreenStoryboard: 0

[Editor]
DistanceSpacing: 1.35
BeatDivisor: 4
GridSize: 8
TimelineZoom: 1.2

[Metadata]
Title:Hi High
TitleUnicode:Hi High
Artist:LOONA
ArtistUnicode:이달의 소녀
Creator:cosmiccc
Version:Orbit
Source:
Tags:LOOΠΔ Girl of the Month ViVi 비비 Yves 이브 JinSoul 진솔 HaSeul 하슬 Kim Lip 김립 Chuu 츄 HeeJin 희진 HyunJin 현진 Go Won 고원 Choerry 최리 Olivia Hye 올리비아 혜 YeoJin 여진 1/3 Odd Eye Circle YYXY Blockberry Creative Kpop K-pop FunnyA
BeatmapID:2105251
BeatmapSetID:835509

[Difficulty]
HPDrainRate:5.8
CircleSize:4
OverallDifficulty:8.5
ApproachRate:9.2
SliderMultiplier:1.1
SliderTickRate:1

[Events]
//Background and Video events
0,0,"loona.jpg",0,0
Video,556,"hi.mp4"
//Break Periods
2,141532,150660
//Storyboard Layer 0 (Background)
//Storyboard Layer 1 (Fail)
//Storyboard Layer 2 (Pass)
//Storyboard Layer 3 (Foreground)
//Storyboard Layer 4 (Overlay)
//Storyboard Sound Samples

[TimingPoints]
303,309.278350515464,4,2,2,70,1,0
17622,-200,4,2,2,70,0,0
20096,-100,4,2,2,70,0,0
21565,-100,4,2,2,5,0,0
21643,-100,4,2,2,70,0,0
27751,-100,4,2,2,5,0,0
27828,-100,4,2,2,70,0,0
28060,-100,4,2,2,5,0,0
28138,-100,4,2,2,70,0,0
28370,-100,4,2,2,5,0,0
28447,-100,4,2,2,70,0,0
28833,-100,4,2,2,5,0,0
28911,-100,4,2,2,70,0,0
28988,-100,4,2,2,5,0,0
29065,-100,4,2,2,70,0,0
29143,-100,4,2,2,5,0,0
29220,-100,4,2,2,70,0,0
29297,-100,4,2,2,5,0,0
29375,-100,4,2,2,70,0,0
29452,-100,4,2,2,5,0,0
29529,-100,4,2,2,70,0,0
30844,-100,4,2,2,5,0,0
30921,-100,4,2,2,70,0,0
33318,-100,4,2,2,5,0,0
33395,-100,4,2,2,70,0,0
38730,-100,4,2,2,5,0,0
38808,-100,4,2,2,70,0,0
38885,-100,4,2,2,5,0,0
38962,-100,4,2,2,70,0,0
39040,-100,4,2,2,5,0,0
39117,-100,4,2,2,70,0,0
39194,-100,4,2,2,5,0,0
39272,-100,4,2,2,70,0,0
40973,-166.666666666667,4,2,2,70,0,0
41359,-166.666666666667,4,2,2,5,0,0
41437,-100,4,2,2,70,0,0
43447,-166.666666666667,4,2,2,70,0,0
43911,-100,4,2,2,70,0,0
47545,-100,4,2,2,5,0,0
47622,-100,4,2,2,70,0,0
48009,-100,4,2,2,5,0,0
48086,-100,4,2,2,70,0,0
48318,-100,4,2,2,5,0,0
48395,-100,4,2,2,70,0,0
49168,-166.666666666667,4,2,2,70,0,0
49787,-166.666666666667,4,2,2,60,0,0
54735,-100,4,2,2,70,0,0
54967,-100,4,2,2,5,0,0
55045,-100,4,2,2,70,0,0
55431,-100,4,2,2,5,0,0
55509,-100,4,2,2,70,0,0
56205,-100,4,2,2,5,0,0
56282,-100,4,2,2,70,0,0
57828,-100,4,2,2,70,0,0
59684,-71.4285714285714,4,2,2,80,0,1
68421,-71.4285714285714,4,2,2,5,0,1
68498,-71.4285714285714,4,2,2,80,0,1
68576,-71.4285714285714,4,2,2,5,0,1
68653,-71.4285714285714,4,2,2,80,0,1
68730,-71.4285714285714,4,2,2,5,0,1
68808,-71.4285714285714,4,2,2,80,0,1
68885,-71.4285714285714,4,2,2,5,0,1
68962,-71.4285714285714,4,2,2,80,0,1
69040,-71.4285714285714,4,2,2,5,0,1
69117,-71.4285714285714,4,2,2,80,0,1
69581,-166.666666666667,4,2,2,80,0,0
70122,-166.666666666667,4,2,2,5,0,1
70199,-55.5555555555556,4,2,2,80,0,1
70818,-62.5,4,2,2,80,0,1
71437,-71.4285714285714,4,2,2,80,0,1
72055,-71.4285714285714,4,2,2,80,0,1
74529,-125,4,2,2,80,0,1
74761,-71.4285714285714,4,2,2,5,0,1
74839,-55.5555555555556,4,2,2,80,0,1
75766,-125,4,2,2,80,0,1
75998,-55.5555555555556,4,2,2,5,0,1
76076,-55.5555555555556,4,2,2,80,0,1
77004,-100,4,2,2,70,0,0
78086,-125,4,2,2,70,0,0
79323,-166.666666666667,4,2,2,70,0,0
80638,-166.666666666667,4,2,2,5,0,0
80715,-100,4,2,2,50,0,0
83034,-100,4,2,2,5,0,0
83189,-100,4,2,2,50,0,0
83808,-166.666666666667,4,2,2,50,0,0
84426,-100,4,2,2,50,0,0
85354,-71.4285714285714,4,2,2,50,0,0
85431,-50,4,2,2,5,0,0
85509,-100,4,2,2,50,0,0
89375,-100,4,2,2,70,0,0
89452,-100,4,2,2,5,0,0
89529,-100,4,2,2,70,0,0
89607,-100,4,2,2,5,0,0
89684,-100,4,2,2,70,0,0
89761,-100,4,2,2,5,0,0
89839,-100,4,2,2,70,0,0
89916,-100,4,2,2,5,0,0
89993,-100,4,2,2,70,0,0
90071,-100,4,2,2,5,0,0
90148,-100,4,2,2,70,0,0
90534,-100,4,2,2,5,0,0
90612,-100,4,2,2,70,0,0
93318,-100,4,2,2,5,0,0
93395,-100,4,2,2,70,0,0
93627,-100,4,2,2,5,0,0
93705,-100,4,2,2,70,0,0
99349,-100,4,2,2,5,0,0
99426,-100,4,2,2,70,0,0
99504,-100,4,2,2,5,0,0
99581,-100,4,2,2,70,0,0
99658,-100,4,2,2,5,0,0
99735,-100,4,2,2,70,0,0
99813,-100,4,2,2,5,0,0
99890,-100,4,2,2,70,0,0
100431,-100,4,2,2,5,0,0
100509,-100,4,2,2,70,0,0
101591,-166.666666666667,4,2,2,70,0,0
101978,-166.666666666667,4,2,2,5,0,0
102055,-100,4,2,2,70,0,0
104065,-166.666666666667,4,2,2,70,0,0
104529,-100,4,2,2,70,0,0
109787,-166.666666666667,4,2,2,70,0,0
110406,-166.666666666667,4,2,2,60,0,0
115354,-100,4,2,2,70,0,0
115586,-100,4,2,2,5,0,0
115663,-100,4,2,2,70,0,0
116050,-100,4,2,2,5,0,0
116127,-100,4,2,2,70,0,0
116823,-100,4,2,2,5,0,0
116900,-100,4,2,2,70,0,0
117287,-100,4,2,2,5,0,0
117364,-100,4,2,2,70,0,0
119220,-62.5,4,2,2,70,0,0
120303,-71.4285714285714,4,2,2,80,0,1
129040,-71.4285714285714,4,2,2,5,0,1
129117,-71.4285714285714,4,2,2,80,0,1
129194,-71.4285714285714,4,2,2,5,0,1
129272,-71.4285714285714,4,2,2,80,0,1
129349,-71.4285714285714,4,2,2,5,0,1
129426,-71.4285714285714,4,2,2,80,0,1
129504,-71.4285714285714,4,2,2,5,0,1
129581,-71.4285714285714,4,2,2,80,0,1
129658,-71.4285714285714,4,2,2,5,0,1
129735,-71.4285714285714,4,2,2,80,0,1
130199,-166.666666666667,4,2,2,80,0,0
130741,-166.666666666667,4,2,2,5,0,1
130818,-55.5555555555556,4,2,2,80,0,1
131437,-62.5,4,2,2,80,0,1
132055,-71.4285714285714,4,2,2,80,0,1
135148,-125,4,2,2,80,0,1
135380,-125,4,2,2,5,0,1
135457,-71.4285714285714,4,2,2,80,0,1
136385,-125,4,2,2,80,0,1
136617,-125,4,2,2,5,0,1
136694,-71.4285714285714,4,2,2,80,0,1
137622,-71.4285714285714,4,2,2,70,0,0
138704,-125,4,2,2,70,0,0
139941,-166.666666666667,4,2,2,70,0,0
151230,-125,4,2,2,60,0,0
156179,-71.4285714285714,4,2,2,70,0,0
161746,-71.4285714285714,4,2,2,80,0,1
161823,-71.4285714285714,4,2,2,5,0,1
161900,-71.4285714285714,4,2,2,80,0,1
162983,-71.4285714285714,4,2,2,80,0,1
163215,-71.4285714285714,4,2,2,5,0,1
163292,-71.4285714285714,4,2,2,80,0,1
165689,-71.4285714285714,4,2,2,5,0,1
165766,-71.4285714285714,4,2,2,80,0,1
165998,-71.4285714285714,4,2,2,5,0,1
166076,-71.4285714285714,4,2,2,80,0,1
168473,-71.4285714285714,4,2,2,5,0,1
168550,-71.4285714285714,4,2,2,80,0,1
169710,-71.4285714285714,4,2,2,5,0,1
169787,-71.4285714285714,4,2,2,80,0,1
169864,-71.4285714285714,4,2,2,5,0,1
169942,-71.4285714285714,4,2,2,80,0,1
170019,-71.4285714285714,4,2,2,5,0,1
170096,-71.4285714285714,4,2,2,80,0,1
170174,-71.4285714285714,4,2,2,5,0,1
170251,-71.4285714285714,4,2,2,80,0,1
170328,-71.4285714285714,4,2,2,5,0,1
170406,-71.4285714285714,4,2,2,80,0,1
170483,-71.4285714285714,4,2,2,5,0,1
170560,-71.4285714285714,4,2,2,80,0,1
170638,-71.4285714285714,4,2,2,5,0,1
170715,-71.4285714285714,4,2,2,80,0,1
170792,-71.4285714285714,4,2,2,5,0,1
170870,-71.4285714285714,4,2,2,80,0,1
171024,-166.666666666667,4,2,2,70,0,0
171565,-166.666666666667,4,2,2,5,0,0
171643,-55.5555555555556,4,2,2,80,0,1
172261,-62.5,4,2,2,80,0,1
172880,-71.4285714285714,4,2,2,80,0,1
175354,-71.4285714285714,4,2,2,80,0,1
176205,-71.4285714285714,4,2,2,5,0,1
176282,-71.4285714285714,4,2,2,80,0,1
177442,-71.4285714285714,4,2,2,5,0,1
177519,-71.4285714285714,4,2,2,80,0,1
178447,-71.4285714285714,4,2,2,70,0,0
179529,-125,4,2,2,70,0,0
180766,-166.666666666667,4,2,2,70,0,0
181462,-166.666666666667,4,2,2,5,0,0
181540,-71.4285714285714,4,2,2,70,0,0
182158,-41.6666666666667,4,2,2,80,0,1
188962,-35.7142857142857,4,2,2,70,0,0
190044,-125,4,2,2,70,0,0
191282,-166.666666666667,4,2,2,70,0,0
193911,-166.666666666667,4,2,2,5,0,0

[Colours]
Combo1 : 253,180,43
Combo2 : 183,0,0
Combo3 : 28,128,208
Combo4 : 247,119,173

[HitObjects]
167,339,17622,6,0,L|177:111,1,220,0|0,0:0|0:3,0:0:0:0:
330,154,19014,5,10,0:3:0:0:
330,154,19168,1,10,0:3:0:0:
180,126,19323,1,8,0:3:0:0:
180,126,19478,1,10,0:3:0:0:
328,52,19632,1,10,0:3:0:0:
245,200,19787,1,10,0:3:0:0:
224,34,19942,1,8,0:3:0:0:
427,160,20096,6,0,L|430:238,1,55,6|0,0:3|0:0,0:0:0:0:
320,301,20406,2,0,L|316:224,1,55,8|0,0:3|0:0,0:0:0:0:
217,336,20715,1,0,0:3:0:0:
217,336,21024,1,8,0:3:0:0:
323,299,21179,1,0,0:3:0:0:
186,347,21333,6,0,P|140:357|90:341,1,82.5,2|0,0:3|0:0,0:0:0:0:
84,338,21643,1,8,0:3:0:0:
220,247,21797,1,0,0:0:0:0:
220,247,22107,1,0,0:3:0:0:
94,205,22261,1,8,0:3:0:0:
208,147,22416,1,0,0:3:0:0:
86,216,22571,6,0,L|83:138,1,55,2|2,0:0|0:0,0:0:0:0:
191,77,22880,2,0,L|195:154,1,55,8|2,0:3|0:0,0:0:0:0:
323,30,23190,1,0,0:3:0:0:
323,30,23498,2,0,L|327:107,1,55,8|0,0:3|0:3,0:0:0:0:
170,55,23808,5,2,0:3:0:0:
170,55,23962,1,8,0:0:0:0:
306,99,24117,1,8,0:3:0:0:
306,99,24272,1,8,0:0:0:0:
184,138,24426,1,2,0:3:0:0:
246,17,24581,1,0,0:3:0:0:
352,165,24735,2,0,L|349:220,1,55,8|0,0:3|0:3,0:0:0:0:
184,138,25045,5,2,0:3:0:0:
246,31,25199,1,2,0:0:0:0:
272,177,25354,1,8,0:3:0:0:
109,114,25509,1,2,0:0:0:0:
114,118,25818,1,0,0:0:0:0:
420,141,25973,6,0,P|425:175|413:216,1,55,8|0,0:3|0:3,0:0:0:0:
289,308,26282,2,0,P|284:274|296:233,1,55,2|0,0:3|0:0,0:0:0:0:
427,318,26591,1,8,0:3:0:0:
427,318,26746,1,0,0:0:0:0:
163,341,27055,1,0,0:3:0:0:
163,341,27210,2,0,L|90:335,1,55,8|0,0:3|0:3,0:0:0:0:
8,182,27519,6,0,B|10:155|10:155|20:130|20:130|19:96,1,82.5,2|0,0:0|0:0,0:0:0:0:
40,70,27828,2,0,B|61:84|61:84|78:106|78:106|108:122,1,82.5,10|0,0:3|0:0,0:0:0:0:
108,159,28138,2,0,B|84:170|84:170|57:174|57:174|28:191,1,82.5,2|0,0:0|0:0,0:0:0:0:
6,200,28447,1,8,0:3:0:0:
265,79,28601,1,0,0:3:0:0:
172,86,28756,6,2,L|165:36,1,27.5,2|10,0:0|0:0,0:0:0:0:
294,85,28911,2,2,L|290:112,1,27.5,2|10,0:0|0:0,0:0:0:0:
141,124,29065,6,2,L|132:76,1,27.5,2|10,0:0|0:0,0:0:0:0:
336,56,29220,2,2,L|333:83,1,27.5,2|10,0:0|0:0,0:0:0:0:
108,159,29375,6,2,L|98:110,1,27.5,2|10,0:0|0:0,0:0:0:0:
245,305,29529,1,2,0:3:0:0:
106,256,29684,1,2,0:3:0:0:
277,203,29839,1,2,0:3:0:0:
138,341,29993,6,0,P|78:342|33:313,1,110,6|8,0:3|0:3,0:0:0:0:
328,270,30612,2,0,P|338:315|325:362,1,82.5,0|0,0:3|0:0,0:0:0:0:
320,367,30921,1,8,0:3:0:0:
226,230,31076,1,0,0:3:0:0:
427,278,31230,5,2,0:3:0:0:
427,278,31540,1,8,0:3:0:0:
226,231,31694,1,0,0:0:0:0:
226,231,32004,1,0,0:3:0:0:
449,137,32158,2,0,L|441:192,1,55,8|0,0:3|0:3,0:0:0:0:
317,160,32467,6,2,L|308:99,1,55
488,68,32777,2,0,L|480:123,1,55,8|2,0:3|0:0,0:0:0:0:
219,195,33086,2,0,P|179:205|130:192,1,82.5,2|0,0:3|0:0,0:0:0:0:
121,187,33395,1,8,0:3:0:0:
229,88,33550,1,0,0:3:0:0:
268,257,33705,1,8,0:0:0:0:
268,257,33859,1,8,0:0:0:0:
121,187,34014,1,8,0:3:0:0:
121,187,34168,1,8,0:0:0:0:
291,144,34323,6,0,P|331:139|370:152,2,82.5,8|0|0,0:0|0:0|0:0,0:0:0:0:
158,331,34942,2,2,L|152:276,1,55
351,347,35251,1,8,0:3:0:0:
48,243,35560,6,0,P|35:203|49:143,2,82.5,8|0|0,0:0|0:0|0:0,0:0:0:0:
212,77,36179,2,0,L|202:134,1,55,2|0,0:3|0:0,0:0:0:0:
51,50,36488,1,8,0:3:0:0:
51,50,36643,1,0,0:0:0:0:
185,9,36797,2,0,P|216:4|260:13,1,55,2|0,0:3|0:0,0:0:0:0:
375,90,37107,2,0,P|348:96|320:95,1,55,8|0,0:3|0:0,0:0:0:0:
489,52,37416,6,0,B|472:107|472:107|489:181,1,110,2|8,0:0|0:3,0:0:0:0:
360,276,37880,2,0,B|377:221|377:221|360:147,1,110,2|2,0:0|0:3,0:0:0:0:
486,242,38344,1,8,0:3:0:0:
486,242,38653,6,2,L|479:292,1,27.5,2|2,0:0|0:0,0:0:0:0:
335,321,38808,2,2,L|339:294,1,27.5,2|2,0:0|0:0,0:0:0:0:
512,228,38962,6,2,L|503:276,1,27.5,2|2,0:0|0:0,0:0:0:0:
310,309,39117,2,2,L|314:282,1,27.5,2|2,0:0|0:0,0:0:0:0:
431,321,39272,5,2,0:3:0:0:
431,322,39426,1,2,0:3:0:0:
250,368,39581,1,2,0:3:0:0:
250,368,39735,1,2,0:3:0:0:
345,159,39890,5,6,0:0:0:0:
349,345,40045,1,2,0:0:0:0:
254,191,40199,1,8,0:3:0:0:
436,299,40354,1,2,0:0:0:0:
243,289,40509,5,2,0:0:0:0:
447,192,40663,1,2,0:0:0:0:
357,361,40818,1,8,0:3:0:0:
151,245,40973,2,0,L|56:239,1,82.4999974822999,2|0,0:0|0:0,0:0:0:0:
41,240,41437,6,0,L|30:166,1,55,8|0,0:3|0:0,0:0:0:0:
164,75,41746,1,0,0:0:0:0:
114,166,41900,1,0,0:0:0:0:
51,49,42055,1,8,0:3:0:0:
244,166,42364,5,2,0:0:0:0:
388,25,42519,1,2,0:0:0:0:
348,199,42674,1,8,0:3:0:0:
234,52,42828,1,2,0:0:0:0:
450,72,42983,5,2,0:0:0:0:
346,219,43138,1,2,0:0:0:0:
308,21,43292,1,8,0:3:0:0:
449,182,43447,2,0,L|449:227,1,32.99999899292
269,263,43756,1,0,0:0:0:0:
401,309,43911,6,0,L|324:303,1,55,8|8,0:3|0:0,0:0:0:0:
449,215,44220,2,0,L|526:209,1,55,8|8,0:0|0:0,0:0:0:0:
345,133,44529,1,8,0:3:0:0:
345,133,44839,6,0,B|292:146|292:146|229:129,1,110,2|8,0:0|0:3,0:0:0:0:
166,30,45303,2,0,B|219:17|219:17|281:35,1,110,2|2,0:0|0:3,0:0:0:0:
132,226,45766,1,8,0:3:0:0:
132,226,45921,2,0,B|138:185|138:185|127:150|127:150|136:102,1,110,2|0,0:0|0:0,0:0:0:0:
244,249,46385,2,0,L|236:304,1,55,8|0,0:3|0:0,0:0:0:0:
465,240,46694,1,2,0:3:0:0:
320,147,47004,1,8,0:3:0:0:
447,327,47313,6,0,L|361:325,1,82.5,2|0,0:0|0:0,0:0:0:0:
342,321,47622,1,8,0:3:0:0:
466,242,47777,2,0,L|363:240,1,82.5,2|0,0:0|0:0,0:0:0:0:
359,248,48086,2,0,L|276:246,1,82.5,2|0,0:0|0:0,0:0:0:0:
258,252,48395,1,0,0:0:0:0:
402,119,48550,2,0,P|406:152|400:176,1,55,2|0,0:3|0:3,0:0:0:0:
274,130,48859,2,0,P|269:96|276:73,1,55,2|0,0:3|0:0,0:0:0:0:
467,121,49168,6,0,L|387:118,1,65.9999979858399,2|2,0:0|0:3,0:0:0:0:
115,220,49787,6,2,L|107:176,1,32.99999899292,6|2,0:3|0:0,0:0:0:0:
17,138,50096,2,2,L|56:116,1,32.99999899292,2|2,0:3|0:0,0:0:0:0:
65,27,50406,2,2,L|97:57,1,32.99999899292,8|2,0:3|0:0,0:0:0:0:
190,35,50715,2,2,L|170:75,1,32.99999899292,2|2,0:3|0:0,0:0:0:0:
384,148,51179,1,0,0:0:0:0:
384,148,51333,6,0,L|339:153,1,32.99999899292,2|0,0:3|0:0,0:0:0:0:
441,75,51643,2,0,L|396:80,1,32.99999899292,8|0,0:3|0:3,0:0:0:0:
497,16,51952,1,0,0:3:0:0:
216,149,52261,6,2,L|204:179,1,32.99999899292,2|2,0:3|0:0,0:0:0:0:
311,230,52570,2,2,L|277:229,1,32.99999899292,2|2,0:3|0:0,0:0:0:0:
268,343,52880,2,2,L|256:311,1,32.99999899292,8|2,0:3|0:0,0:0:0:0:
141,333,53189,2,2,L|167:314,1,32.99999899292,2|2,0:3|0:0,0:0:0:0:
113,78,53653,1,0,0:0:0:0:
113,78,53807,6,0,L|158:73,1,32.99999899292,2|0,0:3|0:0,0:0:0:0:
56,151,54117,2,0,L|101:146,1,32.99999899292,8|0,0:3|0:3,0:0:0:0:
0,210,54426,1,0,0:3:0:0:
300,37,54735,6,0,L|289:131,1,82.5,2|0,0:3|0:0,0:0:0:0:
276,145,55045,1,8,0:3:0:0:
421,24,55199,2,0,L|412:125,1,82.5,0|0,0:3|0:0,0:0:0:0:
392,131,55509,1,2,0:3:0:0:
276,145,55663,1,8,0:3:0:0:
465,214,55818,1,0,0:0:0:0:
179,329,55973,6,0,L|168:235,1,82.5,2|0,0:3|0:0,0:0:0:0:
158,225,56283,1,8,0:3:0:0:
300,342,56437,2,0,L|288:227,1,110,2|2,0:3|0:3,0:0:0:0:
86,359,56901,1,8,0:3:0:0:
86,359,57055,1,0,0:0:0:0:
105,146,57210,5,2,0:0:0:0:
356,211,57364,1,2,0:3:0:0:
213,324,57519,1,2,0:0:0:0:
420,162,57674,1,2,0:0:0:0:
144,271,57828,5,2,0:3:0:0:
188,245,57906,1,2,0:3:0:0:
241,249,57983,1,2,0:3:0:0:
289,267,58060,1,2,0:3:0:0:
331,295,58138,1,2,0:3:0:0:
380,304,58215,1,2,0:3:0:0:
428,281,58292,1,2,0:0:0:0:
256,192,58370,12,0,59375,0:0:0:0:
36,229,59684,6,0,B|37:198|37:198|28:176|28:176|29:144,1,76.9999976501466,6|0,0:0|0:0,0:0:0:0:
201,216,59993,1,8,0:3:0:0:
35,310,60148,1,2,0:0:0:0:
215,209,60303,6,0,B|214:231|214:231|223:253|223:253|222:284,1,76.9999976501466,2|2,0:0|0:0,0:0:0:0:
36,229,60612,1,8,0:3:0:0:
211,134,60766,1,2,0:0:0:0:
257,359,60921,6,0,P|219:364|181:355,1,76.9999976501466,2|2,0:0|0:3,0:0:0:0:
211,134,61230,1,8,0:3:0:0:
335,313,61385,1,2,0:0:0:0:
203,119,61540,6,0,P|242:110|301:126,1,76.9999976501466,2|2,0:0|0:0,0:0:0:0:
363,134,61849,1,8,0:3:0:0:
361,145,61926,1,2,0:0:0:0:
359,156,62004,1,2,0:0:0:0:
357,167,62081,1,2,0:0:0:0:
355,176,62158,5,2,0:0:0:0:
228,39,62313,1,2,0:0:0:0:
453,135,62467,1,8,0:3:0:0:
212,223,62622,1,2,0:0:0:0:
362,28,62777,5,2,0:3:0:0:
366,289,62931,1,2,0:3:0:0:
158,125,63086,1,8,0:3:0:0:
456,132,63241,5,2,0:0:0:0:
456,132,63550,1,2,0:0:0:0:
502,222,63705,5,8,0:3:0:0:
457,239,63782,1,2,0:0:0:0:
417,231,63859,1,2,0:0:0:0:
388,209,63937,1,2,0:0:0:0:
368,177,64014,1,2,0:0:0:0:
341,25,64168,1,2,0:0:0:0:
456,132,64323,1,8,0:3:0:0:
456,132,64478,1,0,0:3:0:0:
256,254,64632,6,0,B|231:252|231:252|209:260|209:260|179:256,1,76.9999976501466,2|2,0:0|0:3,0:0:0:0:
279,114,64942,1,8,0:3:0:0:
369,269,65096,1,2,0:0:0:0:
380,103,65251,6,0,B|379:125|379:125|388:147|388:147|387:178,1,76.9999976501466,2|2,0:0|0:3,0:0:0:0:
191,101,65560,1,8,0:3:0:0:
386,29,65714,1,2,0:0:0:0:
191,101,65870,6,0,B|192:79|192:79|183:57|183:57|184:26,1,76.9999976501466,2|2,0:0|0:3,0:0:0:0:
288,183,66179,2,0,P|245:200|190:188,1,76.9999976501466,8|2,0:3|0:0,0:0:0:0:
42,186,66488,2,0,P|85:169|140:181,1,76.9999976501466,2|2,0:0|0:3,0:0:0:0:
279,352,66797,1,8,0:3:0:0:
268,353,66874,1,2,0:0:0:0:
257,350,66952,1,2,0:0:0:0:
244,342,67029,1,2,0:0:0:0:
234,333,67107,5,2,0:0:0:0:
288,183,67261,1,2,0:0:0:0:
424,367,67415,1,8,0:3:0:0:
472,152,67570,1,2,0:0:0:0:
184,269,67725,5,2,0:3:0:0:
329,94,67879,1,2,0:3:0:0:
422,369,68034,1,8,0:3:0:0:
422,369,68189,1,2,0:3:0:0:
192,174,68344,6,0,L|195:120,1,38.4999988250733,2|2,0:0|0:0,0:0:0:0:
329,94,68498,2,0,L|327:132,1,38.4999988250733,2|2,0:0|0:0,0:0:0:0:
153,145,68653,6,0,L|206:97,1,38.4999988250733,8|2,0:3|0:0,0:0:0:0:
379,114,68807,2,0,L|340:148,1,38.4999988250733,2|2,0:0|0:0,0:0:0:0:
104,111,68962,6,0,L|156:114,1,38.4999988250733,2|2,0:0|0:0,0:0:0:0:
417,128,69117,1,2,0:3:0:0:
279,243,69272,1,8,0:3:0:0:
196,33,69426,1,2,0:3:0:0:
123,332,69581,6,0,L|117:207,1,115.49999647522,2|0,0:0|0:0,0:0:0:0:
104,111,70199,6,0,P|59:92|11:98,1,98.9999969787599,6|0,0:0|0:0,0:0:0:0:
40,186,70509,1,8,0:3:0:0:
182,8,70663,1,8,0:0:0:0:
182,8,70741,1,8,0:0:0:0:
182,8,70818,6,0,L|94:19,1,88,8|8,0:0|0:0,0:0:0:0:
40,186,71127,1,8,0:3:0:0:
310,84,71282,1,2,0:0:0:0:
310,84,71360,1,2,0:0:0:0:
310,84,71437,6,2,L|229:94,1,76.9999976501466,2|2,0:3|0:0,0:0:0:0:
40,186,71746,2,2,L|116:192,1,76.9999976501466,10|2,0:3|0:0,0:0:0:0:
261,221,72055,5,2,0:0:0:0:
231,96,72210,1,2,0:0:0:0:
425,233,72364,1,8,0:3:0:0:
443,59,72519,1,2,0:0:0:0:
273,333,72674,5,2,0:3:0:0:
233,93,72828,1,2,0:3:0:0:
445,242,72983,1,8,0:3:0:0:
216,81,73138,1,2,0:3:0:0:
216,81,73447,1,2,0:3:0:0:
123,345,73601,6,0,P|158:352|198:343,1,76.9999976501466,8|0,0:3|0:0,0:0:0:0:
194,208,73911,2,0,P|168:236|157:272,1,76.9999976501466,2|0,0:0|0:0,0:0:0:0:
386,355,74220,1,8,0:3:0:0:
287,173,74375,1,0,0:3:0:0:
254,276,74529,6,0,P|283:281|331:273,1,66,2|0,0:3|0:0,0:0:0:0:
396,259,74839,6,0,L|387:371,1,98.9999969787599,8|0,0:3|0:0,0:0:0:0:
207,209,75148,2,0,L|197:100,1,98.9999969787599,2|0,0:0|0:0,0:0:0:0:
392,167,75457,5,8,0:3:0:0:
207,209,75612,1,2,0:3:0:0:
496,149,75766,6,0,L|494:221,1,66,0|0,0:3|0:0,0:0:0:0:
496,294,76076,6,0,P|456:304|401:280,1,98.9999969787599,8|0,0:3|0:0,0:0:0:0:
206,204,76385,2,0,P|250:190|307:209,1,98.9999969787599,2|0,0:0|0:0,0:0:0:0:
134,274,76694,1,8,0:3:0:0:
110,249,76772,1,2,0:0:0:0:
97,211,76849,1,2,0:0:0:0:
104,174,76926,1,2,0:0:0:0:
129,146,77004,5,6,0:0:0:0:
389,197,77622,5,2,0:3:0:0:
119,330,78086,6,0,P|35:299|116:252,1,220,6|2,0:0|0:3,0:0:0:0:
460,253,79323,6,0,P|406:351|366:246,1,280.49999143982,8|0,0:0|0:0,0:0:0:0:
379,228,80715,6,0,P|389:191|384:159,1,55,0|0,0:0|0:0,0:0:0:0:
329,104,81024,1,8,0:0:0:0:
296,185,81179,1,8,0:0:0:0:
387,174,81333,1,8,0:0:0:0:
91,63,81643,5,8,0:0:0:0:
172,96,81798,1,8,0:0:0:0:
102,154,81952,1,8,0:0:0:0:
216,322,82261,5,8,0:0:0:0:
216,322,82416,1,8,0:0:0:0:
135,289,82570,1,8,0:0:0:0:
205,231,82725,1,8,0:0:0:0:
216,322,82880,2,0,L|210:392,1,55,8|8,0:0|0:0,0:0:0:0:
46,305,83189,2,0,L|41:250,1,55,8|8,0:0|0:0,0:0:0:0:
171,99,83498,5,8,0:0:0:0:
137,188,83653,1,8,0:0:0:0:
78,111,83808,2,0,L|8:116,1,65.9999979858399,8|8,0:0|0:0,0:0:0:0:
443,114,84426,6,0,L|368:119,1,55,8|8,0:0|0:0,0:0:0:0:
322,22,84735,2,0,L|376:16,1,55,8|8,0:0|0:0,0:0:0:0:
292,141,85045,1,8,0:0:0:0:
292,141,85354,2,0,L|239:139,1,38.4999988250733,8|8,0:0|0:0,0:0:0:0:
415,228,85509,1,8,0:0:0:0:
415,228,85663,6,0,P|419:264|410:304,1,55,8|8,0:0|0:0,0:0:0:0:
286,321,85973,2,0,P|278:291|283:264,1,55,8|8,0:0|0:0,0:0:0:0:
407,290,86282,1,8,0:0:0:0:
194,351,86591,5,8,0:0:0:0:
194,351,86746,1,8,0:0:0:0:
70,308,86900,2,0,P|66:272|75:232,1,55,8|8,0:0|0:0,0:0:0:0:
199,215,87210,2,0,P|207:245|202:272,1,55,8|8,0:0|0:0,0:0:0:0:
78,246,87519,1,8,0:0:0:0:
185,137,87828,5,8,0:0:0:0:
185,137,88138,6,0,B|145:139|145:139|107:125|107:125|65:126,1,110,8|8,0:0|0:0,0:0:0:0:
194,43,88601,1,8,0:0:0:0:
194,43,88756,2,0,B|164:43|164:43|126:29|126:29|86:31,1,110,8|8,0:0|0:0,0:0:0:0:
10,44,89220,1,8,0:0:0:0:
288,111,89375,6,2,L|281:161,1,27.5,2|10,0:0|0:0,0:0:0:0:
180,170,89529,2,2,L|176:143,1,27.5,2|10,0:0|0:0,0:0:0:0:
318,103,89684,6,2,L|309:151,1,27.5,2|10,0:0|0:0,0:0:0:0:
145,181,89839,2,2,L|142:154,1,27.5,10|10,0:0|0:0,0:0:0:0:
353,91,89994,6,2,L|343:140,1,27.5,2|10,0:0|0:0,0:0:0:0:
109,251,90148,5,0,0:3:0:0:
109,251,90303,2,0,P|153:259|197:247,1,82.5,2|0,0:3|0:0,0:0:0:0:
210,243,90612,6,0,P|239:238|264:241,1,55,6|0,0:3|0:0,0:0:0:0:
331,335,90921,2,0,P|302:340|277:337,1,55,8|0,0:3|0:0,0:0:0:0:
416,231,91230,1,0,0:3:0:0:
417,364,91385,1,0,0:0:0:0:
339,257,91540,1,8,0:3:0:0:
470,302,91694,1,0,0:3:0:0:
331,335,91849,5,2,0:3:0:0:
331,335,92158,1,8,0:3:0:0:
389,150,92313,2,0,L|399:223,1,55
480,289,92622,1,0,0:3:0:0:
304,234,92777,1,8,0:3:0:0:
489,187,92931,1,0,0:3:0:0:
304,234,93086,6,0,P|258:246|207:229,1,82.5,2|0,0:0|0:0,0:0:0:0:
201,225,93395,2,0,P|160:214|113:223,1,82.5,8|0,0:3|0:0,0:0:0:0:
90,237,93705,1,2,0:0:0:0:
156,306,93859,1,0,0:0:0:0:
260,166,94014,2,0,L|267:102,1,55,8|0,0:3|0:3,0:0:0:0:
181,113,94323,5,10,0:0:0:0:
181,113,94478,1,8,0:0:0:0:
331,66,94632,1,8,0:3:0:0:
331,66,94787,1,8,0:0:0:0:
254,241,94942,2,0,L|162:236,2,82.5,2|0|0,0:3|0:0|0:0,0:0:0:0:
108,309,95560,2,2,L|49:305,1,55
266,336,95870,1,8,0:3:0:0:
109,110,96179,6,0,L|102:203,2,82.5,0|0|0,0:3|0:0|0:0,0:0:0:0:
274,282,96797,2,0,L|267:336,1,55,2|0,0:3|0:0,0:0:0:0:
306,126,97107,1,8,0:3:0:0:
186,186,97261,1,0,0:0:0:0:
363,257,97416,2,0,L|358:202,1,55,2|0,0:3|0:0,0:0:0:0:
219,275,97725,2,0,L|299:284,1,55,8|0,0:3|0:0,0:0:0:0:
36,237,98034,5,0,0:0:0:0:
152,25,98344,1,0,0:0:0:0:
200,101,98498,2,0,P|147:113|96:93,1,110,2|2,0:0|0:3,0:0:0:0:
313,52,98962,1,8,0:3:0:0:
313,52,99272,6,2,L|303:2,1,27.5
430,58,99426,2,2,L|418:95,1,27.5,2|2,0:0|0:0,0:0:0:0:
286,75,99581,6,2,L|274:26,1,27.5
456,49,99735,2,2,L|444:82,1,27.5,2|2,0:0|0:0,0:0:0:0:
221,111,99890,5,0,0:0:0:0:
376,0,100045,1,0,0:0:0:0:
489,229,100199,2,2,L|397:227,1,82.5
292,253,100509,5,6,0:3:0:0:
364,152,100663,1,2,0:0:0:0:
425,325,100818,1,8,0:3:0:0:
257,180,100973,1,2,0:0:0:0:
489,229,101127,5,0,0:3:0:0:
273,325,101282,1,2,0:0:0:0:
371,133,101437,1,8,0:3:0:0:
439,340,101591,2,0,P|397:351|351:343,1,82.4999974822999
329,329,102055,6,0,P|295:324|258:333,1,55,8|0,0:3|0:0,0:0:0:0:
149,362,102364,1,0,0:0:0:0:
180,216,102519,1,0,0:0:0:0:
50,275,102674,1,8,0:3:0:0:
50,275,102983,5,2,0:3:0:0:
196,212,103138,1,2,0:0:0:0:
124,370,103292,1,8,0:3:0:0:
95,172,103447,1,2,0:0:0:0:
212,291,103601,5,0,0:3:0:0:
16,215,103756,1,2,0:0:0:0:
191,121,103911,1,8,0:3:0:0:
1,65,104065,2,0,L|7:134,1,65.9999979858399,0|0,0:0|0:0,0:0:0:0:
191,121,104529,6,0,L|260:124,1,55,8|8,0:3|0:0,0:0:0:0:
138,42,104839,2,8,L|69:45,1,55,10|8,0:0|0:0,0:0:0:0:
196,136,105148,2,8,L|250:138,1,55,8|0,0:3|0:0,0:0:0:0:
267,16,105457,5,2,0:3:0:0:
267,16,105766,2,0,L|339:19,1,55,8|0,0:3|0:0,0:0:0:0:
390,117,106076,2,0,L|321:120,1,55,0|0,0:3|0:0,0:0:0:0:
405,27,106385,1,8,0:3:0:0:
468,114,106540,1,0,0:0:0:0:
512,24,106694,1,2,0:3:0:0:
433,203,107004,6,0,L|487:206,1,55,8|0,0:3|0:0,0:0:0:0:
433,327,107313,1,2,0:3:0:0:
433,327,107622,6,0,L|358:331,1,55,8|0,0:3|0:0,0:0:0:0:
180,312,107931,1,2,0:3:0:0:
238,243,108086,1,8,0:0:0:0:
283,324,108241,2,0,L|279:399,1,55,10|0,0:0|0:0,0:0:0:0:
79,265,108550,5,8,0:0:0:0:
173,313,108705,1,8,0:0:0:0:
83,354,108859,2,0,L|15:364,1,55,10|0,0:0|0:0,0:0:0:0:
124,142,109168,6,0,P|127:181|119:220,1,55,2|0,0:3|0:3,0:0:0:0:
11,155,109478,2,0,P|8:116|16:77,1,55,2|0,0:3|0:0,0:0:0:0:
189,137,109787,6,0,L|108:143,1,65.9999979858399,2|2,0:3|0:3,0:0:0:0:
461,44,110406,6,0,P|482:51|498:61,1,32.99999899292,6|2,0:3|0:0,0:0:0:0:
451,139,110715,2,0,P|452:163|449:181,1,32.99999899292,0|2,0:3|0:0,0:0:0:0:
360,169,111024,2,0,P|338:178|320:182,1,32.99999899292,8|2,0:3|0:0,0:0:0:0:
300,93,111334,2,0,P|284:75|274:59,1,32.99999899292,2|2,0:3|0:0,0:0:0:0:
379,249,111952,6,0,L|376:282,1,32.99999899292,0|0,0:3|0:0,0:0:0:0:
462,137,112261,1,8,0:3:0:0:
462,137,112571,1,0,0:3:0:0:
88,333,112880,6,0,P|67:326|51:316,1,32.99999899292,2|2,0:3|0:0,0:0:0:0:
98,238,113189,2,0,P|97:214|100:196,1,32.99999899292,0|2,0:3|0:0,0:0:0:0:
189,208,113498,2,0,P|211:199|229:195,1,32.99999899292,8|2,0:3|0:0,0:0:0:0:
249,284,113808,2,0,P|265:302|275:318,1,32.99999899292,2|2,0:3|0:0,0:0:0:0:
71,133,114272,1,0,0:0:0:0:
71,133,114426,6,0,L|38:136,1,32.99999899292,0|0,0:3|0:0,0:0:0:0:
177,72,114735,1,8,0:3:0:0:
98,238,115045,1,0,0:3:0:0:
344,104,115354,6,0,B|390:82|433:106,1,82.5,2|0,0:0|0:0,0:0:0:0:
445,114,115664,1,8,0:3:0:0:
261,140,115818,6,0,B|237:94|262:50,1,82.5,2|0,0:0|0:0,0:0:0:0:
270,39,116128,1,2,0:3:0:0:
185,207,116282,1,8,0:3:0:0:
387,176,116437,1,0,0:0:0:0:
146,312,116591,6,0,B|100:334|57:310,1,82.5,2|0,0:0|0:0,0:0:0:0:
45,303,116901,1,8,0:3:0:0:
234,278,117055,6,0,B|255:323|221:381,1,82.5,2|0,0:0|0:0,0:0:0:0:
218,376,117364,1,2,0:3:0:0:
247,123,117519,5,8,0:3:0:0:
190,214,117674,1,8,0:0:0:0:
190,214,117751,1,8,0:0:0:0:
190,214,117828,1,2,0:3:0:0:
137,121,117983,1,0,0:0:0:0:
280,215,118138,5,2,0:3:0:0:
50,115,118292,1,8,0:3:0:0:
282,19,118447,1,8,0:0:0:0:
224,295,118601,5,8,0:3:0:0:
116,29,118755,1,8,0:0:0:0:
409,170,118910,1,8,0:3:0:0:
409,170,119220,5,8,0:0:0:0:
416,177,119297,1,8,0:0:0:0:
424,191,119375,1,8,0:0:0:0:
429,207,119452,1,8,0:0:0:0:
430,227,119529,1,8,0:0:0:0:
418,252,119607,1,8,0:0:0:0:
389,279,119684,5,8,0:0:0:0:
350,289,119761,1,8,0:0:0:0:
313,285,119839,1,8,0:0:0:0:
279,272,119916,1,8,0:0:0:0:
247,254,119993,1,8,0:0:0:0:
213,249,120071,1,8,0:0:0:0:
178,255,120148,1,8,0:0:0:0:
145,273,120225,1,8,0:0:0:0:
116,286,120303,6,0,B|30:282,1,76.9999976501466,6|0,0:0|0:0,0:0:0:0:
418,252,120612,1,8,0:3:0:0:
268,359,120767,1,2,0:0:0:0:
433,246,120921,6,0,B|347:242,1,76.9999976501466,2|2,0:0|0:3,0:0:0:0:
435,108,121230,1,8,0:3:0:0:
511,279,121385,1,2,0:0:0:0:
282,122,121540,6,0,B|286:36,1,76.9999976501466,2|2,0:0|0:3,0:0:0:0:
436,109,121849,1,8,0:3:0:0:
273,220,122004,1,2,0:0:0:0:
110,105,122158,6,0,B|196:109,1,76.9999976501466,2|2,0:0|0:3,0:0:0:0:
85,268,122468,1,8,0:3:0:0:
76,265,122545,1,2,0:0:0:0:
69,261,122622,1,2,0:0:0:0:
62,254,122700,1,2,0:0:0:0:
58,248,122777,5,2,0:0:0:0:
275,192,122932,1,2,0:0:0:0:
166,375,123086,1,8,0:3:0:0:
110,105,123241,1,2,0:0:0:0:
309,273,123396,5,2,0:3:0:0:
48,332,123550,1,2,0:3:0:0:
205,126,123705,1,8,0:3:0:0:
348,352,123859,1,2,0:3:0:0:
348,352,124168,5,2,0:3:0:0:
309,272,124324,5,8,0:3:0:0:
339,255,124401,1,2,0:0:0:0:
373,255,124478,1,2,0:0:0:0:
406,268,124556,1,2,0:0:0:0:
426,298,124633,1,2,0:0:0:0:
238,337,124787,1,2,0:0:0:0:
343,357,124942,1,8,0:3:0:0:
343,357,125097,1,0,0:3:0:0:
306,176,125251,6,0,B|348:158|384:179,1,76.9999976501466,2|2,0:0|0:3,0:0:0:0:
339,255,125560,1,8,0:3:0:0:
263,98,125714,1,2,0:0:0:0:
463,151,125870,6,0,B|481:193|460:229,1,76.9999976501466,2|2,0:0|0:3,0:0:0:0:
306,176,126179,1,8,0:3:0:0:
450,70,126333,1,2,0:0:0:0:
500,298,126489,6,0,B|458:316|422:295,1,76.9999976501466,2|2,0:0|0:3,0:0:0:0:
265,258,126797,2,0,L|342:253,1,76.9999976501466,8|2,0:3|0:0,0:0:0:0:
205,356,127107,2,0,B|125:352,1,76.9999976501466,2|2,0:0|0:3,0:0:0:0:
39,211,127416,1,8,0:3:0:0:
48,204,127493,1,2,0:0:0:0:
58,202,127571,1,2,0:0:0:0:
72,202,127648,1,2,0:0:0:0:
83,206,127725,5,2,0:0:0:0:
46,313,127880,1,2,0:0:0:0:
188,144,128034,1,8,0:3:0:0:
205,356,128189,1,2,0:0:0:0:
67,95,128344,5,2,0:3:0:0:
340,208,128498,1,2,0:3:0:0:
29,338,128653,1,8,0:3:0:0:
168,31,128808,1,2,0:3:0:0:
377,243,128962,6,0,L|325:241,1,38.4999988250733,2|0,0:0|0:0,0:0:0:0:
217,133,129116,2,0,L|255:134,1,38.4999988250733,2|0,0:0|0:0,0:0:0:0:
338,294,129271,6,0,L|300:253,1,38.4999988250733,8|0,0:3|0:0,0:0:0:0:
236,77,129426,2,0,L|264:108,1,38.4999988250733,2|0,0:0|0:0,0:0:0:0:
301,331,129580,6,0,L|303:275,1,38.4999988250733,2|0,0:0|0:0,0:0:0:0:
345,55,129735,1,2,0:3:0:0:
492,237,129890,1,8,0:3:0:0:
241,212,130045,1,0,0:3:0:0:
492,237,130199,6,0,L|370:243,1,115.49999647522,0|0,0:3|0:0,0:0:0:0:
241,212,130818,6,0,L|352:207,1,98.9999969787599,6|0,0:0|0:0,0:0:0:0:
227,353,131127,1,8,0:3:0:0:
99,139,131282,1,8,0:0:0:0:
99,139,131359,1,8,0:0:0:0:
99,139,131437,6,0,L|200:134,1,88,8|0,0:0|0:0,0:0:0:0:
333,129,131746,1,8,0:3:0:0:
45,303,131900,1,2,0:0:0:0:
45,303,131978,1,2,0:0:0:0:
45,303,132055,6,2,L|28:214,1,76.9999976501466
186,132,132364,2,2,L|171:207,1,76.9999976501466
0,150,132674,5,2,0:0:0:0:
212,49,132829,1,2,0:0:0:0:
30,227,132983,1,8,0:3:0:0:
139,8,133138,1,2,0:0:0:0:
139,237,133293,5,2,0:3:0:0:
32,21,133447,1,2,0:3:0:0:
272,152,133602,1,8,0:3:0:0:
0,128,133756,1,2,0:3:0:0:
389,345,134065,5,2,0:3:0:0:
389,345,134220,6,0,P|396:310|387:270,1,76.9999976501466,8|0,0:3|0:0,0:0:0:0:
252,274,134530,2,0,P|280:300|316:311,1,76.9999976501466,2|0,0:0|0:0,0:0:0:0:
270,81,134839,1,8,0:3:0:0:
196,206,134994,1,0,0:3:0:0:
419,156,135148,6,0,P|429:107|421:75,1,66,2|0,0:3|0:0,0:0:0:0:
405,19,135458,6,0,L|328:13,1,76.9999976501466,8|0,0:3|0:0,0:0:0:0:
173,82,135767,2,0,L|250:75,1,76.9999976501466,2|0,0:0|0:0,0:0:0:0:
347,106,136076,1,8,0:3:0:0:
100,27,136231,1,2,0:3:0:0:
347,106,136385,6,0,L|344:186,1,66,0|0,0:3|0:0,0:0:0:0:
317,250,136695,6,0,P|277:260|235:252,1,76.9999976501466,8|0,0:3|0:0,0:0:0:0:
92,186,137004,2,0,P|132:176|174:184,1,76.9999976501466,2|0,0:0|0:0,0:0:0:0:
128,290,137313,5,8,0:3:0:0:
100,306,137391,1,2,0:0:0:0:
60,316,137468,1,2,0:0:0:0:
29,311,137545,1,2,0:0:0:0:
0,292,137622,5,6,0:0:0:0:
220,52,138240,5,2,0:3:0:0:
398,268,138704,6,0,P|375:353|322:278,1,220,6|2,0:0|0:3,0:0:0:0:
423,35,139941,6,0,P|441:145|348:70,1,296.99999093628,4|0,0:0|0:0,0:0:0:0:
218,221,151230,5,2,0:0:0:0:
218,221,151540,5,8,0:0:0:0:
80,263,151849,2,2,P|77:241|81:204,1,44,2|2,0:0|0:0,0:0:0:0:
34,139,152158,2,2,P|65:128|95:131,1,44,10|2,0:0|0:0,0:0:0:0:
223,289,152467,1,2,0:0:0:0:
77,219,152777,1,8,0:0:0:0:
309,150,153086,2,2,L|297:193,1,44,2|2,0:0|0:0,0:0:0:0:
244,59,153395,1,2,0:0:0:0:
351,287,153705,5,2,0:0:0:0:
351,287,154015,1,8,0:0:0:0:
309,149,154324,2,2,P|331:146|368:150,1,44,2|2,0:0|0:0,0:0:0:0:
433,103,154633,2,2,P|444:134|441:164,1,44,10|2,0:0|0:0,0:0:0:0:
283,292,154942,1,2,0:0:0:0:
353,146,155252,1,8,0:0:0:0:
421,379,155561,2,2,L|378:366,1,44
445,253,155870,1,2,0:0:0:0:
212,322,156179,6,2,L|125:320,1,76.9999976501466,2|2,0:3|0:3,0:3:0:0:
99,187,156488,2,2,L|181:190,1,76.9999976501466,2|2,0:3|0:3,0:3:0:0:
25,232,156797,2,2,P|14:195|29:144,1,76.9999976501466,2|2,0:3|0:3,0:3:0:0:
259,191,157107,2,2,P|270:228|255:279,1,76.9999976501466,2|2,0:3|0:3,0:3:0:0:
99,187,157416,5,2,0:3:0:0:
99,187,157571,1,2,0:3:0:0:
219,117,157725,1,2,0:3:0:0:
219,117,157880,1,2,0:3:0:0:
191,287,158034,1,2,0:3:0:0:
191,287,158189,1,2,0:3:0:0:
95,104,158344,1,2,0:3:0:0:
95,104,158498,1,2,0:3:0:0:
332,262,158653,5,8,0:0:0:0:
337,282,158730,1,8,0:0:0:0:
334,305,158807,1,8,0:0:0:0:
324,323,158884,1,8,0:0:0:0:
299,344,158962,1,8,0:0:0:0:
263,349,159039,1,8,0:0:0:0:
228,342,159116,1,8,0:0:0:0:
203,322,159194,1,8,0:0:0:0:
190,294,159272,5,8,0:0:0:0:
185,261,159348,1,8,0:0:0:0:
194,231,159426,1,8,0:0:0:0:
211,205,159503,1,8,0:0:0:0:
237,183,159580,1,8,0:0:0:0:
267,152,159658,1,8,0:0:0:0:
283,111,159735,1,8,0:0:0:0:
279,69,159812,1,8,0:0:0:0:
257,32,159890,1,8,0:0:0:0:
399,47,160199,6,2,L|450:53,3,38.4999988250733
453,67,160509,5,8,0:3:0:0:
456,95,160586,1,8,0:3:0:0:
458,124,160663,1,8,0:3:0:0:
460,153,160740,1,8,0:3:0:0:
462,182,160818,1,8,0:3:0:0:
464,210,160895,1,8,0:3:0:0:
466,239,160972,1,8,0:3:0:0:
468,268,161050,1,8,0:3:0:0:
470,297,161127,1,8,0:3:0:0:
132,164,161437,5,2,0:0:0:0:
200,94,161591,1,2,0:0:0:0:
65,212,161746,6,0,L|2:206,1,38.4999988250733,6|0,0:0|0:0,0:0:0:0:
136,28,161900,1,2,0:0:0:0:
214,246,162055,2,0,P|174:260|123:246,1,76.9999976501466,8|2,0:3|0:3,0:0:0:0:
38,86,162364,5,2,0:0:0:0:
75,319,162519,1,2,0:0:0:0:
38,86,162674,5,8,0:3:0:0:
286,205,162828,1,2,0:0:0:0:
75,319,162983,2,0,P|51:258|73:203,1,115.49999647522,2|0,0:0|0:0,0:0:0:0:
86,186,163292,1,8,0:3:0:0:
108,166,163370,1,2,0:0:0:0:
138,156,163447,1,2,0:0:0:0:
171,158,163524,1,2,0:0:0:0:
198,164,163601,2,0,L|274:160,1,76.9999976501466,2|2,0:0|0:3,0:0:0:0:
172,308,163911,5,8,0:3:0:0:
248,70,164065,1,2,0:0:0:0:
172,308,164220,5,2,0:0:0:0:
67,52,164374,1,2,0:0:0:0:
274,159,164529,2,0,L|270:235,1,76.9999976501466,8|2,0:3|0:3,0:0:0:0:
60,204,164838,5,2,0:0:0:0:
347,148,164993,1,2,0:0:0:0:
60,204,165148,5,8,0:3:0:0:
253,55,165302,1,2,0:0:0:0:
291,323,165457,2,0,B|254:349|254:349|170:337,1,115.49999647522,2|0,0:0|0:0,0:0:0:0:
111,275,165766,2,0,B|147:248|147:248|231:260,1,115.49999647522,8|0,0:3|0:0,0:0:0:0:
367,334,166076,2,0,L|262:318,1,76.9999976501466,2|0,0:3|0:0,0:0:0:0:
375,100,166385,5,8,0:3:0:0:
290,322,166540,1,2,0:0:0:0:
380,104,166694,5,2,0:0:0:0:
451,350,166849,1,2,0:0:0:0:
169,189,167004,2,0,L|262:179,1,76.9999976501466,8|2,0:3|0:3,0:0:0:0:
97,307,167313,5,2,0:0:0:0:
239,71,167467,1,2,0:0:0:0:
97,307,167622,5,8,0:3:0:0:
54,26,167777,1,2,0:0:0:0:
342,176,167931,2,0,L|313:258,1,76.9999976501466,2|0,0:3|0:0,0:0:0:0:
238,72,168241,2,0,P|282:57|354:73,1,115.49999647522
496,126,168550,6,0,P|419:137|397:133,1,76.9999976501466,2|0,0:0|0:0,0:0:0:0:
481,30,168859,1,8,0:3:0:0:
403,221,169014,6,0,P|340:174|328:155,1,76.9999976501466,2|0,0:0|0:0,0:0:0:0:
512,199,169323,1,2,0:3:0:0:
132,209,169478,2,0,P|185:172|251:195,1,115.49999647522,8|0,0:3|0:0,0:0:0:0:
256,204,169787,6,0,L|258:260,1,38.4999988250733,2|2,0:0|0:0,0:0:0:0:
97,213,169941,2,0,L|93:177,1,38.4999988250733,2|2,0:0|0:0,0:0:0:0:
287,175,170096,6,0,L|289:231,1,38.4999988250733,8|2,0:3|0:0,0:0:0:0:
67,235,170251,2,0,L|63:199,1,38.4999988250733,2|2,0:0|0:0,0:0:0:0:
307,153,170405,6,0,L|309:209,1,38.4999988250733,2|2,0:0|0:0,0:0:0:0:
45,252,170560,2,0,L|41:216,1,38.4999988250733,2|2,0:0|0:0,0:0:0:0:
325,139,170715,6,0,L|328:201,1,38.4999988250733,8|2,0:3|0:0,0:0:0:0:
25,264,170869,1,0,0:0:0:0:
247,89,171024,6,0,L|254:214,1,115.49999647522,0|0,0:3|0:0,0:0:0:0:
404,242,171643,6,0,P|356:266|292:254,1,98.9999969787599,6|0,0:0|0:0,0:0:0:0:
331,32,171952,1,8,0:3:0:0:
478,208,172107,1,8,0:0:0:0:
478,208,172184,1,8,0:0:0:0:
478,208,172261,6,0,P|490:257|463:314,1,88,8|0,0:0|0:0,0:0:0:0:
323,108,172571,1,8,0:3:0:0:
255,345,172725,1,2,0:0:0:0:
255,345,172803,1,2,0:0:0:0:
255,345,172880,6,2,L|351:340,1,76.9999976501466
183,257,173189,2,2,L|104:252,1,76.9999976501466,10|2,0:3|0:0,0:0:0:0:
324,107,173498,5,2,0:0:0:0:
352,370,173653,1,2,0:0:0:0:
233,145,173807,1,8,0:3:0:0:
450,326,173962,1,2,0:0:0:0:
183,259,174117,5,2,0:3:0:0:
484,225,174271,1,2,0:3:0:0:
235,361,174426,1,8,0:3:0:0:
512,215,174581,1,2,0:3:0:0:
512,215,174890,1,2,0:0:0:0:
386,292,175045,2,0,L|293:295,1,76.9999976501466
59,175,175355,6,0,B|96:157|150:178,1,76.9999976501466,2|2,0:3|0:0,0:0:0:0:
97,284,175663,1,8,0:3:0:0:
17,89,175818,1,0,0:3:0:0:
270,120,175973,2,0,P|287:173|271:228,1,115.49999647522,2|0,0:3|0:0,0:0:0:0:
254,251,176282,6,0,L|177:245,1,76.9999976501466,8|0,0:3|0:0,0:0:0:0:
119,83,176591,2,0,L|198:93,1,76.9999976501466,2|0,0:0|0:0,0:0:0:0:
0,207,176901,1,8,0:3:0:0:
137,2,177056,1,2,0:3:0:0:
223,333,177210,2,0,L|104:322,1,115.49999647522,0|0,0:3|0:0,0:0:0:0:
75,331,177520,6,0,P|65:291|73:249,1,76.9999976501466,8|0,0:3|0:0,0:0:0:0:
287,226,177828,2,0,P|297:266|289:308,1,76.9999976501466,2|0,0:0|0:0,0:0:0:0:
219,175,178138,5,8,0:3:0:0:
241,157,178216,1,2,0:0:0:0:
277,148,178293,1,2,0:0:0:0:
315,151,178370,1,2,0:0:0:0:
348,170,178447,5,6,0:0:0:0:
75,331,179065,5,2,0:3:0:0:
102,30,179529,6,0,P|161:97|72:108,1,220,6|2,0:0|0:3,0:0:0:0:
366,296,180766,6,0,P|346:363|300:320,1,148.49999546814,6|0,0:0|0:0,0:0:0:0:
286,299,181540,5,2,0:0:0:0:
278,269,181617,1,2,0:0:0:0:
274,241,181694,1,2,0:0:0:0:
272,213,181771,1,2,0:0:0:0:
275,186,181849,1,2,0:0:0:0:
283,160,181926,1,2,0:0:0:0:
297,136,182003,1,2,0:0:0:0:
314,115,182081,1,2,0:0:0:0:
331,98,182158,6,0,L|469:105,1,131.99999597168,6|2,0:0|0:3,0:0:0:0:
367,277,182467,1,8,0:3:0:0:
290,31,182622,1,0,0:0:0:0:
487,212,182777,6,0,L|476:340,1,131.99999597168,2|2,0:0|0:3,0:0:0:0:
277,241,183086,1,8,0:3:0:0:
487,212,183241,1,0,0:0:0:0:
105,102,183395,6,0,L|238:95,1,131.99999597168,2|2,0:0|0:3,0:0:0:0:
73,213,183705,1,8,0:3:0:0:
138,15,183859,1,0,0:0:0:0:
73,213,184014,5,2,0:0:0:0:
92,229,184091,1,2,0:0:0:0:
115,243,184168,1,2,0:0:0:0:
140,251,184245,1,2,0:0:0:0:
166,255,184323,1,8,0:3:0:0:
191,252,184400,1,2,0:0:0:0:
216,245,184477,1,2,0:0:0:0:
241,232,184555,1,2,0:0:0:0:
263,212,184632,5,2,0:0:0:0:
105,102,184787,1,0,0:0:0:0:
205,349,184942,1,8,0:3:0:0:
387,215,185096,2,0,P|325:194|259:214,1,131.99999597168,2|0,0:0|0:0,0:0:0:0:
326,313,185406,1,2,0:3:0:0:
476,77,185560,2,0,L|470:222,1,131.99999597168,8|0,0:3|0:0,0:0:0:0:
105,87,185870,6,2,B|149:78|149:78|188:92|188:92|239:83,1,131.99999597168,2|0,0:0|0:0,0:0:0:0:
366,104,186179,6,2,B|322:95|322:95|283:109|283:109|232:100,1,131.99999597168,8|0,0:3|0:0,0:0:0:0:
298,280,186488,5,2,0:0:0:0:
336,298,186565,1,2,0:0:0:0:
377,284,186642,1,2,0:0:0:0:
396,246,186719,1,2,0:0:0:0:
383,205,186797,1,8,0:3:0:0:
345,185,186874,1,2,0:0:0:0:
304,198,186951,1,2,0:0:0:0:
190,312,187107,5,2,0:3:0:0:
376,105,187261,1,0,0:0:0:0:
409,356,187416,1,8,0:3:0:0:
195,185,187571,1,2,0:0:0:0:
453,79,187725,6,0,B|465:127|465:127|447:165|447:165|457:216,1,131.99999597168,0|0,0:3|0:0,0:0:0:0:
118,317,188034,2,0,B|105:289|106:269|106:269|124:231|124:231|114:207|114:180,1,131.99999597168,8|0,0:3|0:0,0:0:0:0:
295,53,188344,6,0,B|298:73|287:92|287:92|305:130|305:130|304:157|293:178,1,131.99999597168,2|0,0:0|0:0,0:0:0:0:
14,288,188653,2,0,B|2:240|2:240|20:202|20:202|12:162,1,131.99999597168,8|0,0:3|0:0,0:0:0:0:
377,284,188962,5,6,0:0:0:0:
12,162,189580,5,2,0:3:0:0:
349,49,190044,6,0,L|464:236,1,220,6|2,0:0|0:3,0:0:0:0:
272,255,191282,6,0,B|148:255|148:255|255:62|255:62|358:259,1,560.999982879639,0|0,0:3|0:0,0:0:0:0:
