osu file format v14

[General]
AudioFilename: audio.mp3
AudioLeadIn: 0
PreviewTime: 119916
Countdown: 0
SampleSet: Soft
StackLeniency: 0.6
Mode: 0
LetterboxInBreaks: 0
WidescreenStoryboard: 0

[Editor]
DistanceSpacing: 1.2
BeatDivisor: 4
GridSize: 4
TimelineZoom: 1.8

[Metadata]
Title:Hi High
TitleUnicode:Hi High
Artist:LOONA
ArtistUnicode:이달의 소녀
Creator:cosmiccc
Version:FunnyA's Normal
Source:
Tags:LOOΠΔ Girl of the Month ViVi 비비 Yves 이브 JinSoul 진솔 HaSeul 하슬 Kim Lip 김립 Chuu 츄 HeeJin 희진 HyunJin 현진 Go Won 고원 Choerry 최리 Olivia Hye 올리비아 혜 YeoJin 여진 1/3 Odd Eye Circle YYXY Blockberry Creative Kpop K-pop FunnyA
BeatmapID:2105254
BeatmapSetID:835509

[Difficulty]
HPDrainRate:4
CircleSize:3.3
OverallDifficulty:5
ApproachRate:6
SliderMultiplier:1
SliderTickRate:1

[Events]
//Background and Video events
Video,556,"hi.mp4"
0,0,"loona.jpg",0,0
//Break Periods
2,80915,88325
2,141533,150180
//Storyboard Layer 0 (Background)
//Storyboard Layer 1 (Fail)
//Storyboard Layer 2 (Pass)
//Storyboard Layer 3 (Foreground)
//Storyboard Layer 4 (Overlay)
//Storyboard Sound Samples

[TimingPoints]
303,309.278350515464,4,2,1,50,1,0
19168,-100,4,2,1,60,0,0
20096,-100,4,2,1,70,0,0
49787,-100,4,2,1,60,0,0
54735,-100,4,2,1,70,0,0
58447,-100,4,2,1,5,0,0
59375,-100,4,2,1,70,0,0
59684,-100,4,2,1,80,0,1
69581,-100,4,2,1,60,0,0
70199,-100,4,2,1,80,0,1
77004,-100,4,2,1,60,0,0
90612,-100,4,2,1,70,0,0
110406,-100,4,2,1,60,0,0
115354,-100,4,2,1,70,0,0
120303,-100,4,2,1,80,0,1
130199,-100,4,2,1,60,0,0
130818,-100,4,2,1,80,0,1
137622,-100,4,2,1,60,0,0
151230,-100,4,2,1,70,0,0
161746,-100,4,2,1,80,0,1
171024,-100,4,2,1,60,0,0
171643,-100,4,2,1,80,0,1
178447,-100,4,2,1,60,0,0
181540,-100,4,2,1,70,0,0
182158,-100,4,2,1,80,0,1
188962,-100,4,2,1,60,0,0
193911,-100,4,2,1,10,0,0

[Colours]
Combo1 : 253,180,43
Combo2 : 183,0,0
Combo3 : 28,128,208
Combo4 : 247,119,173

[HitObjects]
85,72,18859,6,0,L|30:75,2,50,4|2|2,0:3|0:3|0:3,0:3:0:0:
190,128,19478,2,0,L|245:131,2,50,2|2|2,0:3|0:3|0:3,0:3:0:0:
102,209,20096,6,0,B|95:264|95:264|112:327,1,100,6|8,0:0|0:3,0:3:0:0:
213,362,20715,2,0,B|220:307|220:307|203:244,1,100,0|8,0:3|0:3,0:3:0:0:
247,218,21179,1,0,0:3:0:0:
247,218,21333,2,0,L|361:224,1,100,2|8,0:3|0:3,0:3:0:0:
467,226,21952,1,2,0:3:0:0:
409,120,22261,2,0,L|401:58,1,50,8|0,0:3|0:3,0:3:0:0:
353,35,22571,6,0,L|253:40,1,100,2|8,0:3|0:3,0:3:0:0:
194,144,23189,2,0,L|293:149,1,100,0|8,0:3|0:3,0:3:0:0:
331,196,23653,1,0,0:3:0:0:
331,196,23808,2,0,P|341:235|323:303,1,100,6|12,0:3|0:3,0:3:0:0:
217,336,24426,2,0,L|156:339,1,50,6|4,0:3|0:3,0:3:0:0:
132,289,24735,2,0,L|71:292,1,50,12|0,0:3|0:3,0:3:0:0:
43,245,25045,6,0,P|33:206|51:138,2,100,2|8|0,0:3|0:3|0:3,0:3:0:0:
157,199,25973,2,0,L|218:202,1,50,8|0,0:3|0:3,0:3:0:0:
249,158,26282,2,0,L|362:163,2,100,2|8|2,0:3|0:3|0:3,0:3:0:0:
233,277,27210,2,0,P|231:304|239:333,1,50,8|0,0:3|0:3,0:3:0:0:
293,345,27519,6,0,B|341:355|341:355|392:346,1,100,2|8,0:3|0:3,0:3:0:0:
443,237,28138,2,0,B|455:188|455:188|445:139,1,100,0|8,0:3|0:3,0:3:0:0:
428,82,28601,1,0,0:3:0:0:
428,82,28756,2,0,L|374:85,2,50,6|4|6,0:3|0:3|0:3,0:3:0:0:
342,167,29375,2,0,L|288:170,2,50,6|0|6,0:3|0:3|0:3,0:3:0:0:
251,245,29993,6,0,L|146:251,1,100,6|8,0:0|0:3,0:3:0:0:
43,304,30612,2,0,P|29:267|45:197,1,100,0|8,0:3|0:3,0:3:0:0:
72,159,31076,1,0,0:3:0:0:
72,159,31230,2,0,L|171:153,1,100,2|8,0:3|0:3,0:3:0:0:
261,72,31849,2,0,P|288:68|315:72,1,50,2|0,0:3|0:3,0:3:0:0:
362,100,32158,2,0,P|389:104|418:99,1,50,8|0,0:3|0:3,0:3:0:0:
461,134,32467,6,0,P|473:186|459:235,1,100,2|8,0:3|0:3,0:3:0:0:
352,281,33086,2,0,P|340:229|354:180,1,100,0|8,0:3|0:3,0:3:0:0:
323,131,33550,1,0,0:3:0:0:
323,131,33705,2,0,P|271:143|222:129,1,100,6|12,0:3|0:3,0:3:0:0:
177,22,34323,2,0,P|229:10|278:24,1,100,6|12,0:3|0:3,0:3:0:0:
323,130,34942,6,0,L|320:242,1,100,2|8,0:3|0:3,0:3:0:0:
227,306,35560,2,0,B|179:317|179:317|122:304,1,100,0|8,0:3|0:3,0:3:0:0:
92,258,36024,1,0,0:0:0:0:
92,258,36179,2,0,L|89:158,1,100,2|8,0:3|0:3,0:3:0:0:
146,52,36797,1,2,0:3:0:0:
259,111,37107,1,8,0:3:0:0:
365,167,37416,6,0,P|412:179|469:165,1,100,2|8,0:3|0:3,0:3:0:0:
487,224,37880,2,0,P|497:272|485:320,1,100,4|2,0:3|0:3,0:3:0:0:
446,367,38344,1,8,0:3:0:0:
326,358,38653,2,0,L|266:353,2,50,6|6|6,0:3|0:3|0:3,0:3:0:0:
247,266,39272,2,0,L|187:261,2,50,6|0|6,0:3|0:3|0:3,0:3:0:0:
191,159,39890,6,0,L|78:151,2,100,6|8|0,0:0|0:3|0:3,0:3:0:0:
287,87,40818,1,8,0:3:0:0:
379,162,41127,2,0,B|397:192|397:192|390:269,1,100,2|8,0:3|0:3,0:3:0:0:
303,338,41746,2,0,P|264:342|250:337,2,50,2|0|8,0:3|0:3|0:3,0:3:0:0:
391,256,42364,6,0,P|441:244|502:264,2,100,2|8|0,0:3|0:3|0:3,0:3:0:0:
296,181,43292,1,8,0:3:0:0:
191,121,43601,2,0,B|183:71|183:71|199:8,1,100,2|8,0:3|0:3,0:3:0:0:
315,30,44220,2,0,L|373:33,2,50,6|4|12,0:3|0:3|0:3,0:3:0:0:
373,134,44839,6,0,L|486:139,1,100,2|8,0:3|0:3,0:3:0:0:
501,191,45303,2,0,P|512:239|494:297,1,100,4|2,0:3|0:3,0:3:0:0:
463,335,45766,1,8,0:3:0:0:
368,260,46076,2,0,P|321:249|264:264,2,100,2|8|2,0:3|0:3|0:3,0:3:0:0:
319,369,47004,1,8,0:3:0:0:
212,313,47313,6,0,P|193:265|210:211,1,100,2|8,0:3|0:3,0:3:0:0:
238,170,47777,2,0,P|249:122|230:76,1,100,4|2,0:3|0:3,0:3:0:0:
189,31,48241,1,8,0:3:0:0:
308,35,48550,2,0,L|362:36,2,50,2|0|2,0:3|0:3|0:3,0:3:0:0:
392,120,49168,2,0,L|446:121,2,50,2|0|2,0:3|0:3|0:3,0:3:0:0:
460,218,49787,6,0,P|472:268|458:320,2,100,2|0|8,0:3|0:3|0:3,0:3:0:0:
349,265,50715,1,2,0:3:0:0:
250,333,51024,2,0,P|200:345|148:331,1,100,0|2,0:3|0:3,0:3:0:0:
123,217,51643,2,0,P|149:210|176:216,2,50,8|2|0,0:3|0:3|0:3,0:3:0:0:
95,100,52261,6,0,P|153:90|209:106,2,100,2|0|8,0:3|0:3|0:3,0:3:0:0:
8,183,53189,1,2,0:3:0:0:
123,217,53498,2,0,B|136:267|136:267|123:316,1,100,0|2,0:3|0:3,0:3:0:0:
235,358,54117,2,0,L|285:355,2,50,8|2|0,0:3|0:3|0:3,0:3:0:0:
304,259,54735,6,0,L|406:252,1,100,2|8,0:3|0:3,0:3:0:0:
446,210,55199,2,0,P|457:164|442:106,1,100,4|2,0:3|0:3,0:3:0:0:
399,74,55663,1,8,0:3:0:0:
279,85,55973,2,0,L|177:92,1,100,2|8,0:3|0:3,0:3:0:0:
137,134,56437,2,0,P|126:180|141:238,1,100,6|2,0:3|0:3,0:3:0:0:
184,270,56900,1,8,0:3:0:0:
297,231,57210,6,0,P|341:223|403:233,1,100,2|2,0:3|0:3,0:3:0:0:
450,206,57674,2,0,B|459:158|459:158|443:101,1,100,2|2,0:3|0:3,0:3:0:0:
350,34,58292,2,0,B|169:7|220:126|-2:72,1,350,2|0,0:3|0:3,0:3:0:0:
29,194,59684,6,0,L|42:302,1,100,6|8,0:0|0:3,0:3:0:0:
141,359,60303,2,0,L|152:259,1,100,6|8,0:3|0:3,0:3:0:0:
250,189,60921,2,0,L|263:297,1,100,4|8,0:3|0:3,0:3:0:0:
362,354,61540,2,0,L|373:254,1,100,6|8,0:3|0:3,0:3:0:0:
462,174,62158,6,0,L|511:170,2,50,6|4|12,0:3|0:3|0:3,0:3:0:0:
345,202,62777,2,0,L|295:198,2,50,6|6|12,0:3|0:3|0:3,0:3:0:0:
373,254,63241,2,0,L|362:354,1,100,6|2,0:3|0:3,0:3:0:0:
310,384,63705,1,8,0:3:0:0:
194,352,64014,1,2,0:3:0:0:
75,370,64323,2,0,L|81:309,1,50,12|4,0:3|0:3,0:3:0:0:
33,281,64632,6,0,L|44:181,1,100,6|8,0:3|0:3,0:3:0:0:
142,113,65251,2,0,L|153:213,1,100,6|8,0:3|0:3,0:3:0:0:
256,273,65870,2,0,L|267:173,1,100,4|8,0:3|0:3,0:3:0:0:
365,105,66489,2,0,L|376:205,1,100,6|8,0:3|0:3,0:3:0:0:
476,270,67107,6,0,L|486:334,2,50,6|4|12,0:3|0:3|0:3,0:3:0:0:
368,323,67725,2,0,L|378:387,2,50,6|6|12,0:3|0:3|0:3,0:3:0:0:
324,280,68189,2,0,P|279:270|212:288,1,100,6|2,0:3|0:3,0:3:0:0:
181,320,68653,1,8,0:3:0:0:
75,376,68962,1,2,0:3:0:0:
21,268,69272,2,0,L|17:210,2,50,12|4|4,0:3|0:3|0:3,0:3:0:0:
191,98,70199,6,0,B|240:84|240:84|293:97,1,100,6|8,0:0|0:3,0:3:0:0:
407,107,70818,2,0,B|394:156|394:156|356:195,1,100,4|8,0:3|0:3,0:3:0:0:
294,291,71437,2,0,B|257:255|257:255|242:203,1,100,6|8,0:3|0:3,0:3:0:0:
360,191,72055,6,0,L|412:196,2,50,6|4|12,0:3|0:3|0:3,0:3:0:0:
418,296,72674,2,0,L|470:301,2,50,6|6|12,0:3|0:3|0:3,0:3:0:0:
374,337,73138,2,0,P|317:348|265:329,1,100,6|2,0:3|0:3,0:3:0:0:
235,294,73601,1,8,0:3:0:0:
161,199,73911,1,2,0:3:0:0:
198,85,74220,6,0,P|225:78|251:82,1,50,12|4,0:3|0:3,0:3:0:0:
300,106,74529,1,6,0:3:0:0:
376,199,74839,2,0,L|371:312,1,100,8|2,0:3|0:3,0:3:0:0:
260,344,75457,2,0,P|233:351|207:347,1,50,12|6,0:3|0:3,0:3:0:0:
158,323,75766,1,4,0:3:0:0:
82,230,76076,2,0,L|87:117,1,100,8|2,0:3|0:3,0:3:0:0:
198,85,76694,1,8,0:3:0:0:
290,162,77004,6,0,P|338:175|399:158,1,100,6|0,0:0|0:3,0:3:0:0:
489,104,77622,1,2,0:3:0:0:
409,265,78086,2,0,P|330:282|255:257,1,150,6|0,0:0|0:3,0:3:0:0:
171,187,78859,1,2,0:3:0:0:
256,192,79323,12,8,80715,0:0:0:0:
142,57,89375,54,0,L|211:62,2,50,4|6|6,0:3|0:3|0:3,0:3:0:0:
67,151,89993,2,0,L|-2:156,2,50,6|0|6,0:3|0:3|0:3,0:3:0:0:
166,218,90612,6,0,P|175:267|163:330,1,100,6|8,0:0|0:3,0:3:0:0:
277,268,91230,2,0,P|326:259|389:271,1,100,0|8,0:3|0:3,0:3:0:0:
406,214,91694,1,0,0:3:0:0:
406,214,91849,2,0,P|412:164|403:115,1,100,2|8,0:3|0:3,0:3:0:0:
317,32,92467,2,0,P|290:29|259:35,1,50,2|0,0:3|0:3,0:3:0:0:
218,67,92777,2,0,P|193:70|168:67,1,50,8|0,0:3|0:3,0:3:0:0:
119,101,93086,6,0,L|129:208,1,100,2|8,0:3|0:3,0:3:0:0:
225,271,93705,2,0,L|234:171,1,100,0|8,0:3|0:3,0:3:0:0:
276,128,94168,1,0,0:3:0:0:
276,128,94323,2,0,B|325:119|325:119|379:129,1,100,6|12,0:3|0:3,0:3:0:0:
423,237,94942,2,0,B|374:246|374:246|320:236,1,100,6|12,0:3|0:3,0:3:0:0:
276,128,95560,6,0,L|268:21,1,100,2|8,0:3|0:3,0:3:0:0:
154,67,96179,2,0,L|55:74,1,100,0|8,0:3|0:3,0:3:0:0:
29,129,96643,1,0,0:0:0:0:
29,129,96797,2,0,P|15:180|31:233,1,100,2|8,0:3|0:3,0:3:0:0:
131,281,97416,1,2,0:3:0:0:
213,193,97725,1,8,0:3:0:0:
318,250,98034,6,0,P|366:261|413:247,1,100,2|8,0:3|0:3,0:3:0:0:
453,202,98498,2,0,B|462:153|462:153|449:96,1,100,4|2,0:3|0:3,0:3:0:0:
419,55,98962,1,8,0:3:0:0:
299,67,99272,2,0,L|241:73,2,50,6|6|6,0:3|0:3|0:3,0:3:0:0:
242,172,99890,2,0,L|184:178,2,50,6|0|6,0:3|0:3|0:3,0:3:0:0:
180,275,100509,6,0,L|65:289,2,100,6|8|0,0:0|0:3|0:3,0:3:0:0:
280,341,101437,1,8,0:3:0:0:
365,256,101746,2,0,P|376:203|357:145,1,100,2|8,0:3|0:3,0:3:0:0:
285,69,102364,2,0,L|228:73,2,50,2|0|8,0:3|0:3|0:3,0:3:0:0:
365,159,102983,6,0,L|480:173,2,100,2|8|0,0:3|0:3|0:3,0:3:0:0:
246,178,103911,1,8,0:3:0:0:
137,230,104220,2,0,P|126:186|139:125,1,100,2|8,0:3|0:3,0:3:0:0:
218,45,104839,2,0,L|276:47,2,50,6|4|8,0:3|0:3|0:3,0:3:0:0:
102,16,105457,5,2,0:3:0:0:
39,118,105766,2,0,P|90:137|143:129,1,100,8|0,0:3|0:3,0:3:0:0:
218,45,106385,1,8,0:3:0:0:
272,151,106694,2,0,B|281:200|281:200|270:261,1,100,2|8,0:3|0:3,0:3:0:0:
192,339,107313,1,2,0:3:0:0:
156,224,107622,1,8,0:3:0:0:
272,249,107931,6,0,P|325:254|378:231,2,100,2|8|0,0:3|0:3|0:3,0:3:0:0:
239,133,108859,1,8,0:3:0:0:
338,65,109168,2,0,L|393:61,2,50,2|0|2,0:3|0:3|0:3,0:3:0:0:
412,159,109787,2,0,L|467:155,2,50,2|0|2,0:3|0:3|0:3,0:3:0:0:
496,244,110406,6,0,B|505:293|505:293|491:350,2,100,2|0|8,0:3|0:3|0:3,0:3:0:0:
412,159,111333,1,2,0:3:0:0:
322,239,111643,2,0,P|267:247|210:234,1,100,0|0,0:3|0:3,0:3:0:0:
188,124,112261,2,0,P|243:116|300:129,1,100,8|0,0:3|0:3,0:3:0:0:
322,239,112880,6,0,B|331:288|331:288|317:345,2,100,2|0|8,0:3|0:3|0:3,0:3:0:0:
286,123,113807,1,2,0:3:0:0:
188,52,114117,2,0,L|72:58,1,100,0|0,0:3|0:3,0:3:0:0:
79,176,114735,2,0,L|178:170,1,100,8|0,0:3|0:3,0:3:0:0:
286,123,115354,6,0,B|336:134|336:134|392:123,1,100,2|8,0:3|0:3,0:3:0:0:
433,158,115818,2,0,B|442:205|442:205|431:255,1,100,4|2,0:3|0:3,0:3:0:0:
386,296,116282,1,8,0:3:0:0:
270,265,116591,2,0,B|220:254|220:254|164:265,1,100,2|8,0:3|0:3,0:3:0:0:
123,230,117055,2,0,B|113:182|113:182|124:132,1,100,6|2,0:3|0:3,0:3:0:0:
170,92,117519,1,8,0:3:0:0:
273,30,117828,6,0,P|326:21|385:39,1,100,2|2,0:3|0:3,0:3:0:0:
398,84,118292,2,0,P|446:94|495:85,1,100,8|8,0:3|0:3,0:3:0:0:
441,193,118911,2,0,B|424:242|444:290|444:290|421:273|421:273|399:289|399:289|377:273|377:273|353:289|353:289|333:273|333:273|309:289|309:289|285:273|285:273|262:290|262:290|239:275|239:275,1,350,8|8,0:3|0:1,0:3:0:0:
152,192,120303,6,0,L|158:91,1,100,6|8,0:0|0:3,0:0:0:0:
260,30,120921,2,0,L|265:129,1,100,6|8,0:3|0:3,0:3:0:0:
375,178,121540,2,0,L|381:77,1,100,4|8,0:3|0:3,0:3:0:0:
483,16,122158,2,0,L|488:115,1,100,6|8,0:3|0:3,0:3:0:0:
476,235,122777,6,0,L|480:298,2,50,6|4|12,0:3|0:3|0:3,0:3:0:0:
376,301,123395,2,0,L|380:364,2,50,6|6|12,0:3|0:3|0:3,0:3:0:0:
331,260,123859,2,0,P|281:249|224:268,1,100,6|2,0:3|0:3,0:3:0:0:
191,303,124323,1,8,0:3:0:0:
96,229,124632,1,2,0:3:0:0:
60,113,124942,2,0,L|122:109,1,50,12|4,0:3|0:3,0:3:0:0:
142,59,125251,6,0,L|251:53,1,100,6|8,0:3|0:3,0:3:0:0:
305,155,125870,2,0,L|196:149,1,100,6|8,0:3|0:3,0:3:0:0:
144,253,126488,2,0,L|253:247,1,100,4|8,0:3|0:3,0:3:0:0:
307,349,127107,2,0,L|198:343,1,100,6|8,0:3|0:3,0:3:0:0:
89,365,127725,6,0,L|82:315,2,50,6|4|12,0:3|0:3|0:3,0:3:0:0:
159,268,128344,2,0,L|152:216,2,50,6|6|12,0:3|0:3|0:3,0:3:0:0:
215,247,128808,2,0,P|263:236|313:246,1,100,6|2,0:3|0:3,0:3:0:0:
369,264,129272,1,8,0:3:0:0:
464,336,129581,1,2,0:3:0:0:
480,217,129890,2,0,L|488:155,2,50,12|4|4,0:3|0:3|0:3,0:3:0:0:
283,354,130818,6,0,P|226:361|171:334,1,100,6|8,0:0|0:3,0:3:0:0:
68,324,131437,2,0,P|90:271|141:237,1,100,4|8,0:3|0:3,0:3:0:0:
201,154,132055,2,0,P|235:199|239:260,1,100,6|8,0:3|0:3,0:3:0:0:
122,244,132674,6,0,L|71:249,2,50,6|4|12,0:3|0:3|0:3,0:3:0:0:
201,154,133292,2,0,L|252:159,2,50,6|6|12,0:3|0:3|0:3,0:3:0:0:
143,137,133756,2,0,B|134:87|134:87|148:27,1,100,6|2,0:3|0:3,0:3:0:0:
200,15,134220,1,8,0:3:0:0:
311,58,134529,1,2,0:3:0:0:
367,164,134839,6,0,B|394:169|394:169|419:163,1,50,12|4,0:3|0:3,0:3:0:0:
468,134,135148,1,6,0:3:0:0:
456,253,135457,2,0,P|451:301|460:363,1,100,8|2,0:3|0:3,0:3:0:0:
339,328,136076,2,0,B|312:323|312:323|287:329,1,50,12|6,0:3|0:3,0:3:0:0:
238,358,136385,1,4,0:3:0:0:
250,239,136694,2,0,P|255:191|246:129,1,100,8|2,0:3|0:3,0:3:0:0:
163,54,137313,1,8,0:3:0:0:
280,28,137622,6,0,L|395:36,1,100,6|0,0:0|0:3,0:3:0:0:
486,89,138241,1,2,0:3:0:0:
379,234,138705,2,0,L|228:220,1,150,6|0,0:0|0:3,0:3:0:0:
130,152,139478,1,2,0:3:0:0:
256,192,139942,12,12,141333,0:0:0:0:
125,62,151230,6,0,L|244:57,1,100,2|10,0:0|0:1,0:0:0:0:
278,165,151849,2,0,L|159:160,1,100,10|10,0:0|0:1,0:0:0:0:
131,198,152313,2,0,P|114:257|144:349,1,150,4|10,0:3|0:1,0:0:0:0:
251,303,153086,2,0,B|285:297|285:297|317:307|317:307|350:301,1,100,10|10,0:0|0:1,0:0:0:0:
419,204,153705,6,0,P|428:142|412:90,1,100,2|10,0:0|0:1,0:0:0:0:
304,73,154323,2,0,P|295:135|311:187,1,100,10|10,0:0|0:1,0:0:0:0:
247,148,154787,2,0,P|196:138|90:155,1,150,4|10,0:3|0:1,0:0:0:0:
35,252,155560,2,0,B|25:300|25:300|38:357,1,100,10|10,0:0|0:1,0:0:0:0:
156,357,156179,6,0,L|259:362,2,100,2|10|10,0:3|0:1|0:0,0:0:0:0:
36,349,157107,1,10,0:1:0:0:
114,258,157416,2,0,L|217:263,2,100,2|10|10,0:0|0:1|0:0,0:0:0:0:
0,250,158344,1,10,0:1:0:0:
256,192,158653,12,2,161127,0:3:0:0:
63,55,161746,6,0,L|168:47,1,100,6|8,0:0|0:3,0:0:0:0:
245,133,162364,2,0,P|251:162|245:188,1,50,4|6,0:3|0:3,0:3:0:0:
207,227,162674,2,0,P|203:251|209:275,1,50,12|4,0:3|0:3,0:3:0:0:
258,310,162983,2,0,L|363:302,1,100,6|8,0:3|0:3,0:3:0:0:
441,217,163601,5,2,0:3:0:0:
468,99,163911,2,0,P|440:95|412:100,1,50,12|4,0:3|0:3,0:3:0:0:
371,135,164220,2,0,P|346:137|321:133,1,50,6|6,0:3|0:3,0:3:0:0:
279,91,164529,1,12,0:3:0:0:
188,170,164839,2,0,L|193:220,1,50,4|6,0:3|0:3,0:3:0:0:
158,268,165148,2,0,L|163:318,1,50,12|4,0:3|0:3,0:3:0:0:
122,362,165457,2,0,P|70:374|24:363,1,100,6|8,0:3|0:3,0:3:0:0:
70,252,166076,5,2,0:3:0:0:
136,151,166385,2,0,L|189:154,1,50,12|4,0:3|0:3,0:3:0:0:
219,103,166694,2,0,L|272:106,1,50,6|6,0:3|0:3,0:3:0:0:
304,56,167004,1,12,0:3:0:0:
379,148,167313,2,0,P|385:177|378:203,1,50,4|6,0:3|0:3,0:3:0:0:
347,246,167622,2,0,P|342:270|348:294,1,50,12|4,0:3|0:3,0:3:0:0:
308,338,167931,2,0,B|257:346|257:346|198:337,1,100,6|8,0:3|0:3,0:3:0:0:
144,237,168550,6,0,B|195:229|195:229|254:238,1,100,2|8,0:3|0:3,0:3:0:0:
280,189,169014,2,0,P|289:143|280:88,1,100,4|2,0:3|0:3,0:3:0:0:
240,46,169478,1,8,0:3:0:0:
120,53,169787,2,0,L|66:56,2,50,4|6|12,0:3|0:3|0:3,0:3:0:0:
83,167,170406,2,0,L|29:170,2,50,6|0|12,0:3|0:3|0:3,0:3:0:0:
120,280,171024,1,4,0:3:0:0:
359,299,171643,22,8,P|362:245|355:187,1,100,6|8,0:0|0:3,0:3:0:0:
251,142,172261,2,0,P|248:196|255:254,1,100,4|8,0:3|0:3,0:3:0:0:
145,295,172880,2,0,P|148:241|141:183,1,100,6|8,0:3|0:3,0:3:0:0:
52,116,173498,6,0,L|-3:122,2,50,6|4|12,0:3|0:3|0:3,0:3:0:0:
136,22,174117,2,0,L|81:28,2,50,6|6|12,0:3|0:3|0:3,0:3:0:0:
176,66,174581,2,0,P|230:81|286:63,1,100,6|2,0:3|0:3,0:3:0:0:
317,31,175045,1,8,0:3:0:0:
403,113,175354,1,2,0:3:0:0:
321,201,175663,6,0,P|318:232|324:256,1,50,12|4,0:3|0:3,0:3:0:0:
355,300,175973,1,6,0:3:0:0:
248,354,176282,2,0,P|197:364|149:353,1,100,8|2,0:3|0:3,0:3:0:0:
199,244,176900,2,0,P|202:213|196:189,1,50,12|6,0:3|0:3,0:3:0:0:
165,145,177210,1,4,0:3:0:0:
272,91,177519,2,0,P|323:81|371:92,1,100,8|2,0:3|0:3,0:3:0:0:
476,146,178138,1,8,0:3:0:0:
378,216,178447,6,0,L|383:320,1,100,6|0,0:0|0:3,0:3:0:0:
271,360,179065,1,2,0:3:0:0:
104,292,179529,2,0,L|96:132,1,150,6|0,0:0|0:3,0:3:0:0:
194,71,180303,1,2,0:3:0:0:
333,183,180766,2,0,P|391:194|471:150,1,150,6|0,0:0|0:3,0:3:0:0:
380,70,181540,1,6,0:3:0:0:
140,80,182158,6,0,L|31:84,1,100,6|8,0:0|0:3,0:3:0:0:
93,191,182777,2,0,L|192:187,1,100,4|8,0:3|0:3,0:3:0:0:
152,300,183395,2,0,L|52:303,1,100,6|8,0:3|0:3,0:3:0:0:
93,191,184014,6,0,P|98:141|90:82,1,100,6|8,0:3|0:3,0:3:0:0:
204,50,184632,2,0,P|199:100|207:159,1,100,6|8,0:3|0:3,0:3:0:0:
249,188,185096,2,0,B|299:198|299:198|357:186,1,100,6|2,0:3|0:3,0:3:0:0:
392,149,185560,1,12,0:3:0:0:
452,252,185870,1,6,0:3:0:0:
384,351,186179,1,12,0:3:0:0:
264,344,186488,6,0,L|163:339,1,100,6|8,0:3|0:3,0:3:0:0:
106,233,187107,2,0,L|207:238,1,100,6|8,0:3|0:3,0:3:0:0:
268,135,187725,2,0,L|167:130,1,100,4|8,0:3|0:3,0:3:0:0:
110,24,188344,2,0,L|211:29,1,100,6|8,0:3|0:3,0:3:0:0:
268,135,188962,6,0,P|279:183|258:247,1,100,6|0,0:0|0:3,0:3:0:0:
205,334,189581,1,2,0:3:0:0:
366,255,190045,2,0,P|381:189|359:94,1,150,6|0,0:0|0:3,0:3:0:0:
286,19,190818,1,2,0:3:0:0:
256,192,191282,12,0,192055,0:3:0:0:
