osu file format v14

[General]
AudioFilename: audio.mp3
AudioLeadIn: 0
PreviewTime: 119916
Countdown: 0
SampleSet: Soft
StackLeniency: 0.3
Mode: 0
LetterboxInBreaks: 0
WidescreenStoryboard: 0

[Editor]
Bookmarks: 72488,73725,74344,83622,123519,144241
DistanceSpacing: 1.6
BeatDivisor: 4
GridSize: 4
TimelineZoom: 2.2

[Metadata]
Title:Hi High
TitleUnicode:Hi High
Artist:LOONA
ArtistUnicode:이달의 소녀
Creator:cosmiccc
Version:FunnyA's Extra
Source:
Tags:LOOΠΔ Girl of the Month ViVi 비비 Yves 이브 JinSoul 진솔 HaSeul 하슬 Kim Lip 김립 Chuu 츄 HeeJin 희진 HyunJin 현진 Go Won 고원 Choerry 최리 Olivia Hye 올리비아 혜 YeoJin 여진 1/3 Odd Eye Circle YYXY Blockberry Creative Kpop K-pop FunnyA
BeatmapID:1938987
BeatmapSetID:835509

[Difficulty]
HPDrainRate:6
CircleSize:4
OverallDifficulty:8
ApproachRate:9.2
SliderMultiplier:1.3
SliderTickRate:1

[Events]
//Background and Video events
Video,556,"hi.mp4"
0,0,"loona.jpg",0,0
//Break Periods
2,80914,88805
2,141533,150660
//Storyboard Layer 0 (Background)
//Storyboard Layer 1 (Fail)
//Storyboard Layer 2 (Pass)
//Storyboard Layer 3 (Foreground)
//Storyboard Layer 4 (Overlay)
//Storyboard Sound Samples

[TimingPoints]
303,309.278350515464,4,2,1,50,1,0
17622,-333.333333333333,4,2,1,50,0,0
17777,-333.333333333333,4,2,1,5,0,0
18859,-100,4,2,1,60,0,0
20096,-100,4,2,1,70,0,0
49787,-125,4,2,1,60,0,0
54735,-100,4,2,1,70,0,0
59684,-76.9230769230769,4,2,1,80,0,1
69581,-200,4,2,1,60,0,0
69735,-200,4,2,1,5,0,0
70199,-76.9230769230769,4,2,1,80,0,1
74839,-66.6666666666667,4,2,1,80,0,1
75457,-76.9230769230769,4,2,1,80,0,1
76076,-66.6666666666667,4,2,1,80,0,1
77004,-200,4,2,1,60,0,0
79478,-200,4,2,1,5,0,0
80638,-200,4,2,1,60,0,0
89375,-100,4,2,1,60,0,0
90612,-100,4,2,1,70,0,0
110406,-125,4,2,1,60,0,0
115354,-100,4,2,1,70,0,0
119220,-66.6666666666667,4,2,1,70,0,0
120303,-76.9230769230769,4,2,1,80,0,1
130199,-200,4,2,1,60,0,0
130354,-200,4,2,1,5,0,0
130818,-76.9230769230769,4,2,1,80,0,1
135457,-66.6666666666667,4,2,1,80,0,1
136076,-76.9230769230769,4,2,1,80,0,1
136694,-66.6666666666667,4,2,1,80,0,1
137622,-200,4,2,1,60,0,0
140096,-200,4,2,1,5,0,0
141256,-200,4,2,1,60,0,0
151230,-125,4,2,1,60,0,0
158653,-100,4,2,1,70,0,0
161746,-76.9230769230769,4,2,1,80,0,1
171024,-200,4,2,1,60,0,0
171179,-200,4,2,1,5,0,0
171643,-76.9230769230769,4,2,1,80,0,1
176282,-66.6666666666667,4,2,1,80,0,1
176900,-76.9230769230769,4,2,1,80,0,1
177519,-66.6666666666667,4,2,1,80,0,1
178447,-200,4,2,1,60,0,0
181540,-76.9230769230769,4,2,1,70,0,0
182158,-76.9230769230769,4,2,1,80,0,1
188962,-200,4,2,1,60,0,0
191282,-125,4,2,1,50,0,0
191437,-125,4,2,1,5,0,0
193911,-125,4,2,1,10,0,0

[Colours]
Combo1 : 253,180,43
Combo2 : 183,0,0
Combo3 : 28,128,208
Combo4 : 247,119,173

[HitObjects]
40,107,17622,6,0,B|64:95|64:95|92:107|92:107|116:95|116:95|147:108|147:108|186:89,1,155.999995239258,4|4,0:3|0:3,0:0:0:0:
241,46,19014,1,2,0:0:0:0:
333,168,19168,5,2,0:0:0:0:
333,168,19323,1,2,0:0:0:0:
412,50,19478,5,2,0:0:0:0:
412,50,19632,1,2,0:0:0:0:
490,169,19787,5,2,0:0:0:0:
490,169,19942,1,2,0:0:0:0:
393,296,20096,6,0,P|353:304|325:292,1,65,6|0,0:0|0:0,0:0:0:0:
217,231,20406,2,0,P|257:223|285:235,1,65,8|0,0:3|0:0,0:0:0:0:
164,293,20715,1,4,0:3:0:0:
164,293,21024,2,0,B|160:325|160:325|168:365,1,65,8|0,0:3|0:0,0:0:0:0:
279,231,21333,2,0,B|295:189|295:189|284:105,1,130,2|8,0:3|0:3,0:3:0:0:
159,144,21797,1,2,0:3:0:0:
349,110,21952,2,0,L|285:105,1,65,2|0,0:3|0:3,0:3:0:0:
124,18,22261,2,0,L|189:13,1,65,8|0,0:3|0:3,0:3:0:0:
422,52,22571,6,0,P|443:110|416:178,1,130,2|8,0:3|0:3,0:3:0:0:
248,365,23189,1,0,0:3:0:0:
248,365,23498,2,0,P|244:328|252:294,1,65,8|0,0:3|0:3,0:3:0:0:
372,257,23808,5,6,0:3:0:0:
372,257,23962,1,4,0:3:0:0:
275,169,24117,1,12,0:3:0:0:
275,169,24272,1,6,0:3:0:0:
177,255,24426,1,6,0:3:0:0:
163,125,24581,1,4,0:3:0:0:
157,254,24735,1,12,0:3:0:0:
143,124,24890,1,0,0:3:0:0:
389,138,25045,6,0,P|337:176|275:169,2,130,2|8|0,0:3|0:3|0:3,0:3:0:0:
492,218,25818,1,2,0:3:0:0:
492,218,25973,2,0,B|496:254|496:254|489:287,1,65,8|0,0:3|0:3,0:3:0:0:
246,343,26282,2,0,B|300:347|300:347|331:334|331:334|372:338,2,130,2|8|2,0:3|0:3|0:3,0:3:0:0:
157,247,27055,1,0,0:3:0:0:
157,247,27210,2,0,L|234:254,1,65,8|0,0:3|0:3,0:3:0:0:
114,89,27519,6,0,L|142:149,1,65,2|0,0:3|0:3,0:3:0:0:
24,261,27828,2,0,L|62:208,1,65,8|0,0:3|0:3,0:3:0:0:
286,258,28138,2,0,L|150:247,1,130,4|8,0:3|0:3,0:3:0:0:
62,208,28601,1,0,0:3:0:0:
134,115,28756,5,6,0:3:0:0:
141,147,28911,1,4,0:3:0:0:
252,181,29065,5,6,0:3:0:0:
245,149,29220,1,0,0:3:0:0:
322,61,29375,5,6,0:3:0:0:
329,93,29530,1,0,0:3:0:0:
440,127,29684,5,6,0:3:0:0:
433,95,29839,1,0,0:3:0:0:
360,202,29993,6,0,P|354:233|362:267,1,65,6|0,0:0|0:3,0:3:0:0:
457,354,30303,2,0,P|463:323|455:289,1,65,8|0,0:3|0:3,0:3:0:0:
264,329,30612,1,4,0:3:0:0:
264,329,30921,2,0,B|230:335|230:335|191:326,1,65,8|0,0:3|0:3,0:3:0:0:
230,117,31230,2,0,B|234:175|234:175|225:191|225:191|230:244,1,130,2|8,0:3|0:3,0:3:0:0:
74,302,31694,1,2,0:3:0:0:
123,146,31849,2,0,L|130:219,1,65,2|0,0:3|0:3,0:3:0:0:
230,117,32158,2,0,L|236:52,1,65,8|0,0:3|0:3,0:3:0:0:
457,125,32467,6,0,P|400:153|338:140,1,130,2|8,0:3|0:3,0:3:0:0:
91,77,33086,1,4,0:3:0:0:
246,122,33241,1,0,0:0:0:0:
91,77,33395,2,0,L|96:147,1,65,8|0,0:3|0:3,0:3:0:0:
105,260,33705,5,6,0:3:0:0:
105,260,33859,1,4,0:3:0:0:
231,227,34014,1,12,0:3:0:0:
231,227,34168,1,6,0:3:0:0:
447,240,34323,2,0,P|404:263|357:259,1,97.5,6|0,0:3|0:3,0:3:0:0:
335,229,34632,2,0,P|333:194|336:159,1,65,8|0,0:3|0:3,0:3:0:0:
424,34,34942,6,0,P|367:61|286:43,1,130,2|8,0:3|0:3,0:3:0:0:
180,5,35406,1,0,0:3:0:0:
108,208,35560,2,0,B|98:161|98:161|110:114,1,97.5,4|0,0:3|0:3,0:3:0:0:
140,126,35870,2,0,P|187:135|214:126,1,65,8|0,0:3|0:3,0:3:0:0:
295,223,36179,2,0,B|312:282|312:282|292:356,1,130,2|8,0:3|0:3,0:3:0:0:
166,373,36643,1,2,0:3:0:0:
46,323,36797,2,0,L|36:237,1,65,2|0,0:3|0:3,0:3:0:0:
101,83,37107,2,0,L|109:148,1,65,8|0,0:3|0:3,0:3:0:0:
273,222,37416,6,0,B|306:228|306:228|335:217,1,65,2|0,0:3|0:3,0:3:0:0:
415,160,37725,1,8,0:3:0:0:
281,302,37880,6,0,B|314:308|314:308|343:297,1,65,4|0,0:3|0:3,0:3:0:0:
423,240,38189,1,2,0:3:0:0:
288,382,38344,6,0,B|321:388|321:388|350:377,1,65,8|0,0:3|0:3,0:3:0:0:
423,240,38653,5,6,0:3:0:0:
429,208,38808,1,6,0:3:0:0:
341,131,38962,5,6,0:3:0:0:
335,163,39117,1,0,0:3:0:0:
248,242,39272,5,6,0:3:0:0:
254,210,39427,1,0,0:3:0:0:
166,133,39581,5,6,0:3:0:0:
160,165,39736,1,0,0:3:0:0:
60,290,39890,6,0,P|54:258|61:227,1,65,6|0,0:0|0:3,0:3:0:0:
171,295,40199,2,0,P|176:326|170:358,1,65,8|0,0:3|0:3,0:3:0:0:
61,227,40509,1,0,0:3:0:0:
166,133,40663,1,2,0:3:0:0:
171,295,40818,1,8,0:3:0:0:
392,204,40973,6,0,B|359:213|359:213|304:197|304:197|267:207,1,130,4|0,0:3|0:3,0:3:0:0:
171,295,41437,1,8,0:3:0:0:
171,295,41591,1,2,0:3:0:0:
166,133,41746,1,2,0:3:0:0:
261,46,41900,1,0,0:3:0:0:
430,112,42055,2,0,P|400:122|368:120,1,65,8|0,0:3|0:3,0:3:0:0:
266,207,42364,6,0,B|263:243|263:243|274:278,1,65,2|0,0:3|0:3,0:3:0:0:
387,331,42674,2,0,B|390:295|390:295|379:260,1,65,8|0,0:3|0:3,0:3:0:0:
266,207,42983,1,0,0:3:0:0:
368,120,43138,1,2,0:3:0:0:
382,268,43292,1,8,0:3:0:0:
160,349,43447,6,0,P|222:368|284:351,1,130,4|4,0:3|0:3,0:3:0:0:
383,266,43911,1,12,0:3:0:0:
383,266,44065,1,6,0:3:0:0:
266,206,44220,1,6,0:3:0:0:
371,90,44375,1,4,0:3:0:0:
183,101,44529,1,12,0:3:0:0:
183,101,44839,6,0,P|176:138|191:180,1,65,2|0,0:3|0:3,0:3:0:0:
266,206,45148,1,8,0:3:0:0:
435,87,45303,2,0,L|363:90,1,65,4|0,0:3|0:3,0:3:0:0:
442,197,45612,2,0,L|506:194,1,65,2|8,0:3|0:3,0:3:0:0:
345,317,45921,2,0,P|286:342|209:326,1,130,4|0,0:3|0:3,0:3:0:0:
139,232,46385,2,0,P|135:195|141:161,1,65,8|2,0:3|0:3,0:3:0:0:
266,141,46694,2,0,P|270:178|264:212,1,65,2|0,0:3|0:3,0:3:0:0:
192,96,47004,2,0,P|188:59|194:25,1,65,8|0,0:3|0:3,0:3:0:0:
388,129,47313,6,0,B|334:156|334:156|266:141,1,130,2|8,0:3|0:3,0:3:0:0:
127,27,47777,2,0,L|192:32,1,65,4|0,0:3|0:3,0:3:0:0:
118,139,48086,2,0,L|53:134,1,65,2|8,0:3|0:3,0:3:0:0:
109,252,48395,1,0,0:3:0:0:
281,320,48550,6,0,B|251:329|251:329|218:322,1,65,2|0,0:3|0:3,0:3:0:0:
382,310,48859,2,0,B|374:340|374:340|352:366,1,65,2|0,0:3|0:3,0:3:0:0:
424,216,49168,2,0,B|446:238|446:238|457:271,1,65,2|0,0:3|0:3,0:3:0:0:
362,132,49478,2,0,B|393:123|393:123|426:131,1,65,2|0,0:3|0:3,0:3:0:0:
271,101,49787,6,0,P|267:67|276:40,2,52,2|0|0,0:0|0:3|0:3,0:3:0:0:
362,132,50251,1,2,0:3:0:0:
210,171,50406,2,0,P|179:177|152:171,2,52,8|0|2,0:3|0:3|0:3,0:3:0:0:
67,235,50870,2,0,B|46:263|46:263|52:342,1,104,4|0,0:3|0:3,0:3:0:0:
148,366,51333,1,0,0:3:0:0:
148,366,51488,1,0,0:3:0:0:
245,270,51643,2,0,L|242:322,1,52,8|2,0:3|0:3,0:3:0:0:
337,364,51952,1,0,0:3:0:0:
337,364,52261,6,0,P|363:368|407:358,2,52,2|0|0,0:3|0:3|0:3,0:3:0:0:
242,322,52725,1,2,0:3:0:0:
364,198,52880,2,0,P|367:224|364:250,2,52,8|0|2,0:3|0:3|0:3,0:3:0:0:
163,206,53344,2,0,P|211:225|263:220,1,104,4|0,0:3|0:3,0:3:0:0:
294,120,53808,1,0,0:3:0:0:
294,120,53962,1,0,0:3:0:0:
364,249,54117,2,0,P|401:254|431:243,1,52,8|2,0:3|0:3,0:3:0:0:
492,180,54426,1,0,0:3:0:0:
492,180,54735,6,0,P|496:143|488:100,1,65,2|0,0:3|0:3,0:3:0:0:
391,31,55045,1,8,0:3:0:0:
364,249,55199,2,0,P|368:212|360:169,1,65,4|0,0:3|0:3,0:3:0:0:
263,100,55509,1,2,0:3:0:0:
106,188,55663,2,0,P|137:197|169:189,1,65,8|0,0:3|0:3,0:3:0:0:
325,102,55973,6,0,P|293:93|262:101,1,65,2|0,0:3|0:3,0:3:0:0:
169,188,56282,1,8,0:3:0:0:
258,344,56437,2,0,P|267:313|259:282,1,65,6|0,0:3|0:3,0:3:0:0:
131,310,56746,1,2,0:3:0:0:
345,363,56900,2,0,B|377:367|377:367|408:357,1,65,8|8,0:3|0:1,0:3:0:0:
424,164,57210,5,2,0:3:0:0:
259,282,57364,1,2,0:3:0:0:
318,76,57519,1,2,0:3:0:0:
367,280,57673,1,2,0:3:0:0:
211,160,57828,5,2,0:3:0:0:
189,156,57905,1,2,0:3:0:0:
168,157,57982,1,2,0:3:0:0:
147,162,58059,1,2,0:3:0:0:
125,164,58137,1,2,0:3:0:0:
104,162,58214,1,2,0:3:0:0:
83,156,58291,1,2,0:3:0:0:
256,192,58370,12,0,59375,0:3:0:0:
76,65,59684,6,0,L|85:162,1,84.4999961318971,6|0,0:0|0:3,0:3:0:0:
189,241,59993,1,12,0:3:0:0:
302,155,60147,1,4,0:3:0:0:
189,241,60303,6,0,L|196:156,1,84.4999961318971,6|2,0:3|0:3,0:3:0:0:
302,65,60612,1,12,0:3:0:0:
156,13,60766,1,6,0:3:0:0:
302,65,60922,6,0,L|309:150,1,84.4999961318971,4|2,0:3|0:3,0:3:0:0:
399,232,61230,1,12,0:3:0:0:
196,156,61385,1,4,0:3:0:0:
412,241,61540,6,0,L|419:156,1,84.4999961318971,6|0,0:3|0:3,0:3:0:0:
196,156,61849,2,0,L|189:241,1,84.4999961318971,8|0,0:3|0:3,0:3:0:0:
307,312,62158,5,6,0:3:0:0:
307,312,62313,1,4,0:3:0:0:
419,157,62467,1,12,0:3:0:0:
196,156,62622,1,4,0:3:0:0:
394,259,62777,5,6,0:3:0:0:
378,48,62931,1,6,0:3:0:0:
305,192,63086,1,12,0:3:0:0:
106,134,63241,6,0,P|146:79|246:81,1,168.999992263794,6|2,0:3|0:3,0:3:0:0:
346,193,63705,1,12,0:3:0:0:
336,195,63783,1,4,0:3:0:0:
325,195,63860,1,4,0:3:0:0:
315,194,63937,1,4,0:3:0:0:
305,192,64014,1,6,0:3:0:0:
106,134,64168,1,4,0:3:0:0:
179,324,64323,2,0,B|190:285|190:285|181:242,1,84.4999961318971,12|0,0:3|0:3,0:3:0:0:
59,62,64632,6,0,P|100:47|148:60,1,84.4999961318971,6|0,0:3|0:3,0:3:0:0:
218,159,64942,1,12,0:3:0:0:
115,131,65096,1,4,0:3:0:0:
299,152,65251,6,0,P|258:167|210:154,1,84.4999961318971,6|2,0:3|0:3,0:3:0:0:
140,54,65560,1,12,0:3:0:0:
140,54,65714,1,6,0:3:0:0:
63,265,65870,6,0,P|104:250|152:263,1,84.4999961318971,4|2,0:3|0:3,0:3:0:0:
251,284,66180,1,12,0:3:0:0:
109,340,66334,1,4,0:3:0:0:
303,355,66489,6,0,P|262:370|214:357,1,84.4999961318971,6|0,0:3|0:3,0:3:0:0:
143,257,66797,1,8,0:3:0:0:
452,122,67107,5,6,0:3:0:0:
308,210,67261,1,4,0:3:0:0:
381,17,67416,1,12,0:3:0:0:
413,219,67571,1,4,0:3:0:0:
280,63,67725,5,6,0:3:0:0:
452,122,67880,1,6,0:3:0:0:
384,308,68034,1,12,0:3:0:0:
212,249,68189,6,0,P|141:242|68:311,1,168.999992263794,6|2,0:3|0:3,0:3:0:0:
284,289,68653,2,0,P|294:244|278:203,1,84.4999961318971,8|0,0:3|0:3,0:3:0:0:
192,64,68962,2,0,P|182:109|198:150,1,84.4999961318971,2|0,0:3|0:3,0:3:0:0:
357,95,69272,1,12,0:3:0:0:
282,209,69426,1,4,0:3:0:0:
192,64,69581,6,0,P|141:49|77:69,1,113.75,4|0,0:3|0:3,0:3:0:0:
24,176,70199,6,0,B|16:218|16:218|25:273,1,84.4999961318971,6|2,0:0|0:3,0:3:0:0:
172,356,70509,1,8,0:3:0:0:
309,255,70663,1,6,0:3:0:0:
309,255,70741,1,4,0:3:0:0:
309,255,70818,6,0,B|267:247|267:247|225:253,1,84.4999961318971,4|2,0:3|0:3,0:3:0:0:
76,360,71127,1,8,0:3:0:0:
51,171,71282,1,4,0:3:0:0:
51,171,71359,1,4,0:3:0:0:
51,171,71437,6,0,P|41:123|55:82,1,84.4999961318971,6|0,0:3|0:3,0:3:0:0:
215,50,71746,2,0,P|225:98|211:139,1,84.4999961318971,8|0,0:3|0:3,0:3:0:0:
149,296,72055,5,6,0:3:0:0:
315,256,72210,1,4,0:3:0:0:
325,88,72364,1,12,0:3:0:0:
222,227,72519,1,4,0:3:0:0:
382,189,72674,5,6,0:3:0:0:
215,131,72828,1,6,0:3:0:0:
242,325,72983,1,12,0:3:0:0:
462,241,73138,6,0,P|392:283|315:256,1,168.999992263794,6|2,0:3|0:3,0:3:0:0:
380,106,73601,2,0,B|391:148|391:148|382:189,1,84.4999961318971,8|0,0:3|0:3,0:3:0:0:
216,213,73911,2,0,B|205:171|205:171|214:130,1,84.4999961318971,2|0,0:3|0:3,0:3:0:0:
314,255,74220,5,12,0:3:0:0:
314,255,74375,1,4,0:3:0:0:
167,337,74529,2,0,P|123:348|79:336,1,84.4999961318971,6|0,0:3|0:3,0:3:0:0:
9,157,74839,6,0,L|16:263,1,97.50000371933,8|0,0:3|0:3,0:3:0:0:
113,108,75148,2,0,L|120:214,1,97.50000371933,2|2,0:3|0:3,0:3:0:0:
85,339,75457,5,12,0:3:0:0:
85,339,75612,1,6,0:3:0:0:
239,273,75766,2,0,P|288:263|323:273,1,84.4999961318971,4|0,0:3|0:3,0:3:0:0:
495,301,76076,6,0,L|501:196,1,97.50000371933,8|0,0:3|0:3,0:3:0:0:
406,352,76385,2,0,L|412:247,1,97.50000371933,2|0,0:3|0:3,0:3:0:0:
352,89,76694,1,8,0:3:0:0:
427,178,76849,1,0,0:3:0:0:
293,169,77004,6,0,L|326:172,1,32.5,6|0,0:0|0:3,0:3:0:0:
199,229,77313,2,0,L|232:232,1,32.5,0|0,0:3|0:3,0:3:0:0:
144,345,77622,1,2,0:3:0:0:
144,345,78086,6,0,P|115:351|76:344,1,65,6|0,0:0|0:3,0:3:0:0:
20,268,78550,2,0,L|16:223,1,32.5,0|0,0:3|0:3,0:3:0:0:
71,154,78859,2,0,P|110:148|144:160,1,65,2|0,0:3|0:3,0:3:0:0:
175,243,79323,6,0,P|231:158|99:64,1,292.5,6|8,0:0|0:0,0:3:0:0:
79,106,89375,5,4,0:3:0:0:
87,137,89529,1,6,0:3:0:0:
182,204,89684,5,6,0:3:0:0:
190,173,89838,1,0,0:3:0:0:
264,82,89993,5,6,0:3:0:0:
272,113,90147,1,0,0:3:0:0:
367,180,90302,5,6,0:3:0:0:
375,149,90456,1,0,0:3:0:0:
398,278,90612,6,0,P|366:285|329:276,1,65,6|0,0:0|0:0,0:0:0:0:
182,204,90921,2,0,P|213:197|245:203,1,65,8|0,0:3|0:0,0:0:0:0:
215,330,91230,1,0,0:3:0:0:
215,330,91385,1,2,0:3:0:0:
334,278,91540,1,8,0:3:0:0:
377,156,91694,1,0,0:3:0:0:
201,83,91849,6,0,B|175:117|175:117|183:222,1,130,2|8,0:3|0:3,0:3:0:0:
215,330,92313,1,2,0:3:0:0:
338,369,92467,2,0,L|408:362,1,65,2|0,0:3|0:3,0:3:0:0:
480,243,92777,2,0,L|410:236,1,65,8|0,0:3|0:3,0:3:0:0:
215,330,93086,6,0,B|152:345|152:345|85:326,1,130,2|8,0:3|0:3,0:3:0:0:
153,74,93705,1,0,0:3:0:0:
153,74,94014,2,0,P|158:112|150:151,1,65,8|0,0:3|0:3,0:3:0:0:
40,202,94323,5,6,0:3:0:0:
40,202,94478,1,4,0:3:0:0:
148,273,94632,1,12,0:3:0:0:
148,273,94787,1,4,0:3:0:0:
349,196,94942,2,0,P|302:186|256:200,1,97.5,6|0,0:3|0:3,0:3:0:0:
246,241,95251,2,0,L|253:314,1,65,8|0,0:3|0:3,0:3:0:0:
436,258,95560,6,0,P|452:216|428:128,1,130,2|8,0:3|0:3,0:3:0:0:
331,54,96024,1,0,0:3:0:0:
123,100,96179,2,0,B|176:122|176:122|217:118,1,97.5,4|0,0:3|0:3,0:3:0:0:
237,155,96488,2,0,P|244:190|234:227,1,65,8|0,0:3|0:3,0:3:0:0:
148,371,96797,6,0,P|126:311|146:251,1,130,2|8,0:3|0:3,0:3:0:0:
238,218,97261,1,2,0:3:0:0:
379,279,97416,2,0,P|347:286|316:280,1,65,2|0,0:3|0:3,0:3:0:0:
443,132,97725,2,0,P|474:125|506:131,1,65,8|0,0:3|0:3,0:3:0:0:
351,165,98034,6,0,B|345:131|345:131|353:100,1,65,2|0,0:3|0:3,0:3:0:0:
381,7,98344,1,8,0:3:0:0:
263,169,98498,6,0,B|257:135|257:135|265:104,1,65,4|0,0:3|0:3,0:3:0:0:
293,11,98808,1,2,0:3:0:0:
172,171,98962,6,0,B|166:137|166:137|174:106,1,65,8|0,0:3|0:3,0:3:0:0:
293,11,99272,5,6,0:3:0:0:
324,18,99426,1,4,0:3:0:0:
424,78,99581,5,6,0:3:0:0:
393,85,99735,1,0,0:3:0:0:
281,120,99890,5,6,0:3:0:0:
312,127,100044,1,0,0:3:0:0:
412,187,100199,5,6,0:3:0:0:
381,194,100353,1,0,0:3:0:0:
279,276,100509,6,0,B|272:309|272:309|280:342,1,65,6|0,0:0|0:3,0:3:0:0:
406,368,100818,2,0,B|413:335|413:335|405:302,1,65,8|0,0:3|0:3,0:3:0:0:
381,194,101127,1,0,0:3:0:0:
248,286,101282,1,2,0:3:0:0:
228,122,101437,1,8,0:3:0:0:
503,192,101591,6,0,P|442:211|381:194,1,130,4|0,0:3|0:3,0:3:0:0:
440,100,102055,1,8,0:3:0:0:
440,100,102210,1,2,0:3:0:0:
281,208,102364,2,0,B|274:242|274:242|283:273,1,65,2|0,0:3|0:3,0:3:0:0:
426,348,102674,1,8,0:3:0:0:
426,348,102983,6,0,L|499:343,1,65,2|0,0:3|0:3,0:3:0:0:
452,218,103292,2,0,L|379:213,1,65,8|0,0:3|0:3,0:3:0:0:
282,271,103601,1,0,0:3:0:0:
254,116,103756,1,2,0:3:0:0:
387,213,103911,1,8,0:3:0:0:
217,365,104065,6,0,P|154:377|85:362,1,130,4|0,0:3|0:3,0:3:0:0:
12,259,104529,1,8,0:3:0:0:
12,259,104684,1,2,0:3:0:0:
140,174,104839,2,0,B|145:207|145:207|140:239,1,65,2|0,0:3|0:3,0:3:0:0:
44,150,105148,2,0,B|39:117|39:117|44:85,1,65,8|0,0:3|0:3,0:3:0:0:
235,141,105457,5,2,0:3:0:0:
235,141,105766,2,0,P|270:148|306:139,1,65,8|0,0:3|0:3,0:3:0:0:
478,82,106076,2,0,P|418:61|356:80,1,130,4|8,0:3|0:3,0:3:0:0:
417,174,106540,1,0,0:3:0:0:
417,174,106694,2,0,P|424:209|414:244,1,65,2|0,0:3|0:3,0:3:0:0:
310,313,107004,2,0,B|253:303|260:352|186:338,1,130,8|2,0:3|0:3,0:3:0:0:
217,179,107467,1,0,0:3:0:0:
218,180,107622,2,0,P|224:211|218:243,1,65,8|0,0:3|0:3,0:3:0:0:
159,74,107931,6,0,P|184:52|215:42,1,65,2|0,0:3|0:3,0:3:0:0:
105,177,108241,2,0,P|74:166|50:145,1,65,8|0,0:3|0:3,0:3:0:0:
218,180,108550,2,0,P|224:211|218:243,1,65,0|2,0:3|0:3,0:3:0:0:
104,240,108859,2,0,P|98:209|104:177,1,65,8|0,0:3|0:3,0:3:0:0:
225,338,109168,6,0,L|161:331,1,65,2|0,0:3|0:3,0:3:0:0:
343,259,109478,2,0,L|284:285,1,65,2|0,0:3|0:3,0:3:0:0:
398,130,109787,2,0,L|359:182,1,65,2|0,0:3|0:3,0:3:0:0:
360,0,110096,2,0,L|353:65,1,65,2|0,0:3|0:3,0:3:0:0:
248,135,110406,6,0,P|210:140|179:125,2,52,2|0|0,0:0|0:3|0:3,0:3:0:0:
222,44,110870,1,2,0:3:0:0:
95,187,111024,2,0,P|90:212|96:237,2,52,8|0|2,0:3|0:3|0:3,0:3:0:0:
269,312,111488,6,0,B|208:318|208:318|170:299,1,104,4|2,0:3|0:3,0:3:0:0:
94,238,111952,1,0,0:3:0:0:
94,238,112107,1,0,0:3:0:0:
234,110,112261,2,0,B|230:150|230:150|234:171|234:171|228:215,1,104,8|0,0:3|0:3,0:3:0:0:
228,213,112880,6,0,L|292:208,2,52,2|0|0,0:3|0:3|0:3,0:3:0:0:
169,298,113344,1,2,0:3:0:0:
337,286,113498,2,0,L|400:280,2,52,8|0|2,0:3|0:3|0:3,0:3:0:0:
484,237,113962,6,0,P|494:287|479:337,1,104,4|2,0:3|0:3,0:3:0:0:
394,377,114426,1,0,0:3:0:0:
394,377,114581,1,0,0:3:0:0:
229,263,114735,2,0,B|223:235|223:235|228:212,1,52,8|2,0:3|0:3,0:3:0:0:
313,151,115045,1,0,0:3:0:0:
313,151,115354,6,0,P|344:159|376:151,1,65,2|0,0:3|0:3,0:3:0:0:
473,65,115663,1,8,0:3:0:0:
344,245,115818,2,0,P|375:253|407:245,1,65,4|0,0:3|0:3,0:3:0:0:
504,159,116127,1,2,0:3:0:0:
377,87,116282,2,0,B|371:118|371:118|376:151,1,65,8|0,0:3|0:3,0:3:0:0:
508,346,116591,6,0,B|515:316|515:316|510:283,1,65,2|0,0:3|0:3,0:3:0:0:
406,245,116900,1,8,0:3:0:0:
270,336,117055,2,0,P|301:341|333:335,1,65,6|0,0:3|0:3,0:3:0:0:
375,151,117364,1,2,0:3:0:0:
202,183,117519,2,0,B|195:216|195:216|205:254,1,65,8|8,0:3|0:1,0:3:0:0:
335,335,117828,5,2,0:3:0:0:
335,335,117983,1,2,0:3:0:0:
375,151,118138,1,2,0:3:0:0:
202,246,118292,1,8,0:3:0:0:
247,76,118447,5,0,0:3:0:0:
302,241,118601,1,8,0:3:0:0:
453,60,118756,1,0,0:3:0:0:
251,168,118911,1,8,0:3:0:0:
251,168,119220,6,0,P|225:173|200:167,5,48.750001859665,8|8|8|8|8|8,0:1|0:1|0:1|0:1|0:1|0:1,0:1:0:0:
186,186,119684,5,8,0:1:0:0:
177,203,119761,1,8,0:1:0:0:
170,221,119838,1,8,0:1:0:0:
166,240,119915,1,8,0:1:0:0:
165,260,119993,5,8,0:1:0:0:
167,279,120070,1,8,0:1:0:0:
171,298,120147,1,8,0:1:0:0:
177,316,120225,1,8,0:1:0:0:
187,334,120303,6,0,L|285:326,1,84.4999961318971,6|0,0:0|0:3,0:3:0:0:
328,218,120612,1,12,0:3:0:0:
365,357,120766,1,4,0:3:0:0:
412,224,120921,6,0,L|314:216,1,84.4999961318971,6|2,0:3|0:3,0:3:0:0:
189,152,121230,1,12,0:3:0:0:
297,56,121384,1,6,0:3:0:0:
189,152,121540,6,0,L|287:144,1,84.4999961318971,4|2,0:3|0:3,0:3:0:0:
134,44,121849,1,12,0:3:0:0:
134,44,122003,1,4,0:3:0:0:
382,63,122158,6,0,L|284:55,1,84.4999961318971,6|0,0:3|0:3,0:3:0:0:
295,239,122467,2,0,L|380:246,1,84.4999961318971,8|0,0:3|0:3,0:3:0:0:
463,161,122777,5,6,0:3:0:0:
463,161,122931,1,4,0:3:0:0:
297,56,123086,1,12,0:3:0:0:
295,239,123241,1,4,0:3:0:0:
392,88,123395,5,6,0:3:0:0:
216,168,123550,1,6,0:3:0:0:
214,351,123705,1,12,0:3:0:0:
454,263,123859,6,0,B|409:232|409:232|296:239,1,168.999992263794,6|2,0:3|0:3,0:3:0:0:
174,172,124323,1,12,0:3:0:0:
184,170,124400,1,4,0:3:0:0:
194,169,124477,1,4,0:3:0:0:
205,168,124554,1,4,0:3:0:0:
215,167,124632,1,6,0:3:0:0:
384,144,124787,1,4,0:3:0:0:
296,322,124942,2,0,B|287:284|287:284|295:240,1,84.4999961318971,12|4,0:3|0:3,0:3:0:0:
468,141,125251,6,0,B|381:144,1,84.4999961318971,6|0,0:3|0:3,0:3:0:0:
295,239,125560,1,12,0:3:0:0:
295,239,125714,1,4,0:3:0:0:
295,25,125870,6,0,B|379:27,1,84.4999961318971,6|2,0:3|0:3,0:3:0:0:
383,143,126179,1,12,0:3:0:0:
295,25,126333,1,6,0:3:0:0:
219,157,126488,6,0,B|134:159,1,84.4999961318971,4|2,0:3|0:3,0:3:0:0:
45,119,126797,1,12,0:3:0:0:
227,69,126951,1,4,0:3:0:0:
55,44,127107,6,0,B|139:46,1,84.4999961318971,6|0,0:3|0:3,0:3:0:0:
261,155,127416,1,8,0:3:0:0:
3,373,127725,5,6,0:3:0:0:
60,214,127880,1,4,0:3:0:0:
182,323,128034,1,12,0:3:0:0:
145,131,128189,1,4,0:3:0:0:
83,315,128344,5,6,0:3:0:0:
268,258,128498,1,6,0:3:0:0:
145,131,128653,1,12,0:3:0:0:
182,323,128808,6,0,P|245:364|351:331,1,168.999992263794,6|2,0:3|0:3,0:3:0:0:
413,151,129272,2,0,L|324:163,1,84.4999961318971,8|0,0:3|0:3,0:3:0:0:
429,299,129581,2,0,L|518:311,1,84.4999961318971,2|0,0:3|0:3,0:3:0:0:
413,151,129890,1,12,0:3:0:0:
268,258,130045,1,4,0:3:0:0:
150,135,130199,6,0,P|210:142|259:113,1,113.75,4|0,0:3|0:3,0:3:0:0:
80,185,130818,6,0,B|72:228|72:228|85:283,1,84.4999961318971,6|2,0:0|0:3,0:3:0:0:
219,365,131127,1,8,0:3:0:0:
398,252,131282,1,6,0:3:0:0:
398,252,131359,1,4,0:3:0:0:
398,252,131437,6,0,L|301:246,1,84.4999961318971,4|2,0:3|0:3,0:3:0:0:
173,151,131746,1,8,0:3:0:0:
359,73,131900,1,4,0:3:0:0:
359,73,131978,1,4,0:3:0:0:
359,73,132055,6,0,B|368:112|368:112|360:155,1,84.4999961318971,6|0,0:3|0:3,0:3:0:0:
173,233,132364,2,0,B|164:194|164:194|172:151,1,84.4999961318971,8|0,0:3|0:3,0:3:0:0:
269,10,132674,5,6,0:3:0:0:
360,156,132828,1,4,0:3:0:0:
173,233,132983,1,12,0:3:0:0:
263,112,133138,1,4,0:3:0:0:
280,279,133292,5,6,0:3:0:0:
172,150,133447,1,6,0:3:0:0:
358,72,133601,1,12,0:3:0:0:
173,233,133756,6,0,P|112:206|103:108,1,168.999992263794,6|2,0:3|0:3,0:3:0:0:
258,27,134220,2,0,L|263:123,1,84.4999961318971,8|0,0:3|0:3,0:3:0:0:
347,257,134529,2,0,L|351:172,1,84.4999961318971,2|0,0:3|0:3,0:3:0:0:
447,130,134839,5,12,0:3:0:0:
447,130,134993,1,4,0:3:0:0:
347,257,135148,2,0,P|302:268|252:249,1,84.4999961318971,6|0,0:3|0:3,0:3:0:0:
169,88,135457,6,0,L|177:201,1,97.50000371933,8|0,0:3|0:3,0:3:0:0:
59,53,135766,2,0,L|67:166,1,97.50000371933,2|2,0:3|0:3,0:3:0:0:
94,266,136076,5,12,0:3:0:0:
94,266,136230,1,6,0:3:0:0:
258,185,136385,2,0,B|214:175|214:175|175:185,1,84.4999961318971,4|2,0:3|0:3,0:3:0:0:
333,7,136694,6,0,L|333:105,1,97.50000371933,8|0,0:3|0:3,0:3:0:0:
429,58,137004,2,0,L|429:156,1,97.50000371933,2|0,0:3|0:3,0:3:0:0:
244,48,137313,1,8,0:3:0:0:
333,105,137467,1,0,0:3:0:0:
257,217,137622,6,0,L|257:184,1,32.5,6|0,0:0|0:3,0:3:0:0:
175,291,137931,2,0,L|175:258,1,32.5,0|0,0:3|0:3,0:3:0:0:
55,191,138241,1,2,0:3:0:0:
55,191,138705,6,0,B|49:159|49:159|56:123,1,65,6|0,0:0|0:3,0:3:0:0:
133,49,139168,2,0,P|151:48|178:51,1,32.5,0|0,0:3|0:3,0:3:0:0:
292,139,139478,2,0,P|257:145|222:135,1,65,2|0,0:3|0:3,0:3:0:0:
345,46,139942,6,0,P|399:128|272:244,1,292.5,6|12,0:0|0:0,0:3:0:0:
81,255,151230,6,0,P|130:237|196:253,1,104,2|10,0:0|0:1,0:0:0:0:
367,335,151849,2,0,P|318:353|252:337,1,104,10|10,0:0|0:1,0:0:0:0:
304,112,152313,2,0,B|328:198|286:187|308:266,1,156,4|10,0:3|0:1,0:0:0:0:
162,164,153086,2,0,L|221:158,1,52,10|0,0:0|0:0,0:0:0:0:
226,71,153395,1,10,0:1:0:0:
460,180,153705,6,0,B|412:197|412:197|361:185,1,104,2|10,0:0|0:1,0:0:0:0:
225,70,154323,2,0,B|274:54|274:54|325:66,1,104,10|10,0:0|0:1,0:0:0:0:
279,291,154787,2,0,B|272:230|272:230|286:205|286:205|280:140,1,156,4|10,0:3|0:1,0:0:0:0:
120,261,155560,2,0,P|159:262|178:253,1,52,10|0,0:0|0:0,0:0:0:0:
138,178,155870,1,10,0:1:0:0:
138,178,156179,5,2,0:0:0:0:
204,343,156333,1,2,0:0:0:0:
317,201,156488,5,10,0:1:0:0:
171,258,156643,1,2,0:0:0:0:
294,357,156797,5,10,0:0:0:0:
406,213,156952,1,2,0:0:0:0:
225,189,157107,5,10,0:1:0:0:
350,285,157261,1,2,0:0:0:0:
204,343,157416,5,2,0:0:0:0:
317,201,157571,1,2,0:0:0:0:
385,369,157725,5,10,0:1:0:0:
260,272,157880,1,2,0:0:0:0:
406,213,158034,5,10,0:0:0:0:
294,357,158189,1,2,0:0:0:0:
225,189,158344,5,10,0:1:0:0:
350,285,158498,1,2,0:0:0:0:
204,343,158653,5,2,0:3:0:0:
256,192,158730,12,0,159735,0:0:0:0:
227,93,160199,2,0,L|277:89,3,32.5,4|4|4|4,0:3|0:3|0:3|0:3,0:3:0:0:
305,116,160509,5,2,0:0:0:0:
311,131,160586,1,2,0:0:0:0:
315,146,160663,1,2,0:0:0:0:
318,162,160740,1,2,0:0:0:0:
318,178,160818,1,2,0:0:0:0:
317,195,160895,1,2,0:0:0:0:
315,211,160972,1,2,0:0:0:0:
310,226,161050,1,2,0:0:0:0:
304,241,161127,5,2,0:0:0:0:
112,352,161437,2,0,L|41:346,1,65,4|0,0:3|0:3,0:0:0:0:
144,207,161746,5,6,0:0:0:0:
209,362,161900,1,6,0:3:0:0:
103,134,162055,2,0,P|143:121|186:133,1,84.4999961318971,12|2,0:3|0:3,0:3:0:0:
251,286,162364,5,4,0:3:0:0:
276,118,162519,1,6,0:3:0:0:
345,272,162674,1,12,0:3:0:0:
370,104,162829,1,4,0:3:0:0:
166,277,162983,2,0,L|251:286,1,84.4999961318971,6|0,0:3|0:3,0:3:0:0:
454,96,163292,2,0,L|369:104,1,84.4999961318971,8|0,0:3|0:3,0:3:0:0:
103,134,163601,1,2,0:3:0:0:
103,134,163911,6,0,B|97:176|97:176|106:226,1,84.4999961318971,12|4,0:3|0:3,0:3:0:0:
257,288,164220,1,6,0:3:0:0:
276,118,164375,1,6,0:3:0:0:
213,355,164529,2,0,P|265:367|306:352,1,84.4999961318971,12|2,0:3|0:3,0:3:0:0:
369,122,164839,5,4,0:3:0:0:
350,292,164994,1,6,0:3:0:0:
447,154,165148,1,12,0:3:0:0:
428,324,165303,1,4,0:3:0:0:
276,118,165457,2,0,L|188:122,1,84.4999961318971,6|0,0:3|0:3,0:3:0:0:
128,351,165766,2,0,L|216:355,1,84.4999961318971,8|0,0:3|0:3,0:3:0:0:
428,324,166076,1,2,0:3:0:0:
428,324,166385,6,0,P|437:271|423:231,1,84.4999961318971,12|4,0:3|0:3,0:3:0:0:
304,127,166694,1,6,0:3:0:0:
465,75,166849,1,6,0:3:0:0:
233,86,167004,2,0,P|222:124|236:173,1,84.4999961318971,12|2,0:3|0:3,0:3:0:0:
429,242,167313,5,4,0:3:0:0:
466,75,167467,1,6,0:3:0:0:
353,201,167622,1,12,0:3:0:0:
390,34,167776,1,4,0:3:0:0:
232,166,167931,2,0,B|189:174|189:174|137:161,1,84.4999961318971,6|0,0:3|0:3,0:3:0:0:
27,45,168241,2,0,B|70:37|70:37|122:50,1,84.4999961318971,8|0,0:3|0:3,0:3:0:0:
232,166,168550,6,0,L|227:263,1,84.4999961318971,2|0,0:3|0:3,0:3:0:0:
157,324,168859,1,8,0:3:0:0:
324,194,169014,6,0,L|319:291,1,84.4999961318971,4|2,0:3|0:3,0:3:0:0:
249,352,169323,1,0,0:3:0:0:
416,222,169478,6,0,L|411:319,1,84.4999961318971,8|2,0:3|0:3,0:3:0:0:
227,250,169787,6,0,L|232:166,1,84.4999961318971,4|4,0:3|0:3,0:3:0:0:
421,138,170096,2,0,L|416:235,1,84.4999961318971,12|0,0:3|0:3,0:3:0:0:
194,70,170406,2,0,B|235:58|235:58|288:77,1,84.4999961318971,6|0,0:3|0:3,0:3:0:0:
319,278,170715,1,12,0:3:0:0:
232,166,170870,1,2,0:3:0:0:
371,357,171024,6,0,P|320:372|261:351,1,113.75,4|0,0:3|0:0,0:0:0:0:
135,271,171643,6,0,P|175:260|223:275,1,84.4999961318971,6|2,0:0|0:3,0:0:0:0:
371,357,171952,1,8,0:3:0:0:
444,191,172107,1,6,0:3:0:0:
444,191,172184,1,4,0:3:0:0:
444,191,172261,6,0,P|448:145|442:99,1,84.4999961318971,4|2,0:3|0:3,0:3:0:0:
300,14,172571,1,8,0:3:0:0:
231,164,172725,1,4,0:3:0:0:
231,164,172802,1,4,0:3:0:0:
231,164,172879,6,0,P|227:210|233:256,1,84.4999961318971,6|0,0:3|0:3,0:3:0:0:
367,351,173189,1,8,0:3:0:0:
367,351,173498,5,6,0:3:0:0:
400,184,173653,1,4,0:3:0:0:
258,334,173808,1,12,0:3:0:0:
461,307,173962,1,4,0:3:0:0:
291,202,174117,1,6,0:3:0:0:
445,63,174272,1,6,0:3:0:0:
400,184,174426,1,12,0:3:0:0:
211,107,174581,6,0,P|270:80|379:115,1,168.999992263794,6|2,0:3|0:3,0:3:0:0:
212,286,175045,1,12,0:3:0:0:
192,282,175122,1,4,0:3:0:0:
173,279,175199,1,4,0:3:0:0:
154,276,175277,1,4,0:3:0:0:
136,270,175354,2,0,B|124:224|124:224|133:179,1,84.4999961318971,2|0,0:3|0:3,0:3:0:0:
379,362,175663,5,12,0:3:0:0:
379,362,175818,1,4,0:3:0:0:
212,286,175973,2,0,P|252:295|292:283,1,84.4999961318971,6|0,0:3|0:3,0:3:0:0:
335,81,176282,6,0,L|329:204,1,97.50000371933,8|0,0:3|0:3,0:3:0:0:
448,34,176591,2,0,L|442:157,1,97.50000371933,2|2,0:3|0:3,0:3:0:0:
405,235,176900,5,12,0:3:0:0:
405,235,177055,1,6,0:3:0:0:
335,81,177210,2,0,P|295:72|255:84,1,84.4999961318971,4|2,0:3|0:3,0:3:0:0:
212,286,177519,6,0,L|218:163,1,97.50000371933,8|0,0:3|0:3,0:3:0:0:
99,333,177828,2,0,L|105:210,1,97.50000371933,2|0,0:3|0:3,0:3:0:0:
142,132,178137,1,8,0:3:0:0:
254,84,178292,1,0,0:3:0:0:
394,147,178447,6,0,L|362:150,1,32.5,6|0,0:0|0:3,0:3:0:0:
308,247,178756,2,0,L|340:249,1,32.5,0|0,0:3|0:3,0:3:0:0:
503,144,179065,1,2,0:3:0:0:
503,144,179529,6,0,B|509:178|509:178|501:217,1,65,6|0,0:0|0:3,0:3:0:0:
449,304,179993,2,0,P|425:305|402:300,1,32.5,0|0,0:3|0:3,0:3:0:0:
244,243,180303,2,0,P|275:237|306:246,1,65,2|0,0:3|0:3,0:3:0:0:
134,299,180766,1,6,0:0:0:0:
134,299,181540,6,0,L|127:236,3,42.2499980659486,6|4|4|4,0:3|0:3|0:3|0:3,0:3:0:0:
155,223,181849,2,0,L|148:160,3,42.2499980659486,4|4|4|4,0:3|0:3|0:3|0:3,0:3:0:0:
183,153,182158,6,0,L|281:145,1,84.4999961318971,6|0,0:0|0:3,0:3:0:0:
425,205,182468,1,12,0:3:0:0:
423,215,182545,1,4,0:3:0:0:
422,226,182622,1,6,0:3:0:0:
421,236,182699,1,4,0:3:0:0:
420,247,182777,6,0,L|322:239,1,84.4999961318971,4|2,0:3|0:3,0:3:0:0:
178,303,183086,1,12,0:3:0:0:
179,313,183163,1,4,0:3:0:0:
180,324,183240,1,4,0:3:0:0:
181,334,183317,1,4,0:3:0:0:
183,345,183395,6,0,L|281:337,1,84.4999961318971,6|0,0:3|0:3,0:3:0:0:
267,146,183705,2,0,L|183:153,1,84.4999961318971,8|0,0:3|0:3,0:3:0:0:
369,94,184014,6,0,B|382:55|382:55|373:13,1,84.4999961318971,6|0,0:3|0:3,0:3:0:0:
267,146,184323,1,12,0:3:0:0:
264,156,184400,1,4,0:3:0:0:
261,166,184477,1,4,0:3:0:0:
258,176,184554,1,4,0:3:0:0:
254,186,184632,6,0,B|241:225|241:225|250:267,1,84.4999961318971,6|2,0:3|0:3,0:3:0:0:
416,227,184942,1,8,0:3:0:0:
160,316,185096,6,0,P|224:367|306:354,1,168.999992263794,6|2,0:3|0:3,0:3:0:0:
267,146,185560,2,0,L|176:153,1,84.4999961318971,8|0,0:3|0:3,0:3:0:0:
331,220,185870,2,0,L|415:226,1,84.4999961318971,2|0,0:3|0:3,0:3:0:0:
403,57,186179,2,0,L|318:63,1,84.4999961318971,8|0,0:3|0:3,0:3:0:0:
104,111,186488,6,0,B|96:154|96:154|106:204,1,84.4999961318971,6|0,0:3|0:3,0:3:0:0:
223,314,186797,1,12,0:3:0:0:
224,303,186874,1,4,0:3:0:0:
226,293,186951,1,4,0:3:0:0:
228,282,187028,1,4,0:3:0:0:
230,272,187107,6,0,B|238:229|238:229|228:179,1,84.4999961318971,6|2,0:3|0:3,0:3:0:0:
139,16,187416,1,8,0:3:0:0:
349,87,187571,1,6,0:3:0:0:
349,87,187648,1,4,0:3:0:0:
349,87,187725,6,0,L|264:93,1,84.4999961318971,4|2,0:3|0:3,0:3:0:0:
145,182,188034,1,8,0:3:0:0:
223,314,188189,1,4,0:3:0:0:
223,314,188266,1,4,0:3:0:0:
223,314,188344,6,0,L|307:320,1,84.4999961318971,6|0,0:3|0:3,0:3:0:0:
476,193,188653,2,0,L|391:199,1,84.4999961318971,8|0,0:3|0:3,0:3:0:0:
264,93,188962,6,0,L|265:125,1,32.5,6|0,0:0|0:3,0:3:0:0:
158,19,189272,2,0,L|160:52,1,32.5,0|0,0:3|0:3,0:3:0:0:
48,119,189581,1,2,0:3:0:0:
48,119,190045,6,0,P|45:150|50:192,1,65,6|0,0:0|0:3,0:3:0:0:
146,237,190509,2,0,L|188:236,1,32.5,0|0,0:3|0:3,0:3:0:0:
277,123,190818,2,0,P|242:118|205:126,1,65,2|0,0:3|0:3,0:3:0:0:
162,318,191282,6,0,B|270:166|270:94|214:38|214:38|158:94|158:166|258:318|258:318|270:270|302:222|350:214|402:234|426:282|426:342,1,884,6|0,0:0|0:3,0:3:0:0:
