osu file format v14

[General]
AudioFilename: audio.mp3
AudioLeadIn: 0
PreviewTime: 64063
Countdown: 0
SampleSet: Soft
StackLeniency: 0.7
Mode: 0
LetterboxInBreaks: 0
WidescreenStoryboard: 0

[Editor]
Bookmarks: 24823,44617,54514,64411,85442,95339,105236,115133,125030,146060,155957,165854,175751,186885,198019
DistanceSpacing: 1
BeatDivisor: 4
GridSize: 4
TimelineZoom: 1

[Metadata]
Title:Hi High
TitleUnicode:Hi High
Artist:LOONA
ArtistUnicode:이달의 소녀
Creator:Sonnyc
Version:Expert
Source:
Tags:LOOΠΔ
BeatmapID:1822960
BeatmapSetID:872312

[Difficulty]
HPDrainRate:6
CircleSize:4.3
OverallDifficulty:9
ApproachRate:9.3
SliderMultiplier:2
SliderTickRate:2

[Events]
//Background and Video events
0,0,"AC1aB5U[1].png",0,0
//Break Periods
//Storyboard Layer 0 (Background)
//Storyboard Layer 1 (Fail)
//Storyboard Layer 2 (Pass)
//Storyboard Layer 3 (Foreground)
//Storyboard Sound Samples

[TimingPoints]
5030,309.278350515464,4,2,0,70,1,0
64411,-100,4,2,0,70,0,1
74308,-133.333333333333,4,2,0,70,0,0
74926,-100,4,2,0,70,0,1
81731,-100,4,2,0,70,0,0
125030,-100,4,2,0,70,0,1
134926,-133.333333333333,4,2,0,70,0,0
135545,-100,4,2,0,70,0,1
142349,-100,4,2,0,70,0,0
146679,-133.333333333333,4,2,0,70,0,0
156576,-100,4,2,0,70,0,0
166473,-100,4,2,0,70,0,1
175751,-133.333333333333,4,2,0,70,0,0
176370,-100,4,2,0,70,0,1
183174,-100,4,2,0,70,0,0
186885,-100,4,2,0,70,0,1
193689,-100,4,2,0,70,0,0
197091,-100,4,2,0,52,0,0
197555,-100,4,2,0,32,0,0
197865,-100,4,2,0,15,0,0
198019,-100,4,2,0,5,0,0

[Colours]
Combo1 : 255,128,64
Combo2 : 0,255,128
Combo3 : 128,128,255
Combo4 : 255,0,128

[HitObjects]
31,151,24359,5,0,0:0:0:0:
160,230,24514,1,0,0:0:0:0:
19,287,24669,1,0,0:0:0:0:
160,230,24823,2,0,P|258:230|370:265,1,200
347,66,25442,2,0,P|416:135|470:239,1,200
495,321,25906,1,0,0:0:0:0:
481,151,26833,5,0,0:0:0:0:
352,230,26988,1,0,0:0:0:0:
493,287,27143,1,0,0:0:0:0:
352,230,27297,2,0,P|254:230|142:265,1,200
165,66,27916,2,0,P|95:135|41:239,1,200
17,321,28380,1,0,0:0:0:0:
408,107,29153,5,0,0:0:0:0:
366,223,29308,1,0,0:0:0:0:
283,114,29462,1,0,0:0:0:0:
370,256,29617,1,0,0:0:0:0:
456,65,29772,1,0,0:0:0:0:
416,328,30081,2,0,P|430:274|351:317,1,200
116,52,30700,37,0,0:0:0:0:
76,176,30854,1,0,0:0:0:0:
239,52,31009,1,0,0:0:0:0:
102,348,31318,2,0,P|112:284|178:347,1,200
394,286,31782,21,0,0:0:0:0:
264,311,31937,1,0,0:0:0:0:
389,362,32091,1,0,0:0:0:0:
287,216,32246,1,0,0:0:0:0:
512,340,32555,1,0,0:0:0:0:
464,72,32865,2,0,P|402:40|272:97,1,200
237,169,33328,1,0,0:0:0:0:
50,124,34256,5,0,0:0:0:0:
170,182,34411,1,0,0:0:0:0:
25,262,34566,1,0,0:0:0:0:
159,180,34720,2,0,P|267:180|376:209,1,200
313,21,35339,2,0,P|373:67|449:192,1,200
470,269,35803,1,0,0:0:0:0:
462,124,36731,5,0,0:0:0:0:
342,182,36885,1,0,0:0:0:0:
487,262,37040,1,0,0:0:0:0:
353,180,37194,2,0,P|245:180|136:209,1,200
199,21,37813,2,0,P|139:67|63:192,1,200
42,269,38277,1,0,0:0:0:0:
323,118,39050,5,0,0:0:0:0:
355,132,39282,1,0,0:0:0:0:
323,153,39514,1,0,0:0:0:0:
510,18,39669,1,0,0:0:0:0:
411,330,39978,1,0,0:0:0:0:
76,108,40287,37,0,0:0:0:0:
113,97,40519,1,0,0:0:0:0:
99,133,40751,1,0,0:0:0:0:
239,52,40906,1,0,0:0:0:0:
102,348,41215,2,0,P|112:284|178:347,1,200
371,179,42143,22,0,L|156:170,1,200
373,278,42607,2,0,L|145:261,1,200
58,265,43071,1,0,0:0:0:0:
437,135,43380,1,0,0:0:0:0:
314,266,44617,5,0,0:0:0:0:
502,340,44772,1,0,0:0:0:0:
229,298,44926,5,0,0:0:0:0:
417,224,45081,1,0,0:0:0:0:
143,270,45236,5,0,0:0:0:0:
331,344,45390,1,0,0:0:0:0:
58,302,45545,37,0,0:0:0:0:
246,228,45700,1,0,0:0:0:0:
107,43,46164,21,0,0:0:0:0:
150,166,46318,1,0,0:0:0:0:
196,35,46473,1,0,0:0:0:0:
150,176,46627,1,0,0:0:0:0:
88,15,46782,1,0,0:0:0:0:
198,276,47091,5,0,0:0:0:0:
10,350,47246,1,0,0:0:0:0:
283,308,47401,5,0,0:0:0:0:
95,234,47555,1,0,0:0:0:0:
369,280,47710,5,0,0:0:0:0:
181,354,47865,1,0,0:0:0:0:
454,312,48019,37,0,0:0:0:0:
266,238,48174,1,0,0:0:0:0:
423,56,48483,21,0,0:0:0:0:
292,163,48638,1,0,0:0:0:0:
386,34,48792,1,0,0:0:0:0:
440,185,48947,1,0,0:0:0:0:
391,14,49102,1,0,0:0:0:0:
295,197,49256,1,0,0:0:0:0:
125,143,49566,6,0,P|205:111|204:212,1,200
105,253,50030,1,0,0:0:0:0:
466,168,50339,1,0,0:0:0:0:
279,75,50648,6,0,P|183:52|37:207,1,300
318,247,51421,1,0,0:0:0:0:
30,335,51731,1,0,0:0:0:0:
320,195,52040,6,0,P|324:260|432:241,1,200
400,109,52504,1,0,0:0:0:0:
168,368,52813,1,0,0:0:0:0:
24,88,53122,2,0,P|94:61|307:134,1,300
118,35,54514,21,0,0:0:0:0:
141,160,54669,1,0,0:0:0:0:
23,95,54823,5,0,0:0:0:0:
0,220,54978,1,0,0:0:0:0:
168,195,55133,5,0,0:0:0:0:
191,320,55287,1,0,0:0:0:0:
73,255,55442,37,0,0:0:0:0:
50,380,55597,1,0,0:0:0:0:
203,37,55906,21,0,0:0:0:0:
308,86,56060,1,0,0:0:0:0:
187,133,56215,1,0,0:0:0:0:
314,199,56370,1,0,0:0:0:0:
162,236,56524,1,0,0:0:0:0:
329,317,56679,1,0,0:0:0:0:
394,35,56988,5,0,0:0:0:0:
371,160,57143,1,0,0:0:0:0:
489,95,57298,5,0,0:0:0:0:
512,220,57452,1,0,0:0:0:0:
344,195,57607,5,0,0:0:0:0:
321,320,57761,1,0,0:0:0:0:
439,255,57916,37,0,0:0:0:0:
462,380,58071,1,0,0:0:0:0:
309,37,58380,21,0,0:0:0:0:
204,86,58535,1,0,0:0:0:0:
325,133,58689,1,0,0:0:0:0:
198,199,58844,1,0,0:0:0:0:
350,236,58999,1,0,0:0:0:0:
191,319,59153,1,0,0:0:0:0:
16,65,59462,6,0,P|110:39|188:127,1,200
87,138,59926,1,0,0:0:0:0:
474,188,60700,6,0,P|380:162|302:250,1,200
403,261,61164,1,0,0:0:0:0:
39,328,61627,5,0,0:0:0:0:
137,311,61782,1,0,0:0:0:0:
235,294,61937,2,0,P|209:200|297:122,1,200
308,223,62401,1,0,0:0:0:0:
229,39,62710,1,0,0:0:0:0:
467,144,63019,1,0,0:0:0:0:
301,70,64102,21,2,0:0:0:0:
301,70,64411,2,0,P|355:82|361:212,1,200,6|0,0:1|0:0,0:0:0:0:
506,265,65030,2,0,P|430:291|368:198,1,200,2|0,0:1|0:0,0:0:0:0:
248,305,65648,2,0,P|285:206|387:223,1,200,2|0,0:1|0:0,0:0:0:0:
301,70,66267,2,0,P|355:82|361:212,1,200,2|0,0:1|0:0,0:0:0:0:
20,118,66885,5,2,0:1:0:0:
205,165,67040,1,0,0:0:0:0:
48,248,67194,1,0,0:0:0:0:
117,75,67349,1,0,0:0:0:0:
138,261,67504,1,2,0:1:0:0:
149,49,67658,1,0,0:0:0:0:
40,233,67813,1,0,0:0:0:0:
266,99,67968,1,2,0:1:0:0:
214,230,69050,5,2,0:1:0:0:
362,269,69205,1,0,0:0:0:0:
218,315,69359,2,0,P|149:290|156:167,1,200,2|0,0:1|0:0,0:0:0:0:
7,249,69978,2,0,P|32:180|155:187,1,200,2|0,0:1|0:0,0:0:0:0:
72,38,70597,2,0,P|141:63|134:186,1,200,2|0,0:1|0:0,0:0:0:0:
283,104,71216,2,0,P|258:173|135:166,1,200,2|0,0:1|0:0,0:0:0:0:
404,142,71834,5,2,0:1:0:0:
272,259,71988,1,0,0:0:0:0:
448,249,72143,1,0,0:0:0:0:
234,150,72298,1,0,0:0:0:0:
443,162,72452,1,2,0:1:0:0:
177,221,72607,1,0,0:0:0:0:
442,90,72761,1,0,0:0:0:0:
343,357,72916,1,2,0:1:0:0:
26,61,73999,5,2,0:1:0:0:
50,194,74153,1,0,0:0:0:0:
167,148,74308,2,0,P|257:164|197:246,1,225.000008583069,2|0,0:0|0:0,0:0:0:0:
111,358,74926,2,0,P|56:285|112:82,1,300,6|0,0:1|0:0,0:0:0:0:
155,11,75545,2,0,P|245:0|393:149,1,300,2|0,0:1|0:0,0:0:0:0:
433,222,76164,2,0,P|397:306|193:359,1,300,2|0,0:1|0:0,0:0:0:0:
48,138,76782,5,2,0:1:0:0:
101,290,76937,1,0,0:0:0:0:
156,98,77091,1,0,0:0:0:0:
42,258,77246,1,0,0:0:0:0:
234,156,77401,1,2,0:1:0:0:
4,139,77555,1,0,0:0:0:0:
207,269,77710,1,0,0:0:0:0:
77,60,77865,1,2,0:1:0:0:
416,253,78947,5,2,0:1:0:0:
310,248,79102,1,0,0:0:0:0:
355,334,79256,1,2,0:1:0:0:
104,225,79566,1,0,0:0:0:0:
104,225,79875,1,0,0:0:0:0:
183,13,80184,37,2,0:1:0:0:
248,82,80339,1,0,0:0:0:0:
152,118,80493,1,2,0:1:0:0:
457,49,80803,1,0,0:0:0:0:
457,49,81112,1,0,0:0:0:0:
81,225,81731,5,2,0:1:0:0:
288,252,81885,1,0,0:0:0:0:
148,306,82040,1,0,0:0:0:0:
301,227,82194,1,0,0:0:0:0:
165,169,82349,1,2,0:1:0:0:
394,43,82813,6,0,P|442:100|439:244,1,200,2|0,0:1|0:0,0:0:0:0:
305,189,83277,1,0,0:0:0:0:
421,301,83432,1,0,0:0:0:0:
261,339,83586,2,0,P|184:340|90:259,1,200,2|0,0:1|0:0,0:0:0:0:
300,236,84050,1,2,0:1:0:0:
256,192,84127,12,0,85442,0:0:0:0:
116,210,85751,5,0,0:0:0:0:
166,120,85906,1,0,0:0:0:0:
181,257,86060,1,0,0:0:0:0:
411,110,86370,5,0,0:0:0:0:
294,98,86524,1,0,0:0:0:0:
422,28,86679,1,0,0:0:0:0:
386,297,86988,5,0,0:0:0:0:
367,201,87143,1,0,0:0:0:0:
464,248,87298,1,0,0:0:0:0:
342,261,87452,1,0,0:0:0:0:
456,176,87607,1,0,0:0:0:0:
35,123,88071,5,0,0:0:0:0:
93,204,88225,1,0,0:0:0:0:
110,118,88380,1,0,0:0:0:0:
86,240,88535,2,0,B|130:215|192:238|168:262|221:280|277:253,1,200
298,43,89153,5,0,0:0:0:0:
410,86,89308,1,0,0:0:0:0:
337,126,89462,1,0,0:0:0:0:
434,42,89617,1,0,0:0:0:0:
453,163,89772,1,0,0:0:0:0:
95,48,90081,1,0,0:0:0:0:
201,111,90236,5,0,0:0:0:0:
76,162,90390,1,0,0:0:0:0:
200,167,90545,1,0,0:0:0:0:
134,284,90700,1,0,0:0:0:0:
461,217,91009,1,0,0:0:0:0:
348,42,91473,5,0,0:0:0:0:
322,147,91627,1,0,0:0:0:0:
245,65,91782,1,0,0:0:0:0:
342,188,91937,1,0,0:0:0:0:
451,87,92091,1,0,0:0:0:0:
287,43,92246,1,0,0:0:0:0:
85,119,92710,5,0,0:0:0:0:
114,224,92865,1,0,0:0:0:0:
271,55,93174,1,0,0:0:0:0:
242,288,93483,1,0,0:0:0:0:
442,97,93792,1,0,0:0:0:0:
487,180,93947,2,0,P|268:294|255:94,1,500
462,124,94875,5,0,0:0:0:0:
342,182,95030,1,0,0:0:0:0:
487,262,95184,1,0,0:0:0:0:
353,180,95339,2,0,P|245:180|136:209,1,200
199,21,95957,1,0,0:0:0:0:
161,154,96112,1,0,0:0:0:0:
67,49,96267,1,0,0:0:0:0:
42,269,96421,1,0,0:0:0:0:
50,124,97349,5,0,0:0:0:0:
170,182,97504,1,0,0:0:0:0:
25,262,97658,1,0,0:0:0:0:
159,180,97813,2,0,P|267:180|376:209,1,200
313,21,98432,2,0,P|373:67|449:192,1,200
470,269,98895,1,0,0:0:0:0:
125,88,99669,5,0,0:0:0:0:
242,182,99901,1,0,0:0:0:0:
122,252,100133,1,0,0:0:0:0:
2,18,100287,1,0,0:0:0:0:
101,330,100597,1,0,0:0:0:0:
464,104,100906,37,0,0:0:0:0:
396,52,101138,1,0,0:0:0:0:
436,176,101370,1,0,0:0:0:0:
273,52,101524,1,0,0:0:0:0:
410,348,101834,2,0,P|400:284|334:347,1,200
141,179,102607,21,0,0:0:0:0:
141,179,102761,2,0,L|356:170,1,200
139,278,103225,2,0,L|367:261,1,200
454,265,103689,1,0,0:0:0:0:
75,135,103999,1,0,0:0:0:0:
198,266,105236,5,0,0:0:0:0:
10,340,105390,1,0,0:0:0:0:
283,298,105545,5,0,0:0:0:0:
95,224,105700,1,0,0:0:0:0:
369,270,105854,5,0,0:0:0:0:
181,344,106009,1,0,0:0:0:0:
454,302,106164,37,0,0:0:0:0:
266,228,106318,1,0,0:0:0:0:
405,43,106782,21,0,0:0:0:0:
362,166,106937,1,0,0:0:0:0:
316,35,107091,1,0,0:0:0:0:
362,176,107246,1,0,0:0:0:0:
424,15,107401,1,0,0:0:0:0:
314,276,107710,5,0,0:0:0:0:
502,350,107865,1,0,0:0:0:0:
229,308,108019,5,0,0:0:0:0:
417,234,108174,1,0,0:0:0:0:
143,280,108328,5,0,0:0:0:0:
331,354,108483,1,0,0:0:0:0:
58,312,108638,37,0,0:0:0:0:
246,238,108792,1,0,0:0:0:0:
89,56,109102,21,0,0:0:0:0:
220,163,109256,1,0,0:0:0:0:
126,34,109411,1,0,0:0:0:0:
72,185,109566,1,0,0:0:0:0:
174,18,109720,1,0,0:0:0:0:
174,230,109875,1,0,0:0:0:0:
387,165,110493,5,0,0:0:0:0:
176,261,110803,2,0,P|107:274|62:148,1,200
250,40,111421,5,0,0:0:0:0:
197,223,111731,2,0,P|242:285|391:264,1,200
389,123,112349,5,0,0:0:0:0:
283,107,112504,1,0,0:0:0:0:
220,196,112658,1,0,0:0:0:0:
491,263,112968,1,0,0:0:0:0:
209,334,113277,1,0,0:0:0:0:
224,51,113586,1,0,0:0:0:0:
7,257,113895,1,0,0:0:0:0:
7,257,114514,2,0,P|102:258|317:163,1,300
394,35,115133,21,0,0:0:0:0:
371,160,115287,1,0,0:0:0:0:
489,95,115442,5,0,0:0:0:0:
512,220,115597,1,0,0:0:0:0:
344,195,115751,5,0,0:0:0:0:
321,320,115906,1,0,0:0:0:0:
439,255,116060,37,0,0:0:0:0:
462,380,116215,1,0,0:0:0:0:
204,86,116679,21,0,0:0:0:0:
325,133,116834,1,0,0:0:0:0:
198,199,116988,1,0,0:0:0:0:
198,199,117298,1,0,0:0:0:0:
118,35,117607,5,0,0:0:0:0:
141,160,117761,1,0,0:0:0:0:
23,95,117916,5,0,0:0:0:0:
0,220,118071,1,0,0:0:0:0:
168,195,118225,5,0,0:0:0:0:
191,320,118380,1,0,0:0:0:0:
73,255,118535,37,0,0:0:0:0:
50,380,118689,1,0,0:0:0:0:
203,37,118999,21,0,0:0:0:0:
308,86,119153,1,0,0:0:0:0:
187,133,119308,1,0,0:0:0:0:
314,199,119462,1,0,0:0:0:0:
314,199,119772,1,0,0:0:0:0:
496,65,120081,6,0,P|427:38|332:128,1,200
435,142,120545,1,0,0:0:0:0:
58,164,121318,6,0,P|126:130|231:217,1,200
122,246,121782,1,0,0:0:0:0:
490,371,122246,5,0,0:0:0:0:
394,352,122401,1,0,0:0:0:0:
285,327,122555,2,0,P|317:259|223:177,1,200
211,273,123019,1,0,0:0:0:0:
297,103,123328,1,0,0:0:0:0:
76,178,123638,1,0,0:0:0:0:
294,221,124720,21,0,0:0:0:0:
211,70,125030,2,0,P|157:82|151:212,1,200
6,293,125648,2,0,P|82:319|144:226,1,200
247,308,126267,2,0,P|210:209|108:226,1,200
99,44,126885,2,0,P|43:112|124:204,1,200
492,118,127504,5,0,0:0:0:0:
317,165,127658,1,0,0:0:0:0:
464,248,127813,1,0,0:0:0:0:
395,75,127968,1,0,0:0:0:0:
374,261,128122,1,0,0:0:0:0:
363,49,128277,1,0,0:0:0:0:
472,233,128432,1,0,0:0:0:0:
246,99,128586,1,0,0:0:0:0:
303,232,129669,5,0,0:0:0:0:
153,237,129823,1,0,0:0:0:0:
301,314,129978,2,0,P|355:302|361:172,1,200
506,91,130597,2,0,P|430:65|368:158,1,200
265,76,131215,2,0,P|302:175|404:158,1,200
413,340,131834,2,0,P|469:272|388:180,1,200
108,142,132452,5,0,0:0:0:0:
240,259,132607,1,0,0:0:0:0:
64,249,132761,1,0,0:0:0:0:
278,150,132916,1,0,0:0:0:0:
69,162,133071,1,0,0:0:0:0:
335,221,133225,1,0,0:0:0:0:
70,90,133380,1,0,0:0:0:0:
169,357,133535,1,0,0:0:0:0:
486,61,134617,5,0,0:0:0:0:
462,194,134772,1,0,0:0:0:0:
384,86,134926,2,0,P|288:62|197:147,1,225.000008583069
444,354,135545,2,0,P|499:281|443:78,1,300
313,8,136164,2,0,P|227:32|168:252,1,300
22,271,136782,2,0,P|112:343|316:353,1,300
464,138,137401,5,0,0:0:0:0:
411,290,137555,1,0,0:0:0:0:
356,98,137710,1,0,0:0:0:0:
470,258,137865,1,0,0:0:0:0:
278,156,138019,1,0,0:0:0:0:
508,139,138174,1,0,0:0:0:0:
305,269,138328,1,0,0:0:0:0:
435,60,138483,1,0,0:0:0:0:
96,253,139566,5,0,0:0:0:0:
202,248,139720,1,0,0:0:0:0:
157,334,139875,1,0,0:0:0:0:
408,225,140184,1,0,0:0:0:0:
408,225,140493,1,0,0:0:0:0:
329,13,140803,37,0,0:0:0:0:
264,82,140957,1,0,0:0:0:0:
360,118,141112,1,0,0:0:0:0:
55,49,141421,1,0,0:0:0:0:
55,49,141731,1,0,0:0:0:0:
431,225,142349,5,0,0:0:0:0:
224,252,142504,1,0,0:0:0:0:
364,306,142658,1,0,0:0:0:0:
211,227,142813,1,0,0:0:0:0:
347,169,142968,1,0,0:0:0:0:
118,43,143432,6,0,P|70:100|73:244,1,200
207,189,143895,1,0,0:0:0:0:
91,301,144050,1,0,0:0:0:0:
251,339,144205,2,0,P|328:340|422:259,1,200
212,236,144669,1,0,0:0:0:0:
256,192,144746,12,0,146060,0:0:0:0:
64,184,146679,5,0,0:0:0:0:
165,140,146988,1,0,0:0:0:0:
230,232,147298,1,0,0:0:0:0:
184,336,147607,1,0,0:0:0:0:
63,317,147916,1,0,0:0:0:0:
63,317,148225,1,0,0:0:0:0:
415,127,149153,5,0,0:0:0:0:
285,112,149462,1,0,0:0:0:0:
237,224,149772,1,0,0:0:0:0:
324,305,150081,1,0,0:0:0:0:
440,245,150390,1,0,0:0:0:0:
440,245,150700,1,0,0:0:0:0:
96,119,151627,5,0,0:0:0:0:
190,59,151937,1,0,0:0:0:0:
294,94,152246,1,0,0:0:0:0:
108,319,152865,5,0,0:0:0:0:
297,187,153174,1,0,0:0:0:0:
205,244,153328,2,0,P|412:203|307:85,1,450.000017166138
213,111,154411,1,0,0:0:0:0:
61,351,154720,2,0,P|95:240|26:69,1,300.000011444092
31,74,155648,1,0,0:0:0:0:
62,187,156576,6,0,P|104:103|204:126,1,200
148,184,157040,2,0,L|445:139,1,300
445,314,157813,2,0,B|398:294|398:294|351:320|351:320|296:296|296:296|240:325,1,200
319,80,159050,6,0,P|329:139|454:137,1,200
391,82,159514,2,0,L|423:381,1,300
225,366,160287,2,0,B|208:305|208:305|232:269|232:269|203:248|203:248|226:195,1,200
41,56,161370,5,0,0:0:0:0:
173,95,161524,1,0,0:0:0:0:
29,147,161679,1,0,0:0:0:0:
163,20,161834,1,0,0:0:0:0:
163,20,161988,1,0,0:0:0:0:
120,232,162143,1,0,0:0:0:0:
389,87,162452,1,0,0:0:0:0:
349,170,162607,1,0,0:0:0:0:
404,252,162761,1,0,0:0:0:0:
404,252,163071,1,0,0:0:0:0:
57,103,163999,6,0,P|87:141|234:152,1,200
310,98,164462,1,0,0:0:0:0:
72,286,165236,2,0,P|174:264|453:357,1,400
376,74,166164,5,0,0:0:0:0:
305,219,166318,1,0,0:0:0:0:
376,74,166473,1,0,0:0:0:0:
305,219,166627,1,0,0:0:0:0:
376,74,166782,1,0,0:0:0:0:
90,211,167091,5,0,0:0:0:0:
161,356,167246,1,0,0:0:0:0:
90,211,167401,1,0,0:0:0:0:
161,356,167555,1,0,0:0:0:0:
90,211,167710,1,0,0:0:0:0:
374,312,168638,5,0,0:0:0:0:
229,241,168792,1,0,0:0:0:0:
374,312,168947,1,0,0:0:0:0:
229,241,169102,1,0,0:0:0:0:
374,312,169256,1,0,0:0:0:0:
250,64,169566,5,0,0:0:0:0:
105,135,169720,1,0,0:0:0:0:
250,64,169875,1,0,0:0:0:0:
105,135,170030,1,0,0:0:0:0:
250,64,170184,1,0,0:0:0:0:
134,204,171112,5,0,0:0:0:0:
205,349,171266,1,0,0:0:0:0:
134,204,171421,1,0,0:0:0:0:
205,349,171575,1,0,0:0:0:0:
134,204,171730,1,0,0:0:0:0:
359,93,172039,5,0,0:0:0:0:
288,238,172194,1,0,0:0:0:0:
359,93,172349,1,0,0:0:0:0:
288,238,172503,1,0,0:0:0:0:
359,93,172658,1,0,0:0:0:0:
56,303,173277,6,0,P|37:221|140:200,1,200
274,245,173741,2,0,P|357:224|357:340,1,200
180,349,174205,1,0,0:0:0:0:
26,61,175442,21,0,0:0:0:0:
50,194,175597,1,0,0:0:0:0:
128,86,175751,2,0,P|224:62|315:147,1,225.000008583069
68,354,176370,2,0,P|13:281|69:78,1,300
199,8,176988,2,0,P|285:32|344:252,1,300
490,271,177607,2,0,P|400:343|196:353,1,300
48,138,178225,5,0,0:0:0:0:
211,208,178380,1,0,0:0:0:0:
47,74,178535,1,0,0:0:0:0:
127,283,178689,1,0,0:0:0:0:
194,73,178844,1,0,0:0:0:0:
52,268,178999,1,0,0:0:0:0:
285,119,179153,1,0,0:0:0:0:
24,202,179308,1,0,0:0:0:0:
416,253,180390,5,0,0:0:0:0:
310,248,180545,1,0,0:0:0:0:
355,334,180700,1,0,0:0:0:0:
104,225,181009,1,0,0:0:0:0:
104,225,181318,1,0,0:0:0:0:
183,13,181627,37,0,0:0:0:0:
248,82,181782,1,0,0:0:0:0:
152,118,181937,1,0,0:0:0:0:
457,49,182246,1,0,0:0:0:0:
457,49,182555,1,0,0:0:0:0:
81,225,183174,5,0,0:0:0:0:
288,252,183328,1,0,0:0:0:0:
148,306,183483,1,0,0:0:0:0:
301,227,183638,1,0,0:0:0:0:
165,169,183792,1,0,0:0:0:0:
394,43,184256,6,0,P|442:100|439:244,1,200
305,189,184720,1,0,0:0:0:0:
421,301,184875,1,0,0:0:0:0:
261,339,185030,2,0,P|184:340|90:259,1,200
300,236,185493,1,0,0:0:0:0:
50,109,186267,6,0,P|88:53|291:78,1,300
159,322,186885,2,0,P|86:268|222:198,1,300
385,229,187504,2,0,P|318:264|242:97,1,300
130,21,188122,2,0,P|224:6|362:168,1,300
440,272,188741,2,0,P|361:319|192:208,1,300
51,144,189359,2,0,P|72:213|38:352,1,200
175,300,189823,2,0,P|194:234|384:253,1,300
145,190,191215,6,0,P|172:125|282:247,1,300
92,253,191834,2,0,P|74:164|222:36,1,300
345,57,192452,2,0,P|387:115|344:335,1,300
155,295,193071,2,0,P|211:232|249:328,1,200
431,225,193689,5,0,0:0:0:0:
224,252,193844,1,0,0:0:0:0:
364,306,193999,1,0,0:0:0:0:
211,227,194153,1,0,0:0:0:0:
347,169,194308,1,0,0:0:0:0:
118,43,194772,6,0,P|70:100|73:244,1,200
207,189,195236,1,0,0:0:0:0:
91,301,195390,1,0,0:0:0:0:
251,339,195545,2,0,P|328:340|422:259,1,200
212,236,196009,1,0,0:0:0:0:
256,192,196086,12,0,198019,0:0:0:0:
