osu file format v14

[General]
AudioFilename: audio.mp3
AudioLeadIn: 0
PreviewTime: 54670
Countdown: 0
SampleSet: Normal
StackLeniency: 0.7
Mode: 1
LetterboxInBreaks: 0
WidescreenStoryboard: 0

[Editor]
DistanceSpacing: 1
BeatDivisor: 4
GridSize: 32
TimelineZoom: 2.1

[Metadata]
Title:Hi High
TitleUnicode:Hi High
Artist:LOONA
ArtistUnicode:이달의 소녀
Creator:Nifty
Version:Inner Oni
Source:
Tags:ViVi 비비 Yves 이브 JinSoul 진솔 HaSeul 하슬 Kim Lip 김립 Chuu 츄 HeeJin 희진 HyunJin 현진 Go Won 고원 Choerry 최리 Olivia Hye 올리비아 혜 YeoJin 여진 kpop dance stream [+ +] odd eye circle yyxy korean pop
BeatmapID:1984759
BeatmapSetID:949876

[Difficulty]
HPDrainRate:4.5
CircleSize:2
OverallDifficulty:6
ApproachRate:10
SliderMultiplier:1.4
SliderTickRate:1

[Events]
//Background and Video events
0,0,"looney.png",0,0
//Break Periods
//Storyboard Layer 0 (Background)
//Storyboard Layer 1 (Fail)
//Storyboard Layer 2 (Pass)
//Storyboard Layer 3 (Foreground)
//Storyboard Layer 4 (Overlay)
//Storyboard Sound Samples

[TimingPoints]
-922,309.278350515464,4,1,0,40,1,0
315,-125,4,1,0,40,0,0
6397,-125,4,1,0,10,0,0
7648,-125,4,1,0,40,0,0
9902,-121.212121212121,4,1,0,60,0,0
10212,-117.647058823529,4,1,0,60,0,0
17557,-100,4,1,0,10,0,0
18871,-125,4,1,0,60,0,0
19181,-122.806974453693,4,1,0,60,0,0
19335,-120.68971759813,4,1,0,60,0,0
19490,-118.644087905778,4,1,0,60,0,0
19645,-116.666647222225,4,1,0,60,0,0
19799,-114.754041924242,4,1,0,60,0,0
19954,-112.903262226859,4,1,0,60,0,0
20108,-111.111111111111,4,1,0,60,0,0
28768,-111.111111111111,4,1,0,60,0,0
28923,-109.58904109589,4,1,0,60,0,0
29078,-108.108108108108,4,1,0,60,0,0
29232,-106.666666666667,4,1,0,60,0,0
29387,-105.263157894737,4,1,0,60,0,0
29541,-103.896103896104,4,1,0,60,0,0
29696,-102.564102564103,4,1,0,60,0,0
29851,-101.26582278481,4,1,0,60,0,0
30005,-100,4,1,0,60,0,0
30083,-111.111111111111,4,1,0,60,0,0
37428,-111.111111111111,4,1,0,60,0,0
37583,-110.238755095786,4,1,0,60,0,0
37737,-109.380110102019,4,1,0,60,0,0
37892,-108.53461983036,4,1,0,60,0,0
38047,-107.702100298658,4,1,0,60,0,0
38201,-106.88236953938,4,1,0,60,0,0
38356,-106.074910101514,4,1,0,60,0,0
38510,-105.279559341876,4,1,0,60,0,0
38665,-104.496156108898,4,1,0,60,0,0
38820,-103.724218049051,4,1,0,60,0,0
38974,-102.963601337291,4,1,0,60,0,0
39129,-102.21416320331,4,1,0,60,0,0
39206,-101.843468625592,4,1,0,60,0,0
39284,-101.475453087898,4,1,0,60,0,0
39438,-100.747343796281,4,1,0,60,0,0
39593,-100.029708823521,4,1,0,60,0,0
39902,-90.9090909090909,4,1,0,60,0,0
40057,-91.8324241923338,4,1,0,60,0,0
40212,-92.7747059041823,4,1,0,60,0,0
40366,-93.7365253744774,4,1,0,60,0,0
40521,-94.7184966280215,4,1,0,60,0,0
40675,-95.7212596917775,4,1,0,60,0,0
40830,-96.745388389199,4,1,0,60,0,0
40985,-97.7917641732049,4,1,0,60,0,0
41294,-99.9539212423073,4,1,0,60,0,0
42376,-90.9090909090909,4,1,0,60,0,0
42531,-91.8324241923338,4,1,0,60,0,0
42686,-92.7747059041823,4,1,0,60,0,0
42840,-93.7365253744774,4,1,0,60,0,0
42995,-94.7184966280215,4,1,0,60,0,0
43150,-95.7212596917775,4,1,0,60,0,0
43304,-96.745388389199,4,1,0,60,0,0
43459,-97.7917641732049,4,1,0,60,0,0
43768,-99.9539212423073,4,1,0,60,0,0
48717,-100,4,1,0,60,0,0
48871,-98.5915215235151,4,1,0,60,0,0
49026,-97.2222627314984,4,1,0,60,0,0
49181,-95.8904240945786,4,1,0,60,0,0
49335,-94.594581811543,4,1,0,60,0,0
49490,-93.3332960000149,4,1,0,60,0,0
49644,-92.1052873961283,4,1,0,60,0,0
49799,-90.9090909090909,4,1,0,60,0,0
50263,-125,4,1,0,60,0,0
54748,-111.111111111111,4,1,0,60,0,0
56758,-100,4,1,0,60,0,0
56913,-98.0392156862745,4,1,0,60,0,0
57067,-96.1538461538461,4,1,0,60,0,0
57145,-95.2380952380952,4,1,0,60,0,0
57222,-94.3396226415094,4,1,0,60,0,0
57376,-92.5925925925926,4,1,0,60,0,0
57531,-90.9090909090909,4,1,0,60,0,0
57686,-89.2857142857143,4,1,0,60,0,0
57840,-87.719298245614,4,1,0,60,0,0
57918,-86.9565217391304,4,1,0,60,0,0
57995,-86.2068965517241,4,1,0,60,0,0
58072,-85.4700854700855,4,1,0,60,0,0
58150,-84.7457627118644,4,1,0,60,0,0
58227,-84.0336134453782,4,1,0,60,0,0
58304,-83.3333333333333,4,1,0,60,0,0
59387,-125,4,1,0,60,0,0
59696,-71.4285714285714,4,1,0,80,0,1
69593,-71.4285714285714,4,1,0,80,0,0
70212,-71.4285714285714,4,1,0,80,0,1
77016,-62.5,4,1,0,80,0,1
77170,-71.4285714285714,4,1,0,80,0,1
77634,-62.5,4,1,0,80,0,1
78192,-71.4285714285714,4,1,0,80,0,1
78871,-62.5,4,1,0,80,0,1
79181,-55.5555555555556,4,1,0,80,0,1
79413,-50,4,1,0,10,0,1
80650,-125,4,1,0,60,0,1
80727,-125,4,1,0,60,0,0
89387,-125,4,1,0,60,0,0
89541,-123.076923076923,4,1,0,60,0,0
89619,-122.137404580153,4,1,0,60,0,0
89696,-121.212121212121,4,1,0,60,0,0
89851,-119.402985074627,4,1,0,60,0,0
90005,-117.647058823529,4,1,0,60,0,0
90083,-116.788321167883,4,1,0,60,0,0
90160,-115.942028985507,4,1,0,60,0,0
90315,-114.285714285714,4,1,0,60,0,0
90469,-112.676056338028,4,1,0,60,0,0
90624,-111.111111111111,4,1,0,60,0,0
98047,-111.111111111111,4,1,0,60,0,0
98202,-110.238755095786,4,1,0,60,0,0
98356,-109.380110102019,4,1,0,60,0,0
98511,-108.53461983036,4,1,0,60,0,0
98666,-107.702100298658,4,1,0,60,0,0
98820,-106.88236953938,4,1,0,60,0,0
98975,-106.074910101514,4,1,0,60,0,0
99129,-105.279559341876,4,1,0,60,0,0
99284,-104.496156108898,4,1,0,60,0,0
99439,-103.724218049051,4,1,0,60,0,0
99593,-102.963601337291,4,1,0,60,0,0
99748,-102.21416320331,4,1,0,60,0,0
99825,-101.843468625592,4,1,0,60,0,0
99903,-101.475453087898,4,1,0,60,0,0
100057,-100.747343796281,4,1,0,60,0,0
100212,-100.029708823521,4,1,0,60,0,0
100521,-90.9090909090909,4,1,0,60,0,0
100676,-92.0980770842486,4,1,0,60,0,0
100831,-93.3185765557606,4,1,0,60,0,0
100985,-94.5719484469395,4,1,0,60,0,0
101140,-95.8593551541179,4,1,0,60,0,0
101294,-97.182296495412,4,1,0,60,0,0
101449,-98.5422642844403,4,1,0,60,0,0
101604,-99.9408350256648,4,1,0,60,0,0
102995,-90.9090909090909,4,1,0,60,0,0
103150,-92.0980770842486,4,1,0,60,0,0
103305,-93.3185765557606,4,1,0,60,0,0
103459,-94.5719484469395,4,1,0,60,0,0
103614,-95.8593551541179,4,1,0,60,0,0
103769,-97.182296495412,4,1,0,60,0,0
103923,-98.5422642844403,4,1,0,60,0,0
104078,-99.9408350256648,4,1,0,60,0,0
108562,-100,4,1,0,60,0,0
108717,-99.1764388517748,4,1,0,60,0,0
108872,-98.3662351995703,4,1,0,60,0,0
109026,-97.5692570979195,4,1,0,60,0,0
109181,-96.7849960027797,4,1,0,60,0,0
109336,-96.013334331872,4,1,0,60,0,0
109490,-95.2537894338782,4,1,0,60,0,0
109645,-94.5062567867306,4,1,0,60,0,0
109800,-93.7702778225791,4,1,0,60,0,0
109954,-93.0457599047211,4,1,0,60,0,0
110109,-92.3322668956507,4,1,0,60,0,0
110263,-91.6297169832932,4,1,0,60,0,0
110418,-90.9376949476836,4,1,0,60,0,0
110572,-125.054085892148,4,1,0,60,0,0
115366,-111.153843588757,4,1,0,60,0,0
117377,-100,4,1,0,60,0,0
117532,-98.0392156862745,4,1,0,60,0,0
117686,-96.1538461538461,4,1,0,60,0,0
117764,-95.2380952380952,4,1,0,60,0,0
117841,-94.3396226415094,4,1,0,60,0,0
117995,-92.5925925925926,4,1,0,60,0,0
118150,-90.9090909090909,4,1,0,60,0,0
118305,-89.2857142857143,4,1,0,60,0,0
118459,-87.719298245614,4,1,0,60,0,0
118537,-86.9565217391304,4,1,0,60,0,0
118614,-86.2068965517241,4,1,0,60,0,0
118691,-85.4700854700855,4,1,0,60,0,0
118769,-84.7457627118644,4,1,0,60,0,0
118846,-84.0336134453782,4,1,0,60,0,0
118923,-83.3333333333333,4,1,0,60,0,0
119078,-100,4,1,0,60,0,0
119232,-100,4,1,0,60,0,0
119309,-97.2382395211211,4,1,0,60,0,0
119387,-94.6248361807524,4,1,0,60,0,0
119464,-92.1483182471178,4,1,0,60,0,0
119541,-89.7981248355572,4,1,0,60,0,0
119619,-87.5647541356833,4,1,0,60,0,0
119696,-85.4398529067492,4,1,0,60,0,0
119773,-83.4155671799783,4,1,0,60,0,0
119851,-81.4850487158364,4,1,0,60,0,0
119928,-79.6418664549255,4,1,0,60,0,0
120006,-77.8801642336903,4,1,0,60,0,0
120315,-71.4285714285714,4,1,0,80,0,1
130212,-71.4285714285714,4,1,0,80,0,0
130830,-71.4285714285714,4,1,0,80,0,1
137615,-62.5,4,1,0,80,0,1
137769,-71.4285714285714,4,1,0,80,0,1
138233,-62.5,4,1,0,80,0,1
138869,-71.4285714285714,4,1,0,80,0,1
139470,-62.5,4,1,0,80,0,1
139780,-55.5555555555556,4,1,0,80,0,1
140012,-50,4,1,0,10,0,1
141249,-125,4,1,0,60,0,1
141346,-125,4,1,0,60,0,0
151242,-125,4,1,0,60,0,0
151552,-122.808633446931,4,1,0,60,0,0
151861,-120.692776537324,4,1,0,60,0,0
152170,-118.648592531071,4,1,0,60,0,0
152325,-117.652180153724,4,1,0,60,0,0
152480,-116.672500291681,4,1,0,60,0,0
152789,-114.761153349591,4,1,0,60,0,0
153098,-112.911293500487,4,1,0,60,0,0
153253,-112.008673951711,4,1,0,60,0,0
153407,-111.120247664808,4,1,0,60,0,0
153717,-109.385135216435,4,1,0,60,0,0
154026,-107.70337628544,4,1,0,60,0,0
154335,-106.072547257972,4,1,0,60,0,0
154490,-105.275569330279,4,1,0,60,0,0
154645,-104.490369122678,4,1,0,60,0,0
154799,-103.716795068059,4,1,0,60,0,0
154954,-102.954696844747,4,1,0,60,0,0
155263,-101.463509663385,4,1,0,60,0,0
155572,-100.014902220431,4,1,0,60,0,0
155727,-99.3059507104844,4,1,0,60,0,0
155882,-98.6070764382335,4,1,0,60,0,0
156191,-97.2383340739653,4,1,0,60,0,0
156346,-96.5680674508638,4,1,0,60,0,0
156500,-95.9069779039913,4,1,0,60,0,0
156655,-95.2549689754566,4,1,0,60,0,0
156809,-94.6116758376918,4,1,0,60,0,0
156964,-93.9771015394389,4,1,0,60,0,0
157119,-93.3508957485202,4,1,0,60,0,0
157273,-92.733066014815,4,1,0,60,0,0
157428,-92.1232756825874,4,1,0,60,0,0
157583,-91.5215363903357,4,1,0,60,0,0
157737,-90.927524398128,4,1,0,60,0,0
157892,-90.3412550568518,4,1,0,60,0,0
158047,-89.7624168351208,4,1,0,60,0,0
158201,-89.1909489025054,4,1,0,60,0,0
158356,-88.6267899288061,4,1,0,60,0,0
158510,-88.0696454756421,4,1,0,60,0,0
158665,-87.5195387370231,4,1,0,60,0,0
158742,-87.2470163701577,4,1,0,60,0,0
158820,-86.976185920295,4,1,0,60,0,0
158897,-86.7070316801482,4,1,0,60,0,0
158974,-86.439612854262,4,1,0,60,0,0
159052,-86.1737642251341,4,1,0,60,0,0
159129,-85.9095458391859,4,1,0,60,0,0
159206,-85.6469427467317,4,1,0,60,0,0
159284,-85.3860130879681,4,1,0,60,0,0
159361,-85.1265960172671,4,1,0,60,0,0
159438,-84.8687504773867,4,1,0,60,0,0
159516,-84.6124622311122,4,1,0,60,0,0
159593,-84.3577172126861,4,1,0,60,0,0
159670,-84.1045722609664,4,1,0,60,0,0
159748,-83.8528717512253,4,1,0,60,0,0
159825,-83.6026732790808,4,1,0,60,0,0
159902,-83.3539634392846,4,1,0,60,0,0
160057,-100,4,1,0,60,0,0
161758,-71.4285714285714,4,1,0,80,0,1
171036,-71.4285714285714,4,1,0,80,0,0
171655,-71.4285714285714,4,1,0,80,0,1
178433,-62.5,4,1,0,80,0,1
178587,-71.4285714285714,4,1,0,80,0,1
179051,-62.5,4,1,0,80,0,1
179686,-71.4285714285714,4,1,0,80,0,1
180288,-62.5,4,1,0,80,0,1
180598,-55.5555555555556,4,1,0,80,0,1
180779,-55.5555555555556,4,1,0,80,0,0
180846,-71.4285714285714,4,1,0,80,0,0
181552,309.278350515464,4,1,0,40,1,8
181552,-125,4,1,0,40,0,0
182170,-71.4285714285714,4,1,0,80,0,1
188949,-62.5,4,1,0,80,0,1
189103,-71.4285714285714,4,1,0,80,0,1
189567,-62.5,4,1,0,80,0,1
190263,-71.4285714285714,4,1,0,80,0,1
190804,-62.5,4,1,0,80,0,1
191114,-55.5555555555556,4,1,0,80,0,1
191346,-50,4,1,0,10,0,1
193923,-50,4,1,0,60,0,0

[HitObjects]
292,84,315,5,8,0:0:0:0:
292,90,779,1,8,0:0:0:0:
302,90,1242,1,0,0:0:0:0:
274,129,2789,1,8,0:0:0:0:
274,129,3253,1,8,0:0:0:0:
274,129,3717,1,0,0:0:0:0:
272,130,4954,1,0,0:0:0:0:
275,126,5263,1,8,0:0:0:0:
256,192,6500,12,0,7428,0:0:0:0:
275,126,7737,5,0,0:0:0:0:
272,127,8562,1,8,0:0:0:0:
272,127,8665,1,0,0:0:0:0:
272,127,8871,1,0,0:0:0:0:
272,127,8974,1,0,0:0:0:0:
272,127,9078,1,8,0:0:0:0:
267,106,9593,1,8,0:0:0:0:
267,106,9902,1,8,0:0:0:0:
265,93,10212,5,0,0:0:0:0:
261,78,10521,1,8,0:0:0:0:
261,78,10675,1,0,0:0:0:0:
261,81,11139,1,8,0:0:0:0:
262,80,11449,1,0,0:0:0:0:
271,90,11758,1,8,0:0:0:0:
267,89,12376,1,8,0:0:0:0:
259,84,12686,1,0,0:0:0:0:
267,89,12995,1,8,0:0:0:0:
259,84,13150,1,0,0:0:0:0:
267,89,13614,1,8,0:0:0:0:
259,84,13923,1,0,0:0:0:0:
274,87,14232,1,8,0:0:0:0:
248,83,14387,1,0,0:0:0:0:
259,84,14541,1,0,0:0:0:0:
266,80,14851,1,8,0:0:0:0:
266,80,15005,1,8,0:0:0:0:
264,82,15160,1,0,0:0:0:0:
264,83,15469,1,8,0:0:0:0:
254,92,16088,1,8,0:0:0:0:
256,89,16397,1,8,0:0:0:0:
260,87,16552,1,0,0:0:0:0:
254,92,16706,1,8,0:0:0:0:
261,88,17016,1,0,0:0:0:0:
261,88,17170,1,0,0:0:0:0:
254,92,17325,1,8,0:0:0:0:
256,192,17634,12,0,18717,0:0:0:0:
261,128,19026,5,8,0:0:0:0:
261,128,19181,1,8,0:0:0:0:
261,128,19335,1,0,0:0:0:0:
273,138,19490,1,0,0:0:0:0:
288,137,19645,5,8,0:0:0:0:
273,139,19799,1,8,0:0:0:0:
267,109,19954,1,0,0:0:0:0:
266,105,20108,1,8,0:0:0:0:
265,131,20418,1,8,0:0:0:0:
265,131,20572,1,0,0:0:0:0:
265,131,20727,1,8,0:0:0:0:
265,131,21036,1,0,0:0:0:0:
265,118,21191,1,8,0:0:0:0:
259,131,21346,1,0,0:0:0:0:
260,126,21655,1,8,0:0:0:0:
260,126,21809,1,0,0:0:0:0:
258,127,22119,1,0,0:0:0:0:
258,127,22273,1,8,0:0:0:0:
251,104,22428,1,0,0:0:0:0:
252,113,22583,1,8,0:0:0:0:
265,110,22892,1,8,0:0:0:0:
265,110,23047,1,0,0:0:0:0:
259,96,23201,1,8,0:0:0:0:
259,96,23510,1,8,0:0:0:0:
259,96,23665,1,8,0:0:0:0:
259,96,23820,1,0,0:0:0:0:
259,96,23974,1,8,0:0:0:0:
259,96,24129,1,0,0:0:0:0:
265,104,24284,1,8,0:0:0:0:
265,104,24438,1,0,0:0:0:0:
268,77,24593,1,0,0:0:0:0:
271,89,24748,1,8,0:0:0:0:
271,89,24902,1,0,0:0:0:0:
271,89,25057,1,8,0:0:0:0:
271,89,25212,1,8,0:0:0:0:
276,84,25366,1,0,0:0:0:0:
276,84,25521,1,8,0:0:0:0:
277,84,25830,1,0,0:0:0:0:
277,84,25985,1,8,0:0:0:0:
277,84,26139,1,0,0:0:0:0:
277,84,26294,1,8,0:0:0:0:
275,82,26603,1,8,0:0:0:0:
275,82,26758,1,0,0:0:0:0:
278,80,27067,1,0,0:0:0:0:
278,80,27222,1,8,0:0:0:0:
278,80,27376,1,0,0:0:0:0:
278,80,27531,1,8,0:0:0:0:
271,81,27840,1,8,0:0:0:0:
280,79,27995,1,0,0:0:0:0:
280,79,28150,1,8,0:0:0:0:
280,79,28304,1,0,0:0:0:0:
277,79,28614,1,8,0:0:0:0:
277,79,28768,1,0,0:0:0:0:
277,79,28923,1,0,0:0:0:0:
277,79,29078,1,8,0:0:0:0:
277,79,29232,1,0,0:0:0:0:
277,79,29387,1,8,0:0:0:0:
277,79,29541,1,0,0:0:0:0:
277,79,29696,1,0,0:0:0:0:
277,79,29851,1,0,0:0:0:0:
277,79,30005,1,8,0:0:0:0:
275,78,30315,1,8,0:0:0:0:
275,78,30469,1,0,0:0:0:0:
275,78,30624,1,8,0:0:0:0:
275,78,30933,1,0,0:0:0:0:
275,78,31088,1,8,0:0:0:0:
281,81,31242,1,0,0:0:0:0:
281,81,31552,1,8,0:0:0:0:
281,81,31706,1,0,0:0:0:0:
281,81,32016,1,0,0:0:0:0:
272,92,32170,1,8,0:0:0:0:
272,92,32325,1,0,0:0:0:0:
272,92,32480,1,8,0:0:0:0:
273,92,32789,1,8,0:0:0:0:
273,92,32943,1,0,0:0:0:0:
273,92,33098,1,8,0:0:0:0:
272,93,33407,1,8,0:0:0:0:
272,93,33562,1,8,0:0:0:0:
275,81,33717,1,0,0:0:0:0:
277,82,33871,1,8,0:0:0:0:
277,82,34026,1,0,0:0:0:0:
277,82,34181,1,8,0:0:0:0:
277,82,34335,1,0,0:0:0:0:
277,82,34490,1,8,0:0:0:0:
277,82,34567,1,0,0:0:0:0:
277,82,34645,1,8,0:0:0:0:
277,82,34799,1,0,0:0:0:0:
277,82,34954,1,8,0:0:0:0:
278,78,35263,1,0,0:0:0:0:
278,78,35572,1,8,0:0:0:0:
278,78,35727,1,0,0:0:0:0:
278,78,35804,1,8,0:0:0:0:
278,78,35882,1,0,0:0:0:0:
278,78,36036,1,8,0:0:0:0:
278,78,36191,1,0,0:0:0:0:
277,77,36500,1,8,0:0:0:0:
277,77,36655,1,0,0:0:0:0:
277,77,36809,1,0,0:0:0:0:
278,77,37119,1,8,0:0:0:0:
282,72,37428,1,8,0:0:0:0:
282,72,37583,1,0,0:0:0:0:
282,72,37737,1,0,0:0:0:0:
282,72,37892,1,8,0:0:0:0:
282,72,38047,1,0,0:0:0:0:
282,72,38201,1,8,0:0:0:0:
282,72,38356,1,8,0:0:0:0:
282,72,38510,1,0,0:0:0:0:
282,72,38665,1,8,0:0:0:0:
282,72,38820,1,8,0:0:0:0:
282,72,38974,1,0,0:0:0:0:
282,72,39129,1,0,0:0:0:0:
282,72,39206,1,0,0:0:0:0:
282,72,39284,1,8,0:0:0:0:
282,72,39438,1,8,0:0:0:0:
288,72,39593,1,0,0:0:0:0:
272,75,39902,1,8,0:0:0:0:
316,66,40057,1,0,0:0:0:0:
286,73,40212,1,8,0:0:0:0:
286,73,40366,1,0,0:0:0:0:
286,73,40521,1,8,0:0:0:0:
286,73,40675,1,0,0:0:0:0:
286,73,40830,1,8,0:0:0:0:
286,73,40985,1,8,0:0:0:0:
278,71,41294,1,0,0:0:0:0:
278,71,41449,1,8,0:0:0:0:
289,69,41603,1,8,0:0:0:0:
289,69,41758,1,0,0:0:0:0:
289,69,41913,1,0,0:0:0:0:
289,69,42067,1,8,0:0:0:0:
281,59,42145,1,8,0:0:0:0:
281,59,42222,1,8,0:0:0:0:
284,62,42376,1,8,0:0:0:0:
284,62,42531,1,0,0:0:0:0:
284,62,42686,1,8,0:0:0:0:
284,62,42840,1,0,0:0:0:0:
283,61,42995,1,8,0:0:0:0:
283,61,43150,1,0,0:0:0:0:
283,61,43304,1,8,0:0:0:0:
283,61,43459,1,8,0:0:0:0:
282,56,43768,1,0,0:0:0:0:
282,56,43923,1,8,0:0:0:0:
276,60,44078,1,8,0:0:0:0:
276,60,44232,1,0,0:0:0:0:
276,60,44387,1,0,0:0:0:0:
276,60,44541,1,8,0:0:0:0:
276,60,44619,1,8,0:0:0:0:
276,60,44696,1,0,0:0:0:0:
289,51,44851,1,8,0:0:0:0:
278,49,45160,1,0,0:0:0:0:
278,49,45315,1,8,0:0:0:0:
279,49,45624,1,8,0:0:0:0:
279,49,45779,1,0,0:0:0:0:
279,50,45933,1,8,0:0:0:0:
279,50,46242,1,0,0:0:0:0:
279,50,46397,1,8,0:0:0:0:
279,50,46552,1,8,0:0:0:0:
277,43,46706,1,0,0:0:0:0:
276,43,47016,1,8,0:0:0:0:
273,45,47325,1,8,0:0:0:0:
266,48,47480,1,0,0:0:0:0:
266,48,47634,1,0,0:0:0:0:
266,48,47789,1,8,0:0:0:0:
272,64,48098,1,8,0:0:0:0:
268,50,48253,1,0,0:0:0:0:
268,50,48407,1,8,0:0:0:0:
270,47,48717,1,0,0:0:0:0:
270,47,48871,1,8,0:0:0:0:
270,47,49026,1,8,0:0:0:0:
269,53,49181,1,0,0:0:0:0:
269,53,49335,1,0,0:0:0:0:
270,47,49490,1,8,0:0:0:0:
270,47,49644,1,8,0:0:0:0:
270,47,49799,1,0,0:0:0:0:
262,61,50263,1,0,0:0:0:0:
262,61,50418,1,8,0:0:0:0:
262,79,50727,1,0,0:0:0:0:
262,79,51191,1,0,0:0:0:0:
262,79,51500,1,0,0:0:0:0:
262,79,51655,1,8,0:0:0:0:
262,79,51964,1,8,0:0:0:0:
258,78,52273,1,0,0:0:0:0:
262,70,52737,1,0,0:0:0:0:
262,70,52892,1,8,0:0:0:0:
256,73,53201,1,0,0:0:0:0:
253,75,53665,1,0,0:0:0:0:
252,74,53974,1,0,0:0:0:0:
252,74,54129,1,8,0:0:0:0:
252,74,54284,1,0,0:0:0:0:
255,67,54438,1,8,0:0:0:0:
253,76,54748,1,8,0:0:0:0:
253,76,54902,1,0,0:0:0:0:
253,76,55057,1,0,0:0:0:0:
262,71,55212,1,8,0:0:0:0:
262,72,55521,1,0,0:0:0:0:
262,72,55675,1,8,0:0:0:0:
263,73,55985,1,0,0:0:0:0:
263,73,56139,1,8,0:0:0:0:
263,73,56294,1,8,0:0:0:0:
263,73,56449,1,0,0:0:0:0:
280,69,56758,1,0,0:0:0:0:
280,69,56913,1,8,0:0:0:0:
280,69,57067,1,0,0:0:0:0:
280,69,57145,1,0,0:0:0:0:
280,69,57222,1,8,0:0:0:0:
280,69,57376,1,0,0:0:0:0:
274,75,57531,1,0,0:0:0:0:
274,75,57686,1,8,0:0:0:0:
274,75,57840,1,0,0:0:0:0:
274,75,57918,1,0,0:0:0:0:
274,75,57995,1,8,0:0:0:0:
274,75,58072,1,8,0:0:0:0:
274,75,58150,1,0,0:0:0:0:
274,75,58227,1,0,0:0:0:0:
274,75,58304,1,0,0:0:0:0:
279,72,59387,1,0,0:0:0:0:
238,80,59696,1,8,0:0:0:0:
244,68,59773,1,8,0:0:0:0:
248,72,59851,1,0,0:0:0:0:
248,72,59928,1,0,0:0:0:0:
240,78,60005,1,8,0:0:0:0:
227,76,60083,1,8,0:0:0:0:
227,76,60160,1,0,0:0:0:0:
227,76,60315,1,8,0:0:0:0:
227,76,60392,1,8,0:0:0:0:
227,76,60469,1,0,0:0:0:0:
227,76,60547,1,0,0:0:0:0:
227,76,60624,1,8,0:0:0:0:
227,65,60779,1,0,0:0:0:0:
238,80,60933,1,8,0:0:0:0:
244,68,61010,1,8,0:0:0:0:
248,72,61088,1,0,0:0:0:0:
248,72,61165,1,0,0:0:0:0:
240,78,61242,1,8,0:0:0:0:
227,76,61320,1,8,0:0:0:0:
199,74,61397,1,0,0:0:0:0:
227,76,61552,1,8,0:0:0:0:
227,76,61629,1,8,0:0:0:0:
227,76,61706,1,0,0:0:0:0:
227,76,61784,1,0,0:0:0:0:
227,76,61861,1,8,0:0:0:0:
237,69,62016,1,0,0:0:0:0:
236,76,62170,1,8,0:0:0:0:
237,69,62248,1,0,0:0:0:0:
237,69,62325,1,0,0:0:0:0:
237,67,62402,1,0,0:0:0:0:
237,69,62480,1,8,0:0:0:0:
237,69,62634,1,0,0:0:0:0:
237,69,62789,1,8,0:0:0:0:
246,61,62866,1,0,0:0:0:0:
246,61,62943,1,0,0:0:0:0:
245,61,63021,1,0,0:0:0:0:
246,61,63098,1,8,0:0:0:0:
252,59,63253,1,8,0:0:0:0:
252,59,63407,1,0,0:0:0:0:
256,57,63485,1,0,0:0:0:0:
256,57,63562,1,8,0:0:0:0:
249,60,63639,1,0,0:0:0:0:
256,57,63717,1,8,0:0:0:0:
249,60,63871,1,0,0:0:0:0:
251,62,63949,1,0,0:0:0:0:
244,48,64026,1,8,0:0:0:0:
251,62,64181,1,0,0:0:0:0:
247,62,64258,1,8,0:0:0:0:
251,62,64335,1,0,0:0:0:0:
251,62,64413,1,0,0:0:0:0:
249,59,64490,1,8,0:0:0:0:
238,80,64645,1,8,0:0:0:0:
244,68,64722,1,8,0:0:0:0:
248,72,64800,1,0,0:0:0:0:
248,72,64877,1,0,0:0:0:0:
240,78,64954,1,8,0:0:0:0:
227,76,65031,1,8,0:0:0:0:
227,76,65109,1,0,0:0:0:0:
227,76,65264,1,8,0:0:0:0:
227,76,65341,1,8,0:0:0:0:
227,76,65418,1,0,0:0:0:0:
227,76,65496,1,0,0:0:0:0:
227,76,65573,1,8,0:0:0:0:
227,65,65728,1,0,0:0:0:0:
238,80,65882,1,8,0:0:0:0:
244,68,65959,1,8,0:0:0:0:
248,72,66037,1,0,0:0:0:0:
248,72,66114,1,0,0:0:0:0:
240,78,66191,1,8,0:0:0:0:
227,76,66269,1,8,0:0:0:0:
227,76,66346,1,0,0:0:0:0:
227,76,66501,1,8,0:0:0:0:
227,76,66578,1,8,0:0:0:0:
227,76,66655,1,0,0:0:0:0:
227,76,66733,1,0,0:0:0:0:
227,76,66810,1,8,0:0:0:0:
237,69,66965,1,0,0:0:0:0:
236,76,67119,1,8,0:0:0:0:
237,69,67197,1,0,0:0:0:0:
237,69,67274,1,0,0:0:0:0:
237,67,67351,1,0,0:0:0:0:
237,69,67429,1,8,0:0:0:0:
237,69,67583,1,0,0:0:0:0:
237,69,67737,1,8,0:0:0:0:
246,61,67815,1,0,0:0:0:0:
246,61,67892,1,0,0:0:0:0:
245,61,67970,1,0,0:0:0:0:
246,61,68047,1,8,0:0:0:0:
245,61,68201,1,8,0:0:0:0:
250,55,68356,1,0,0:0:0:0:
250,55,68510,1,0,0:0:0:0:
250,55,68588,1,0,0:0:0:0:
250,55,68665,1,8,0:0:0:0:
250,55,68820,1,0,0:0:0:0:
250,55,68897,1,8,0:0:0:0:
250,55,68974,1,0,0:0:0:0:
250,55,69052,1,0,0:0:0:0:
250,55,69129,1,8,0:0:0:0:
250,55,69284,1,8,0:0:0:0:
250,55,69361,1,8,0:0:0:0:
232,47,69438,1,0,0:0:0:0:
261,54,69593,1,8,0:0:0:0:
277,67,70212,1,12,0:0:0:0:
277,67,70366,1,8,0:0:0:0:
267,57,70521,1,0,0:0:0:0:
267,57,70675,1,8,0:0:0:0:
267,57,70830,1,8,0:0:0:0:
267,57,70907,1,8,0:0:0:0:
267,57,70985,1,0,0:0:0:0:
270,49,71062,1,0,0:0:0:0:
270,48,71139,1,8,0:0:0:0:
267,59,71294,1,0,0:0:0:0:
267,57,71449,1,8,0:0:0:0:
267,59,71526,1,0,0:0:0:0:
267,59,71603,1,0,0:0:0:0:
267,57,71681,1,0,0:0:0:0:
267,59,71758,1,8,0:0:0:0:
267,57,71913,1,0,0:0:0:0:
267,57,72067,1,8,0:0:0:0:
267,57,72145,1,8,0:0:0:0:
267,59,72222,1,0,0:0:0:0:
267,57,72299,1,0,0:0:0:0:
257,56,72376,1,8,0:0:0:0:
267,59,72454,1,8,0:0:0:0:
265,64,72531,1,0,0:0:0:0:
265,64,72686,1,8,0:0:0:0:
265,64,72840,1,8,0:0:0:0:
265,64,72918,1,0,0:0:0:0:
265,64,72995,1,0,0:0:0:0:
265,64,73072,1,0,0:0:0:0:
258,58,73150,1,8,0:0:0:0:
258,76,73304,1,0,0:0:0:0:
275,64,73459,1,0,0:0:0:0:
275,64,73536,1,0,0:0:0:0:
275,64,73614,1,8,0:0:0:0:
275,64,73691,1,8,0:0:0:0:
275,64,73768,1,0,0:0:0:0:
275,64,73923,1,8,0:0:0:0:
276,72,74000,1,0,0:0:0:0:
273,72,74078,1,0,0:0:0:0:
273,74,74155,1,0,0:0:0:0:
267,66,74232,1,8,0:0:0:0:
267,66,74387,1,0,0:0:0:0:
266,64,74541,1,8,0:0:0:0:
259,54,74619,1,8,0:0:0:0:
259,53,74696,1,0,0:0:0:0:
259,53,74773,1,0,0:0:0:0:
277,79,74851,1,8,0:0:0:0:
281,61,74928,1,0,0:0:0:0:
282,61,75005,1,0,0:0:0:0:
282,61,75083,1,0,0:0:0:0:
255,54,75160,1,8,0:0:0:0:
250,53,75315,1,0,0:0:0:0:
255,54,75392,1,0,0:0:0:0:
258,56,75469,1,8,0:0:0:0:
239,52,75624,1,0,0:0:0:0:
240,53,75779,1,8,0:0:0:0:
239,52,75856,1,8,0:0:0:0:
239,52,75933,1,0,0:0:0:0:
240,53,76010,1,0,0:0:0:0:
239,52,76088,1,8,0:0:0:0:
239,52,76165,1,0,0:0:0:0:
240,53,76242,1,0,0:0:0:0:
239,52,76320,1,0,0:0:0:0:
239,52,76397,1,8,0:0:0:0:
258,61,76552,1,0,0:0:0:0:
238,56,76629,1,0,0:0:0:0:
238,56,76706,1,8,0:0:0:0:
238,56,76861,1,0,0:0:0:0:
238,56,77016,1,12,0:0:0:0:
238,56,77170,1,0,0:0:0:0:
238,56,77325,1,0,0:0:0:0:
238,56,77480,1,0,0:0:0:0:
238,56,77634,1,12,0:0:0:0:
232,56,78098,1,12,0:0:0:0:
232,56,78407,1,0,0:0:0:0:
232,56,78562,1,0,0:0:0:0:
232,56,78717,1,0,0:0:0:0:
232,56,78871,1,12,0:0:0:0:
237,55,79181,1,8,0:0:0:0:
237,55,79335,1,12,0:0:0:0:
256,192,79490,12,0,80572,0:0:0:0:
260,141,80727,5,0,0:0:0:0:
260,141,81036,1,8,0:0:0:0:
247,148,81191,1,0,0:0:0:0:
247,148,81346,1,0,0:0:0:0:
251,137,81655,1,8,0:0:0:0:
251,137,81809,1,8,0:0:0:0:
251,137,81964,1,0,0:0:0:0:
250,138,82273,1,8,0:0:0:0:
250,138,82428,1,0,0:0:0:0:
250,138,82583,1,0,0:0:0:0:
250,138,82737,1,0,0:0:0:0:
250,138,82892,1,8,0:0:0:0:
252,122,83201,1,0,0:0:0:0:
249,135,83356,1,8,0:0:0:0:
255,124,83510,1,8,0:0:0:0:
255,124,83665,1,0,0:0:0:0:
255,124,83820,1,8,0:0:0:0:
260,115,84438,1,0,0:0:0:0:
260,115,84593,1,0,0:0:0:0:
260,115,84748,1,8,0:0:0:0:
260,115,84902,1,8,0:0:0:0:
260,115,85057,1,0,0:0:0:0:
252,116,85366,1,8,0:0:0:0:
252,116,85521,1,0,0:0:0:0:
252,116,85675,1,0,0:0:0:0:
252,116,85830,1,0,0:0:0:0:
252,116,85985,1,8,0:0:0:0:
245,120,86139,1,8,0:0:0:0:
249,112,86294,1,0,0:0:0:0:
249,109,86758,1,0,0:0:0:0:
249,109,86913,1,8,0:0:0:0:
249,109,87067,1,0,0:0:0:0:
249,109,87222,1,8,0:0:0:0:
249,109,87376,1,0,0:0:0:0:
249,109,87531,1,8,0:0:0:0:
248,108,87840,1,8,0:0:0:0:
251,118,87995,1,8,0:0:0:0:
248,108,88150,1,0,0:0:0:0:
244,96,88304,1,8,0:0:0:0:
245,78,88459,1,0,0:0:0:0:
245,78,88614,1,8,0:0:0:0:
245,78,88768,1,0,0:0:0:0:
238,59,88923,1,8,0:0:0:0:
240,72,89078,1,8,0:0:0:0:
240,72,89232,1,0,0:0:0:0:
236,63,89387,1,8,0:0:0:0:
236,63,89541,1,0,0:0:0:0:
236,63,89619,1,0,0:0:0:0:
236,63,89696,1,8,0:0:0:0:
230,53,89851,1,0,0:0:0:0:
230,53,90005,1,8,0:0:0:0:
230,53,90083,1,8,0:0:0:0:
230,53,90160,1,8,0:0:0:0:
230,53,90315,1,8,0:0:0:0:
223,59,90469,1,0,0:0:0:0:
277,79,90624,1,8,0:0:0:0:
275,78,90934,1,8,0:0:0:0:
275,78,91088,1,0,0:0:0:0:
275,78,91243,1,8,0:0:0:0:
275,78,91552,1,0,0:0:0:0:
275,78,91707,1,8,0:0:0:0:
281,81,91861,1,0,0:0:0:0:
281,81,92171,1,8,0:0:0:0:
281,81,92325,1,0,0:0:0:0:
281,81,92635,1,0,0:0:0:0:
272,92,92789,1,8,0:0:0:0:
272,92,92944,1,0,0:0:0:0:
272,92,93099,1,8,0:0:0:0:
273,92,93408,1,8,0:0:0:0:
273,92,93562,1,0,0:0:0:0:
273,92,93717,1,8,0:0:0:0:
272,93,94026,1,8,0:0:0:0:
272,93,94181,1,8,0:0:0:0:
275,81,94336,1,0,0:0:0:0:
277,82,94490,1,8,0:0:0:0:
277,82,94645,1,0,0:0:0:0:
277,82,94800,1,8,0:0:0:0:
277,82,94954,1,0,0:0:0:0:
277,82,95109,1,8,0:0:0:0:
277,82,95186,1,0,0:0:0:0:
277,82,95264,1,8,0:0:0:0:
277,82,95418,1,0,0:0:0:0:
277,82,95573,1,8,0:0:0:0:
278,78,95882,1,0,0:0:0:0:
278,78,96191,1,8,0:0:0:0:
278,78,96346,1,0,0:0:0:0:
278,78,96423,1,8,0:0:0:0:
278,78,96501,1,0,0:0:0:0:
278,78,96655,1,8,0:0:0:0:
278,78,96810,1,0,0:0:0:0:
277,77,97119,1,8,0:0:0:0:
277,77,97274,1,0,0:0:0:0:
277,77,97428,1,0,0:0:0:0:
278,77,97738,1,8,0:0:0:0:
282,72,98047,1,8,0:0:0:0:
282,72,98202,1,0,0:0:0:0:
282,72,98356,1,0,0:0:0:0:
282,72,98511,1,8,0:0:0:0:
282,72,98666,1,0,0:0:0:0:
282,72,98820,1,8,0:0:0:0:
282,72,98975,1,8,0:0:0:0:
282,72,99129,1,0,0:0:0:0:
282,72,99284,1,8,0:0:0:0:
282,72,99439,1,8,0:0:0:0:
282,72,99593,1,0,0:0:0:0:
282,72,99748,1,0,0:0:0:0:
282,72,99825,1,0,0:0:0:0:
282,72,99903,1,8,0:0:0:0:
282,72,100057,1,8,0:0:0:0:
288,72,100212,1,0,0:0:0:0:
272,75,100521,1,8,0:0:0:0:
316,66,100676,1,0,0:0:0:0:
286,73,100831,1,8,0:0:0:0:
286,73,100985,1,0,0:0:0:0:
286,73,101140,1,8,0:0:0:0:
286,73,101294,1,0,0:0:0:0:
286,73,101449,1,8,0:0:0:0:
286,73,101604,1,8,0:0:0:0:
278,71,102068,1,8,0:0:0:0:
289,69,102222,1,8,0:0:0:0:
289,69,102377,1,0,0:0:0:0:
289,69,102532,1,0,0:0:0:0:
289,69,102686,1,8,0:0:0:0:
281,59,102764,1,8,0:0:0:0:
281,59,102841,1,8,0:0:0:0:
284,62,102995,1,8,0:0:0:0:
284,62,103150,1,0,0:0:0:0:
284,62,103305,1,8,0:0:0:0:
284,62,103459,1,0,0:0:0:0:
283,61,103614,1,8,0:0:0:0:
283,61,103769,1,0,0:0:0:0:
283,61,103923,1,8,0:0:0:0:
283,61,104078,1,8,0:0:0:0:
282,56,104542,1,8,0:0:0:0:
276,60,104697,1,8,0:0:0:0:
276,60,104851,1,0,0:0:0:0:
276,60,105006,1,0,0:0:0:0:
276,60,105160,1,8,0:0:0:0:
276,60,105238,1,8,0:0:0:0:
276,60,105315,1,0,0:0:0:0:
289,51,105470,1,8,0:0:0:0:
278,49,105779,1,0,0:0:0:0:
278,49,105934,1,8,0:0:0:0:
267,70,106088,1,0,0:0:0:0:
279,49,106398,1,8,0:0:0:0:
270,73,106706,1,0,0:0:0:0:
279,50,106861,1,0,0:0:0:0:
279,50,107016,1,8,0:0:0:0:
279,50,107171,1,8,0:0:0:0:
277,43,107325,1,0,0:0:0:0:
276,43,107635,1,8,0:0:0:0:
270,64,107789,1,0,0:0:0:0:
273,45,107944,1,8,0:0:0:0:
266,48,108099,1,0,0:0:0:0:
266,48,108253,1,8,0:0:0:0:
272,64,108562,1,0,0:0:0:0:
272,64,108717,1,0,0:0:0:0:
268,50,108872,1,8,0:0:0:0:
268,50,109026,1,0,0:0:0:0:
262,60,109181,1,0,0:0:0:0:
270,47,109336,1,0,0:0:0:0:
270,47,109490,1,8,0:0:0:0:
270,47,109645,1,8,0:0:0:0:
269,53,109800,1,0,0:0:0:0:
269,53,109954,1,0,0:0:0:0:
270,47,110109,1,8,0:0:0:0:
270,47,110263,1,8,0:0:0:0:
270,47,110418,1,0,0:0:0:0:
262,61,110882,1,0,0:0:0:0:
262,61,111037,1,8,0:0:0:0:
262,79,111346,1,0,0:0:0:0:
262,79,111810,1,0,0:0:0:0:
262,79,112119,1,0,0:0:0:0:
262,79,112274,1,8,0:0:0:0:
262,79,112583,1,8,0:0:0:0:
258,78,112892,1,0,0:0:0:0:
262,70,113356,1,0,0:0:0:0:
262,70,113511,1,8,0:0:0:0:
256,73,113820,1,0,0:0:0:0:
253,75,114284,1,0,0:0:0:0:
252,74,114593,1,0,0:0:0:0:
252,74,114748,1,8,0:0:0:0:
252,74,114903,1,0,0:0:0:0:
255,67,115057,1,8,0:0:0:0:
253,76,115367,1,8,0:0:0:0:
253,76,115521,1,0,0:0:0:0:
253,76,115676,1,0,0:0:0:0:
262,71,115831,1,8,0:0:0:0:
262,72,116140,1,0,0:0:0:0:
262,72,116294,1,8,0:0:0:0:
263,73,116604,1,0,0:0:0:0:
263,73,116758,1,8,0:0:0:0:
263,73,116913,1,8,0:0:0:0:
263,73,117068,1,0,0:0:0:0:
280,69,117377,1,0,0:0:0:0:
280,69,117532,1,8,0:0:0:0:
280,69,117686,1,0,0:0:0:0:
280,69,117764,1,0,0:0:0:0:
280,69,117841,1,8,0:0:0:0:
280,69,117995,1,0,0:0:0:0:
274,75,118150,1,0,0:0:0:0:
274,75,118305,1,8,0:0:0:0:
274,75,118459,1,0,0:0:0:0:
274,75,118537,1,0,0:0:0:0:
274,75,118614,1,8,0:0:0:0:
274,75,118691,1,8,0:0:0:0:
274,75,118769,1,0,0:0:0:0:
274,75,118846,1,0,0:0:0:0:
274,75,118923,1,0,0:0:0:0:
276,69,119232,1,8,0:0:0:0:
274,61,119309,1,8,0:0:0:0:
276,69,119387,1,8,0:0:0:0:
276,69,119464,1,8,0:0:0:0:
276,69,119541,1,8,0:0:0:0:
276,69,119619,1,8,0:0:0:0:
276,69,119696,1,8,0:0:0:0:
276,69,119773,1,8,0:0:0:0:
276,69,119851,1,8,0:0:0:0:
276,69,119928,1,8,0:0:0:0:
279,72,120006,1,0,0:0:0:0:
238,80,120315,1,8,0:0:0:0:
244,68,120392,1,8,0:0:0:0:
248,72,120470,1,0,0:0:0:0:
248,72,120547,1,0,0:0:0:0:
240,78,120624,1,8,0:0:0:0:
227,76,120702,1,8,0:0:0:0:
227,76,120779,1,0,0:0:0:0:
227,76,120934,1,8,0:0:0:0:
227,76,121011,1,8,0:0:0:0:
227,76,121088,1,0,0:0:0:0:
227,76,121166,1,0,0:0:0:0:
227,76,121243,1,8,0:0:0:0:
227,65,121398,1,0,0:0:0:0:
238,80,121552,1,8,0:0:0:0:
244,68,121629,1,8,0:0:0:0:
248,72,121707,1,0,0:0:0:0:
248,72,121784,1,0,0:0:0:0:
240,78,121861,1,8,0:0:0:0:
227,76,121939,1,8,0:0:0:0:
199,74,122016,1,0,0:0:0:0:
227,76,122171,1,8,0:0:0:0:
227,76,122248,1,8,0:0:0:0:
227,76,122325,1,0,0:0:0:0:
227,76,122403,1,0,0:0:0:0:
227,76,122480,1,8,0:0:0:0:
237,69,122635,1,0,0:0:0:0:
236,76,122789,1,8,0:0:0:0:
237,69,122867,1,0,0:0:0:0:
237,69,122944,1,0,0:0:0:0:
237,67,123021,1,0,0:0:0:0:
237,69,123099,1,8,0:0:0:0:
237,69,123253,1,0,0:0:0:0:
237,69,123408,1,8,0:0:0:0:
246,61,123485,1,0,0:0:0:0:
246,61,123562,1,0,0:0:0:0:
245,61,123640,1,0,0:0:0:0:
246,61,123717,1,8,0:0:0:0:
252,59,123872,1,8,0:0:0:0:
252,59,124026,1,0,0:0:0:0:
256,57,124104,1,0,0:0:0:0:
256,57,124181,1,8,0:0:0:0:
249,60,124258,1,0,0:0:0:0:
256,57,124336,1,8,0:0:0:0:
249,60,124490,1,0,0:0:0:0:
251,62,124568,1,0,0:0:0:0:
244,48,124645,1,8,0:0:0:0:
251,62,124800,1,0,0:0:0:0:
247,62,124877,1,8,0:0:0:0:
251,62,124954,1,0,0:0:0:0:
251,62,125032,1,0,0:0:0:0:
249,59,125109,1,8,0:0:0:0:
238,80,125264,1,8,0:0:0:0:
244,68,125341,1,8,0:0:0:0:
248,72,125419,1,0,0:0:0:0:
248,72,125496,1,0,0:0:0:0:
240,78,125573,1,8,0:0:0:0:
227,76,125650,1,8,0:0:0:0:
227,76,125728,1,0,0:0:0:0:
227,76,125883,1,8,0:0:0:0:
227,76,125960,1,8,0:0:0:0:
227,76,126037,1,0,0:0:0:0:
227,76,126115,1,0,0:0:0:0:
227,76,126192,1,8,0:0:0:0:
227,65,126347,1,0,0:0:0:0:
238,80,126501,1,8,0:0:0:0:
244,68,126578,1,8,0:0:0:0:
248,72,126656,1,0,0:0:0:0:
248,72,126733,1,0,0:0:0:0:
240,78,126810,1,8,0:0:0:0:
227,76,126888,1,8,0:0:0:0:
227,76,126965,1,0,0:0:0:0:
227,76,127120,1,8,0:0:0:0:
227,76,127197,1,8,0:0:0:0:
227,76,127274,1,0,0:0:0:0:
227,76,127352,1,0,0:0:0:0:
227,76,127429,1,8,0:0:0:0:
237,69,127584,1,0,0:0:0:0:
236,76,127738,1,8,0:0:0:0:
237,69,127816,1,0,0:0:0:0:
237,69,127893,1,0,0:0:0:0:
237,67,127970,1,0,0:0:0:0:
237,69,128048,1,8,0:0:0:0:
237,69,128202,1,0,0:0:0:0:
237,69,128356,1,8,0:0:0:0:
246,61,128434,1,0,0:0:0:0:
246,61,128511,1,0,0:0:0:0:
245,61,128589,1,0,0:0:0:0:
246,61,128666,1,8,0:0:0:0:
245,61,128820,1,8,0:0:0:0:
250,55,128975,1,0,0:0:0:0:
250,55,129129,1,0,0:0:0:0:
250,55,129207,1,0,0:0:0:0:
250,55,129284,1,8,0:0:0:0:
250,55,129439,1,0,0:0:0:0:
250,55,129516,1,8,0:0:0:0:
250,55,129593,1,0,0:0:0:0:
250,55,129671,1,0,0:0:0:0:
250,55,129748,1,8,0:0:0:0:
250,55,129903,1,8,0:0:0:0:
250,55,129980,1,8,0:0:0:0:
232,47,130057,1,0,0:0:0:0:
261,54,130212,1,8,0:0:0:0:
277,67,130831,1,12,0:0:0:0:
277,67,130985,1,8,0:0:0:0:
267,57,131140,1,0,0:0:0:0:
267,57,131294,1,8,0:0:0:0:
267,57,131449,1,8,0:0:0:0:
267,57,131526,1,8,0:0:0:0:
267,57,131604,1,0,0:0:0:0:
270,49,131681,1,0,0:0:0:0:
270,48,131758,1,8,0:0:0:0:
267,59,131913,1,0,0:0:0:0:
267,57,132068,1,8,0:0:0:0:
267,59,132145,1,0,0:0:0:0:
267,59,132222,1,0,0:0:0:0:
267,57,132300,1,0,0:0:0:0:
267,59,132377,1,8,0:0:0:0:
267,57,132532,1,0,0:0:0:0:
267,57,132686,1,8,0:0:0:0:
267,57,132764,1,8,0:0:0:0:
267,59,132841,1,0,0:0:0:0:
267,57,132918,1,0,0:0:0:0:
257,56,132995,1,8,0:0:0:0:
267,59,133073,1,8,0:0:0:0:
265,64,133150,1,0,0:0:0:0:
265,64,133305,1,8,0:0:0:0:
265,64,133459,1,8,0:0:0:0:
265,64,133537,1,0,0:0:0:0:
265,64,133614,1,0,0:0:0:0:
265,64,133691,1,0,0:0:0:0:
258,58,133769,1,8,0:0:0:0:
258,76,133923,1,0,0:0:0:0:
275,64,134078,1,0,0:0:0:0:
275,64,134155,1,0,0:0:0:0:
275,64,134233,1,8,0:0:0:0:
275,64,134310,1,8,0:0:0:0:
275,64,134387,1,0,0:0:0:0:
275,64,134542,1,8,0:0:0:0:
276,72,134619,1,0,0:0:0:0:
273,72,134697,1,0,0:0:0:0:
273,74,134774,1,0,0:0:0:0:
267,66,134851,1,8,0:0:0:0:
267,66,135006,1,0,0:0:0:0:
266,64,135160,1,8,0:0:0:0:
259,54,135238,1,8,0:0:0:0:
259,53,135315,1,0,0:0:0:0:
259,53,135392,1,0,0:0:0:0:
277,79,135470,1,8,0:0:0:0:
281,61,135547,1,0,0:0:0:0:
282,61,135624,1,0,0:0:0:0:
282,61,135702,1,0,0:0:0:0:
255,54,135779,1,8,0:0:0:0:
250,53,135934,1,0,0:0:0:0:
255,54,136011,1,0,0:0:0:0:
258,56,136088,1,8,0:0:0:0:
239,52,136243,1,0,0:0:0:0:
240,53,136398,1,8,0:0:0:0:
239,52,136475,1,8,0:0:0:0:
239,52,136552,1,0,0:0:0:0:
240,53,136629,1,0,0:0:0:0:
239,52,136707,1,8,0:0:0:0:
239,52,136784,1,0,0:0:0:0:
240,53,136861,1,0,0:0:0:0:
239,52,136939,1,0,0:0:0:0:
239,52,137016,1,8,0:0:0:0:
258,61,137171,1,0,0:0:0:0:
238,56,137248,1,0,0:0:0:0:
238,56,137325,1,8,0:0:0:0:
238,56,137480,1,0,0:0:0:0:
238,56,137635,1,12,0:0:0:0:
238,56,137789,1,0,0:0:0:0:
238,56,137944,1,0,0:0:0:0:
238,56,138099,1,0,0:0:0:0:
238,56,138253,1,12,0:0:0:0:
232,56,138717,1,12,0:0:0:0:
232,56,139026,1,0,0:0:0:0:
232,56,139181,1,0,0:0:0:0:
232,56,139336,1,0,0:0:0:0:
232,56,139490,1,12,0:0:0:0:
237,55,139800,1,8,0:0:0:0:
237,55,139954,1,12,0:0:0:0:
256,192,140109,12,0,141191,0:0:0:0:
260,141,141346,5,0,0:0:0:0:
245,135,141809,1,0,0:0:0:0:
245,135,141964,1,8,0:0:0:0:
246,134,142583,1,0,0:0:0:0:
245,134,143047,1,0,0:0:0:0:
245,134,143201,1,8,0:0:0:0:
238,136,143510,1,0,0:0:0:0:
246,134,143820,1,8,0:0:0:0:
237,136,144284,1,0,0:0:0:0:
246,134,144438,1,8,0:0:0:0:
240,115,144902,1,8,0:0:0:0:
240,115,145057,1,0,0:0:0:0:
248,119,145212,1,8,0:0:0:0:
244,117,145521,1,0,0:0:0:0:
244,117,145675,1,8,0:0:0:0:
244,114,146294,1,0,0:0:0:0:
246,121,146758,1,0,0:0:0:0:
246,121,146913,1,8,0:0:0:0:
245,120,147222,1,0,0:0:0:0:
245,120,147531,1,8,0:0:0:0:
245,120,148150,1,0,0:0:0:0:
246,120,148459,1,0,0:0:0:0:
239,124,148614,1,0,0:0:0:0:
239,124,148768,1,8,0:0:0:0:
247,116,149078,1,0,0:0:0:0:
246,115,149387,1,8,0:0:0:0:
246,115,149541,1,0,0:0:0:0:
245,115,149851,1,8,0:0:0:0:
245,113,150160,1,8,0:0:0:0:
245,113,150469,1,0,0:0:0:0:
245,113,150624,1,8,0:0:0:0:
244,113,150933,1,0,0:0:0:0:
244,113,151242,1,0,0:0:0:0:
244,113,151552,1,8,0:0:0:0:
253,114,151861,1,0,0:0:0:0:
253,114,152170,1,8,0:0:0:0:
237,110,152325,1,0,0:0:0:0:
237,110,152480,1,0,0:0:0:0:
237,110,152789,1,8,0:0:0:0:
237,110,153098,1,8,0:0:0:0:
237,110,153253,1,0,0:0:0:0:
237,110,153407,1,8,0:0:0:0:
245,108,153717,1,0,0:0:0:0:
245,108,154026,1,8,0:0:0:0:
245,108,154335,1,0,0:0:0:0:
245,108,154490,1,0,0:0:0:0:
245,108,154645,1,8,0:0:0:0:
245,108,154799,1,8,0:0:0:0:
245,108,154954,1,0,0:0:0:0:
247,98,155263,1,8,0:0:0:0:
247,98,155572,1,8,0:0:0:0:
247,98,155727,1,0,0:0:0:0:
247,98,155882,1,8,0:0:0:0:
231,108,156191,1,0,0:0:0:0:
231,108,156346,1,0,0:0:0:0:
231,108,156500,1,8,0:0:0:0:
231,108,156655,1,8,0:0:0:0:
231,108,156809,1,0,0:0:0:0:
231,108,156964,1,0,0:0:0:0:
231,108,157119,1,8,0:0:0:0:
231,108,157273,1,8,0:0:0:0:
231,108,157428,1,0,0:0:0:0:
231,108,157583,1,0,0:0:0:0:
238,105,157737,1,8,0:0:0:0:
238,105,157892,1,8,0:0:0:0:
238,105,158047,1,0,0:0:0:0:
238,105,158201,1,0,0:0:0:0:
238,105,158356,1,8,0:0:0:0:
238,105,158510,1,8,0:0:0:0:
253,95,158665,1,0,0:0:0:0:
250,96,158742,1,0,0:0:0:0:
253,95,158820,1,0,0:0:0:0:
253,95,158897,1,0,0:0:0:0:
250,96,158974,1,0,0:0:0:0:
253,95,159052,1,0,0:0:0:0:
253,95,159129,1,0,0:0:0:0:
250,96,159206,1,0,0:0:0:0:
253,95,159284,1,0,0:0:0:0:
253,95,159361,1,0,0:0:0:0:
253,95,159438,1,0,0:0:0:0:
253,95,159516,1,0,0:0:0:0:
253,95,159593,1,0,0:0:0:0:
253,95,159670,1,0,0:0:0:0:
253,95,159748,1,0,0:0:0:0:
253,95,159825,1,0,0:0:0:0:
253,95,159902,1,0,0:0:0:0:
237,235,160134,2,0,L|276:218,11,35
273,111,161139,1,4,0:0:0:0:
265,109,161758,1,12,0:0:0:0:
265,109,161913,1,0,0:0:0:0:
265,109,161990,1,0,0:0:0:0:
265,109,162067,1,8,0:0:0:0:
265,109,162222,1,0,0:0:0:0:
265,109,162299,1,0,0:0:0:0:
275,96,162376,1,8,0:0:0:0:
251,102,162454,1,8,0:0:0:0:
266,101,162531,1,0,0:0:0:0:
269,100,162686,1,8,0:0:0:0:
266,101,162763,1,0,0:0:0:0:
266,101,162840,1,8,0:0:0:0:
269,100,162918,1,0,0:0:0:0:
266,101,162995,1,8,0:0:0:0:
269,100,163150,1,0,0:0:0:0:
266,101,163227,1,0,0:0:0:0:
266,101,163304,1,8,0:0:0:0:
248,104,163459,1,0,0:0:0:0:
248,104,163614,1,8,0:0:0:0:
269,98,163768,1,0,0:0:0:0:
269,98,163846,1,0,0:0:0:0:
268,98,163923,1,8,0:0:0:0:
256,101,164000,1,8,0:0:0:0:
261,104,164078,1,0,0:0:0:0:
258,95,164232,1,8,0:0:0:0:
248,86,164309,1,0,0:0:0:0:
248,85,164387,1,8,0:0:0:0:
248,86,164464,1,0,0:0:0:0:
248,86,164541,1,8,0:0:0:0:
248,86,164696,1,0,0:0:0:0:
248,86,164773,1,0,0:0:0:0:
248,86,164851,1,8,0:0:0:0:
248,86,165005,1,0,0:0:0:0:
248,86,165160,1,8,0:0:0:0:
248,86,165237,1,0,0:0:0:0:
246,97,165315,1,8,0:0:0:0:
248,86,165392,1,0,0:0:0:0:
246,97,165469,1,8,0:0:0:0:
248,86,165624,1,0,0:0:0:0:
248,87,165701,1,0,0:0:0:0:
248,86,165779,1,8,0:0:0:0:
248,86,165856,1,8,0:0:0:0:
248,87,165933,1,0,0:0:0:0:
241,83,166088,1,8,0:0:0:0:
221,89,166242,1,0,0:0:0:0:
223,97,166320,1,0,0:0:0:0:
221,89,166397,1,8,0:0:0:0:
234,81,166474,1,8,0:0:0:0:
234,81,166552,1,0,0:0:0:0:
234,81,166706,1,8,0:0:0:0:
244,77,166784,1,0,0:0:0:0:
234,81,166861,1,8,0:0:0:0:
244,77,166938,1,0,0:0:0:0:
253,77,167016,1,8,0:0:0:0:
232,75,167170,1,0,0:0:0:0:
231,75,167248,1,0,0:0:0:0:
232,75,167325,1,8,0:0:0:0:
231,75,167480,1,0,0:0:0:0:
232,75,167634,1,8,0:0:0:0:
231,75,167712,1,0,0:0:0:0:
232,75,167789,1,8,0:0:0:0:
232,75,167866,1,0,0:0:0:0:
231,75,167943,1,8,0:0:0:0:
232,75,168098,1,0,0:0:0:0:
222,66,168253,1,8,0:0:0:0:
222,66,168330,1,0,0:0:0:0:
222,66,168407,1,0,0:0:0:0:
222,66,168485,1,0,0:0:0:0:
222,66,168562,1,8,0:0:0:0:
230,57,168717,1,0,0:0:0:0:
217,76,168871,1,8,0:0:0:0:
211,51,169026,1,8,0:0:0:0:
222,64,169103,1,0,0:0:0:0:
221,62,169181,1,0,0:0:0:0:
222,64,169335,1,8,0:0:0:0:
224,55,169490,1,8,0:0:0:0:
224,55,169645,1,0,0:0:0:0:
224,55,169799,1,8,0:0:0:0:
224,55,169954,1,0,0:0:0:0:
224,55,170031,1,0,0:0:0:0:
224,55,170108,1,8,0:0:0:0:
224,55,170263,1,0,0:0:0:0:
224,55,170418,1,8,0:0:0:0:
224,55,170495,1,0,0:0:0:0:
224,55,170572,1,0,0:0:0:0:
224,55,170650,1,0,0:0:0:0:
224,55,170727,1,8,0:0:0:0:
224,55,170882,1,0,0:0:0:0:
224,55,171036,1,8,0:0:0:0:
219,58,171655,1,12,0:0:0:0:
219,58,171809,1,8,0:0:0:0:
219,58,171964,1,0,0:0:0:0:
219,58,172119,1,0,0:0:0:0:
219,58,172273,1,8,0:0:0:0:
286,77,172351,1,8,0:0:0:0:
236,68,172428,1,0,0:0:0:0:
228,63,172583,1,8,0:0:0:0:
228,63,172737,1,0,0:0:0:0:
228,63,172892,1,8,0:0:0:0:
291,71,172969,1,0,0:0:0:0:
291,71,173047,1,0,0:0:0:0:
228,63,173201,1,8,0:0:0:0:
228,63,173356,1,0,0:0:0:0:
228,63,173510,1,8,0:0:0:0:
228,63,173588,1,8,0:0:0:0:
228,63,173665,1,0,0:0:0:0:
228,63,173742,1,0,0:0:0:0:
228,63,173820,1,8,0:0:0:0:
228,63,173974,1,0,0:0:0:0:
228,63,174129,1,8,0:0:0:0:
240,64,174206,1,0,0:0:0:0:
240,64,174284,1,0,0:0:0:0:
238,63,174361,1,0,0:0:0:0:
240,64,174438,1,8,0:0:0:0:
238,63,174593,1,8,0:0:0:0:
238,63,174748,1,0,0:0:0:0:
238,63,174825,1,0,0:0:0:0:
238,63,174902,1,8,0:0:0:0:
238,63,174980,1,0,0:0:0:0:
219,55,175057,1,8,0:0:0:0:
232,55,175212,1,0,0:0:0:0:
247,65,175289,1,0,0:0:0:0:
221,56,175366,1,8,0:0:0:0:
224,76,175443,1,8,0:0:0:0:
225,57,175521,1,0,0:0:0:0:
223,72,175675,1,8,0:0:0:0:
225,57,175753,1,0,0:0:0:0:
233,58,175830,1,8,0:0:0:0:
225,57,175907,1,0,0:0:0:0:
233,58,175985,1,8,0:0:0:0:
225,57,176139,1,0,0:0:0:0:
225,60,176217,1,0,0:0:0:0:
225,57,176294,1,8,0:0:0:0:
225,60,176449,1,0,0:0:0:0:
240,55,176603,1,8,0:0:0:0:
225,57,176758,1,0,0:0:0:0:
220,53,176835,1,0,0:0:0:0:
225,57,176913,1,8,0:0:0:0:
225,57,176990,1,0,0:0:0:0:
220,53,177067,1,8,0:0:0:0:
225,57,177145,1,0,0:0:0:0:
220,53,177222,1,8,0:0:0:0:
254,62,177376,1,0,0:0:0:0:
238,64,177531,1,8,0:0:0:0:
236,64,177608,1,8,0:0:0:0:
238,64,177686,1,0,0:0:0:0:
238,64,177763,1,0,0:0:0:0:
236,64,177840,1,8,0:0:0:0:
229,65,177995,1,0,0:0:0:0:
229,65,178072,1,0,0:0:0:0:
229,65,178150,1,8,0:0:0:0:
229,65,178304,1,0,0:0:0:0:
229,65,178459,1,12,0:0:0:0:
223,60,178614,1,0,0:0:0:0:
223,60,178768,1,0,0:0:0:0:
223,60,178923,1,0,0:0:0:0:
216,58,179078,1,12,0:0:0:0:
216,58,179541,1,12,0:0:0:0:
225,71,179851,1,0,0:0:0:0:
225,71,180005,1,0,0:0:0:0:
225,71,180160,1,0,0:0:0:0:
225,71,180315,1,12,0:0:0:0:
243,59,180624,1,8,0:0:0:0:
243,59,180779,1,12,0:0:0:0:
226,53,181552,1,0,0:0:0:0:
225,51,182170,1,12,0:0:0:0:
228,58,182325,1,0,0:0:0:0:
225,51,182402,1,0,0:0:0:0:
240,58,182480,1,8,0:0:0:0:
240,58,182634,1,0,0:0:0:0:
240,58,182789,1,8,0:0:0:0:
240,58,182866,1,8,0:0:0:0:
240,58,182943,1,0,0:0:0:0:
240,58,183021,1,0,0:0:0:0:
234,67,183098,1,8,0:0:0:0:
234,67,183253,1,0,0:0:0:0:
234,66,183407,1,8,0:0:0:0:
234,67,183485,1,8,0:0:0:0:
234,67,183562,1,0,0:0:0:0:
234,67,183639,1,0,0:0:0:0:
234,67,183717,1,8,0:0:0:0:
234,67,183871,1,0,0:0:0:0:
234,67,184026,1,8,0:0:0:0:
234,67,184103,1,8,0:0:0:0:
234,67,184181,1,0,0:0:0:0:
234,67,184258,1,0,0:0:0:0:
234,67,184335,1,8,0:0:0:0:
234,67,184490,1,0,0:0:0:0:
249,67,184645,1,8,0:0:0:0:
236,60,184722,1,8,0:0:0:0:
241,67,184799,1,0,0:0:0:0:
249,67,184876,1,0,0:0:0:0:
249,67,184954,1,8,0:0:0:0:
249,67,185108,1,8,0:0:0:0:
237,61,185186,1,8,0:0:0:0:
237,61,185263,1,0,0:0:0:0:
237,61,185340,1,0,0:0:0:0:
241,81,185418,1,8,0:0:0:0:
241,75,185572,1,8,0:0:0:0:
241,75,185727,1,0,0:0:0:0:
243,90,185804,1,0,0:0:0:0:
243,91,185882,1,8,0:0:0:0:
243,90,185959,1,8,0:0:0:0:
243,90,186036,1,0,0:0:0:0:
243,90,186191,1,8,0:0:0:0:
234,95,186268,1,0,0:0:0:0:
234,95,186346,1,0,0:0:0:0:
240,58,186500,1,8,0:0:0:0:
240,58,186577,1,8,0:0:0:0:
240,58,186654,1,0,0:0:0:0:
240,58,186732,1,0,0:0:0:0:
234,67,186809,1,8,0:0:0:0:
234,67,186964,1,0,0:0:0:0:
234,66,187118,1,8,0:0:0:0:
234,67,187196,1,0,0:0:0:0:
234,67,187273,1,0,0:0:0:0:
234,67,187350,1,0,0:0:0:0:
234,67,187428,1,8,0:0:0:0:
234,67,187582,1,0,0:0:0:0:
234,67,187737,1,8,0:0:0:0:
234,67,187814,1,0,0:0:0:0:
234,67,187892,1,0,0:0:0:0:
234,67,187969,1,0,0:0:0:0:
234,67,188046,1,8,0:0:0:0:
232,58,188201,1,0,0:0:0:0:
231,58,188356,1,8,0:0:0:0:
232,58,188433,1,8,0:0:0:0:
232,58,188510,1,0,0:0:0:0:
231,58,188588,1,0,0:0:0:0:
232,58,188665,1,8,0:0:0:0:
231,58,188820,1,0,0:0:0:0:
210,60,188974,1,12,0:0:0:0:
224,60,189129,1,0,0:0:0:0:
224,60,189284,1,0,0:0:0:0:
224,60,189438,1,0,0:0:0:0:
224,60,189593,1,12,0:0:0:0:
222,60,190057,1,12,0:0:0:0:
228,60,190366,1,0,0:0:0:0:
228,60,190521,1,0,0:0:0:0:
218,56,190675,1,0,0:0:0:0:
222,59,190830,1,12,0:0:0:0:
232,51,191139,1,8,0:0:0:0:
229,61,191294,1,12,0:0:0:0:
256,192,191449,12,0,193923,0:0:0:0:
