osu file format v14

[General]
AudioFilename: audio.mp3
AudioLeadIn: 0
PreviewTime: 54670
Countdown: 0
SampleSet: Normal
StackLeniency: 0.7
Mode: 1
LetterboxInBreaks: 0
WidescreenStoryboard: 0

[Editor]
DistanceSpacing: 1
BeatDivisor: 4
GridSize: 32
TimelineZoom: 2.1

[Metadata]
Title:Hi High
TitleUnicode:Hi High
Artist:LOONA
ArtistUnicode:이달의 소녀
Creator:Nifty
Version:Futsuu
Source:
Tags:ViVi 비비 Yves 이브 JinSoul 진솔 HaSeul 하슬 Kim Lip 김립 Chuu 츄 HeeJin 희진 HyunJin 현진 Go Won 고원 Choerry 최리 Olivia Hye 올리비아 혜 YeoJin 여진 kpop dance stream [+ +] odd eye circle yyxy korean pop
BeatmapID:1985825
BeatmapSetID:949876

[Difficulty]
HPDrainRate:7
CircleSize:2
OverallDifficulty:4
ApproachRate:10
SliderMultiplier:1.4
SliderTickRate:1

[Events]
//Background and Video events
0,0,"looney.png",0,0
//Break Periods
//Storyboard Layer 0 (Background)
//Storyboard Layer 1 (Fail)
//Storyboard Layer 2 (Pass)
//Storyboard Layer 3 (Foreground)
//Storyboard Layer 4 (Overlay)
//Storyboard Sound Samples

[TimingPoints]
-922,309.278350515464,4,1,0,40,1,0
315,-125,4,1,0,40,0,0
6397,-125,4,1,0,10,0,0
7648,-125,4,1,0,40,0,0
9902,-121.212121212121,4,1,0,60,0,0
10212,-117.647058823529,4,1,0,60,0,0
17557,-100,4,1,0,10,0,0
18871,-125,4,1,0,60,0,0
19181,-122.806974453693,4,1,0,60,0,0
19335,-120.68971759813,4,1,0,60,0,0
19645,-116.666647222225,4,1,0,60,0,0
19954,-112.903262226859,4,1,0,60,0,0
20108,-111.111111111111,4,1,0,60,0,0
37737,-109.380110102019,4,1,0,60,0,0
37892,-108.53461983036,4,1,0,60,0,0
38201,-106.88236953938,4,1,0,60,0,0
38356,-106.074910101514,4,1,0,60,0,0
38665,-104.496156108898,4,1,0,60,0,0
38974,-102.963601337291,4,1,0,60,0,0
39129,-102.21416320331,4,1,0,60,0,0
39284,-101.475453087898,4,1,0,60,0,0
39593,-100.029708823521,4,1,0,60,0,0
50263,-125,4,1,0,60,0,0
54748,-111.111111111111,4,1,0,60,0,0
56913,-109.89010989011,4,1,0,60,0,0
57067,-108.695652173913,4,1,0,60,0,0
57222,-107.52688172043,4,1,0,60,0,0
57531,-105.263157894737,4,1,0,60,0,0
57686,-104.166666666667,4,1,0,60,0,0
57995,-102.040816326531,4,1,0,60,0,0
58150,-101.010101010101,4,1,0,60,0,0
58304,-100,4,1,0,60,0,0
59387,-111.111111111111,4,1,0,60,0,0
59696,-100,4,1,0,80,0,1
69593,-100,4,1,0,80,0,0
70212,-100,4,1,0,80,0,1
80650,-125,4,1,0,60,0,1
80727,-125,4,1,0,60,0,0
89541,-123.076923076923,4,1,0,60,0,0
89696,-121.212121212121,4,1,0,60,0,0
90005,-117.647058823529,4,1,0,60,0,0
90160,-115.942028985507,4,1,0,60,0,0
90315,-114.285714285714,4,1,0,60,0,0
90469,-112.676056338028,4,1,0,60,0,0
90624,-111.111111111111,4,1,0,60,0,0
98047,-111.111111111111,4,1,0,60,0,0
98356,-109.380110102019,4,1,0,60,0,0
98511,-108.53461983036,4,1,0,60,0,0
98820,-106.88236953938,4,1,0,60,0,0
98975,-106.074910101514,4,1,0,60,0,0
99284,-104.496156108898,4,1,0,60,0,0
99593,-102.963601337291,4,1,0,60,0,0
99748,-102.21416320331,4,1,0,60,0,0
99903,-101.475453087898,4,1,0,60,0,0
100057,-100.747343796281,4,1,0,60,0,0
100212,-100.029708823521,4,1,0,60,0,0
110572,-125.054085892148,4,1,0,60,0,0
115366,-111.153843588757,4,1,0,60,0,0
117532,-111.111111111111,4,1,0,60,0,0
117686,-109.756110945867,4,1,0,60,0,0
117841,-108.433761068376,4,1,0,60,0,0
118150,-105.88240276819,4,1,0,60,0,0
118305,-104.651114115761,4,1,0,60,0,0
118614,-102.272704028931,4,1,0,60,0,0
118769,-101.123584143418,4,1,0,60,0,0
118923,-100,4,1,0,60,0,0
119928,-111.111111111111,4,1,0,60,0,0
120315,-100,4,1,0,80,0,1
130212,-100,4,1,0,80,0,0
130830,-100,4,1,0,80,0,1
141249,-125,4,1,0,60,0,1
141346,-125,4,1,0,60,0,0
151242,-125,4,1,0,60,0,0
151552,-123.349278283373,4,1,0,60,0,0
151861,-121.741438229003,4,1,0,60,0,0
152170,-120.175119183674,4,1,0,60,0,0
152325,-119.406977188491,4,1,0,60,0,0
152480,-118.648592531071,4,1,0,60,0,0
152789,-117.160223635435,4,1,0,60,0,0
153098,-115.708867233332,4,1,0,60,0,0
153253,-114.996590351096,4,1,0,60,0,0
153407,-114.293029039573,4,1,0,60,0,0
153717,-112.911293500487,4,1,0,60,0,0
154335,-110.245925586205,4,1,0,60,0,0
154645,-108.959761160204,4,1,0,60,0,0
154799,-108.327925964362,4,1,0,60,0,0
154954,-107.70337628544,4,1,0,60,0,0
155263,-106.475635180402,4,1,0,60,0,0
155572,-105.275569330279,4,1,0,60,0,0
155727,-104.685514246652,4,1,0,60,0,0
155882,-104.102145024698,4,1,0,60,0,0
156191,-102.954696844747,4,1,0,60,0,0
156500,-101.83226799809,4,1,0,60,0,0
156809,-100.733947541789,4,1,0,60,0,0
156964,-100.193674372562,4,1,0,60,0,0
157119,-99.6591656534652,4,1,0,60,0,0
157273,-99.130329618259,4,1,0,60,0,0
157428,-98.6070764382335,4,1,0,60,0,0
157737,-97.5768735003654,4,1,0,60,0,0
157892,-97.0698495223193,4,1,0,60,0,0
158047,-96.5680674508638,4,1,0,60,0,0
158356,-95.5799071919101,4,1,0,60,0,0
158665,-94.6116758376918,4,1,0,60,0,0
158820,-94.1349235859758,4,1,0,60,0,0
158974,-93.6629519939906,4,1,0,60,0,0
159284,-92.733066014815,4,1,0,60,0,0
159438,-92.2750127570205,4,1,0,60,0,0
159593,-91.8213780368773,4,1,0,60,0,0
159902,-90.927524398128,4,1,0,60,0,0
160057,-100,4,1,0,60,0,0
161758,-100,4,1,0,80,0,1
171036,-100,4,1,0,80,0,0
171655,-100,4,1,0,80,0,1
180779,-100,4,1,0,80,0,0
181552,309.278350515464,4,1,0,40,1,8
181552,-111.111111111111,4,1,0,40,0,0
182170,-100,4,1,0,80,0,1
191346,-83.3333333333333,4,1,0,10,0,1
193923,-83.3333333333333,4,1,0,60,0,0

[HitObjects]
292,84,315,5,8,0:0:0:0:
292,90,779,1,8,0:0:0:0:
302,90,1242,1,0,0:0:0:0:
274,129,2789,1,8,0:0:0:0:
274,129,3253,1,8,0:0:0:0:
274,129,3717,1,0,0:0:0:0:
272,130,4954,1,0,0:0:0:0:
275,126,5263,1,8,0:0:0:0:
256,192,6500,12,0,7428,0:0:0:0:
275,126,7737,5,0,0:0:0:0:
272,127,8665,1,0,0:0:0:0:
272,127,9078,1,8,0:0:0:0:
267,106,9593,1,8,0:0:0:0:
267,106,9902,1,8,0:0:0:0:
265,93,10212,5,0,0:0:0:0:
261,78,10521,1,8,0:0:0:0:
261,81,11139,1,8,0:0:0:0:
271,90,11758,1,8,0:0:0:0:
267,89,12376,1,8,0:0:0:0:
259,84,12686,1,0,0:0:0:0:
267,89,12995,1,8,0:0:0:0:
267,89,13614,1,8,0:0:0:0:
274,87,14232,1,8,0:0:0:0:
259,84,14541,1,0,0:0:0:0:
266,80,14851,1,8,0:0:0:0:
264,82,15160,1,0,0:0:0:0:
264,83,15469,1,8,0:0:0:0:
254,92,16088,1,8,0:0:0:0:
256,89,16397,1,8,0:0:0:0:
254,92,16706,1,8,0:0:0:0:
261,88,17016,1,0,0:0:0:0:
261,88,17170,1,0,0:0:0:0:
254,92,17325,1,8,0:0:0:0:
256,192,17634,12,0,18717,0:0:0:0:
261,128,19026,5,8,0:0:0:0:
261,128,19181,1,8,0:0:0:0:
261,128,19335,1,0,0:0:0:0:
288,137,19645,5,8,0:0:0:0:
267,109,19954,1,0,0:0:0:0:
266,105,20108,1,8,0:0:0:0:
265,131,20418,1,8,0:0:0:0:
265,131,20727,1,8,0:0:0:0:
265,131,21036,1,0,0:0:0:0:
265,118,21191,1,8,0:0:0:0:
260,126,21655,1,8,0:0:0:0:
258,127,22273,1,8,0:0:0:0:
251,104,22428,1,0,0:0:0:0:
252,113,22583,1,8,0:0:0:0:
265,110,22892,1,8,0:0:0:0:
259,96,23201,1,8,0:0:0:0:
259,96,23510,1,8,0:0:0:0:
259,96,23665,1,8,0:0:0:0:
259,96,24129,1,8,0:0:0:0:
265,104,24438,1,0,0:0:0:0:
271,89,24748,1,8,0:0:0:0:
271,89,24902,1,0,0:0:0:0:
271,89,25057,1,8,0:0:0:0:
276,84,25366,1,0,0:0:0:0:
277,84,25985,1,8,0:0:0:0:
277,84,26139,1,0,0:0:0:0:
277,84,26294,1,8,0:0:0:0:
275,82,26603,1,8,0:0:0:0:
278,80,27222,1,8,0:0:0:0:
278,80,27376,1,0,0:0:0:0:
278,80,27531,1,8,0:0:0:0:
271,81,27840,1,8,0:0:0:0:
280,79,28150,1,0,0:0:0:0:
258,77,28459,1,8,0:0:0:0:
277,79,28614,1,8,0:0:0:0:
277,79,28768,1,0,0:0:0:0:
277,79,29387,1,8,0:0:0:0:
277,79,29696,1,0,0:0:0:0:
277,79,29851,1,0,0:0:0:0:
277,79,30005,1,8,0:0:0:0:
275,78,30315,1,8,0:0:0:0:
275,78,30624,1,8,0:0:0:0:
275,78,30933,1,0,0:0:0:0:
275,78,31088,1,8,0:0:0:0:
281,81,31552,1,8,0:0:0:0:
272,92,32170,1,8,0:0:0:0:
272,92,32325,1,0,0:0:0:0:
272,92,32480,1,8,0:0:0:0:
273,92,32789,1,8,0:0:0:0:
273,92,33098,1,8,0:0:0:0:
272,93,33407,1,8,0:0:0:0:
272,93,33562,1,8,0:0:0:0:
277,82,33871,1,8,0:0:0:0:
277,82,34026,1,0,0:0:0:0:
277,82,34335,1,8,0:0:0:0:
277,82,34799,1,0,0:0:0:0:
277,82,34954,1,8,0:0:0:0:
278,78,35263,1,0,0:0:0:0:
278,78,35572,1,8,0:0:0:0:
278,78,36036,1,0,0:0:0:0:
278,78,36191,1,8,0:0:0:0:
277,77,36500,1,8,0:0:0:0:
278,77,37119,1,8,0:0:0:0:
282,72,37428,1,8,0:0:0:0:
282,72,37737,1,0,0:0:0:0:
282,72,37892,1,8,0:0:0:0:
282,72,38201,1,0,0:0:0:0:
282,72,38356,1,8,0:0:0:0:
282,72,38665,1,8,0:0:0:0:
282,72,38974,1,0,0:0:0:0:
282,72,39129,1,0,0:0:0:0:
282,72,39284,1,8,0:0:0:0:
288,72,39593,1,0,0:0:0:0:
272,75,39902,1,8,0:0:0:0:
316,66,40057,1,0,0:0:0:0:
286,73,40212,1,8,0:0:0:0:
286,73,40521,1,8,0:0:0:0:
286,73,40830,1,8,0:0:0:0:
286,73,40985,1,0,0:0:0:0:
278,71,41449,1,8,0:0:0:0:
289,69,41758,1,0,0:0:0:0:
289,69,42067,1,8,0:0:0:0:
284,62,42376,1,8,0:0:0:0:
284,62,42531,1,0,0:0:0:0:
284,62,42686,1,8,0:0:0:0:
283,61,42995,1,8,0:0:0:0:
283,61,43304,1,8,0:0:0:0:
283,61,43459,1,0,0:0:0:0:
282,56,43923,1,8,0:0:0:0:
276,60,44232,1,0,0:0:0:0:
276,60,44541,1,8,0:0:0:0:
289,51,44851,1,8,0:0:0:0:
278,49,45160,1,0,0:0:0:0:
278,49,45315,1,8,0:0:0:0:
279,49,45624,1,8,0:0:0:0:
279,50,45933,1,8,0:0:0:0:
279,50,46397,1,8,0:0:0:0:
277,43,46706,1,0,0:0:0:0:
276,43,47016,1,8,0:0:0:0:
273,45,47325,1,8,0:0:0:0:
266,48,47634,1,0,0:0:0:0:
266,48,47789,1,8,0:0:0:0:
272,64,48098,1,8,0:0:0:0:
268,50,48407,1,8,0:0:0:0:
270,47,48871,1,8,0:0:0:0:
270,47,49026,1,8,0:0:0:0:
269,53,49181,1,0,0:0:0:0:
270,47,49490,1,8,0:0:0:0:
270,47,49799,1,0,0:0:0:0:
262,61,50418,1,8,0:0:0:0:
262,79,50727,1,0,0:0:0:0:
262,79,51346,1,0,0:0:0:0:
262,79,51655,1,8,0:0:0:0:
258,78,52273,1,0,0:0:0:0:
262,70,52737,1,0,0:0:0:0:
262,70,52892,1,8,0:0:0:0:
256,73,53201,1,0,0:0:0:0:
253,75,53820,1,0,0:0:0:0:
252,74,54129,1,8,0:0:0:0:
253,76,54748,1,8,0:0:0:0:
253,76,55057,1,0,0:0:0:0:
262,71,55212,1,8,0:0:0:0:
262,72,55675,1,8,0:0:0:0:
263,73,55985,1,0,0:0:0:0:
263,73,56294,1,8,0:0:0:0:
263,73,56449,1,0,0:0:0:0:
280,69,56913,1,8,0:0:0:0:
280,69,57067,1,0,0:0:0:0:
280,69,57222,1,8,0:0:0:0:
274,75,57531,1,0,0:0:0:0:
274,75,57686,1,8,0:0:0:0:
274,75,57995,1,0,0:0:0:0:
274,75,58150,1,0,0:0:0:0:
274,75,58304,1,8,0:0:0:0:
279,72,59387,1,0,0:0:0:0:
238,80,59696,1,8,0:0:0:0:
248,72,59851,1,8,0:0:0:0:
240,78,60005,1,0,0:0:0:0:
227,76,60315,1,8,0:0:0:0:
227,76,60469,1,8,0:0:0:0:
227,76,60624,1,0,0:0:0:0:
238,80,60933,1,8,0:0:0:0:
248,72,61088,1,8,0:0:0:0:
198,72,61242,1,0,0:0:0:0:
227,76,61552,1,8,0:0:0:0:
227,76,61706,1,8,0:0:0:0:
227,76,61861,1,0,0:0:0:0:
236,76,62170,1,8,0:0:0:0:
237,69,62325,1,0,0:0:0:0:
237,69,62480,1,8,0:0:0:0:
237,69,62789,1,8,0:0:0:0:
246,61,63098,1,0,0:0:0:0:
252,59,63253,1,8,0:0:0:0:
244,48,64026,1,8,0:0:0:0:
251,62,64335,1,0,0:0:0:0:
249,59,64490,1,0,0:0:0:0:
238,80,64645,1,8,0:0:0:0:
248,72,64800,1,8,0:0:0:0:
240,78,64954,1,0,0:0:0:0:
227,76,65264,1,8,0:0:0:0:
227,76,65418,1,8,0:0:0:0:
227,65,65572,1,0,0:0:0:0:
238,80,65882,1,8,0:0:0:0:
248,72,66037,1,8,0:0:0:0:
227,76,66191,1,0,0:0:0:0:
227,76,66501,1,8,0:0:0:0:
227,76,66655,1,8,0:0:0:0:
237,69,66809,1,0,0:0:0:0:
236,76,67119,1,8,0:0:0:0:
237,69,67274,1,0,0:0:0:0:
237,69,67429,1,8,0:0:0:0:
237,69,67737,1,8,0:0:0:0:
246,61,68047,1,0,0:0:0:0:
245,61,68201,1,8,0:0:0:0:
250,55,68665,1,8,0:0:0:0:
250,55,68820,1,0,0:0:0:0:
250,55,68974,1,0,0:0:0:0:
250,55,69284,1,8,0:0:0:0:
232,47,69438,1,0,0:0:0:0:
261,54,69593,1,8,0:0:0:0:
277,67,70212,1,12,0:0:0:0:
267,57,70830,1,0,0:0:0:0:
267,57,70985,1,0,0:0:0:0:
270,48,71139,1,8,0:0:0:0:
267,57,71449,1,8,0:0:0:0:
267,59,71603,1,0,0:0:0:0:
267,59,71758,1,8,0:0:0:0:
267,57,72067,1,8,0:0:0:0:
267,59,72222,1,8,0:0:0:0:
257,56,72376,1,0,0:0:0:0:
265,64,72686,1,8,0:0:0:0:
265,64,72995,1,0,0:0:0:0:
258,58,73150,1,8,0:0:0:0:
275,64,73614,1,8,0:0:0:0:
275,64,73923,1,0,0:0:0:0:
267,66,74232,1,8,0:0:0:0:
267,66,74387,1,0,0:0:0:0:
266,64,74541,1,8,0:0:0:0:
259,53,74696,1,8,0:0:0:0:
277,79,74851,1,0,0:0:0:0:
255,54,75160,1,8,0:0:0:0:
258,56,75469,1,8,0:0:0:0:
239,52,75624,1,0,0:0:0:0:
240,53,75779,1,8,0:0:0:0:
239,52,75933,1,8,0:0:0:0:
239,52,76088,1,0,0:0:0:0:
239,52,76397,1,8,0:0:0:0:
238,56,77016,1,12,0:0:0:0:
238,56,77325,1,0,0:0:0:0:
238,56,77634,1,12,0:0:0:0:
232,56,78098,1,12,0:0:0:0:
232,56,78562,1,0,0:0:0:0:
232,56,78871,1,12,0:0:0:0:
237,55,79335,1,12,0:0:0:0:
256,192,79490,12,0,80418,0:0:0:0:
260,141,80727,5,0,0:0:0:0:
260,141,81036,1,8,0:0:0:0:
247,148,81346,1,0,0:0:0:0:
251,137,81655,1,8,0:0:0:0:
251,137,81809,1,8,0:0:0:0:
251,137,81964,1,0,0:0:0:0:
250,138,82273,1,8,0:0:0:0:
250,138,82583,1,0,0:0:0:0:
250,138,82892,1,8,0:0:0:0:
255,124,83510,1,8,0:0:0:0:
255,124,83665,1,0,0:0:0:0:
255,124,83820,1,8,0:0:0:0:
260,115,84438,1,0,0:0:0:0:
260,115,84748,1,8,0:0:0:0:
260,115,84902,1,8,0:0:0:0:
260,115,85057,1,0,0:0:0:0:
252,116,85675,1,0,0:0:0:0:
252,116,85830,1,0,0:0:0:0:
252,116,85985,1,8,0:0:0:0:
249,112,86294,1,0,0:0:0:0:
249,109,86913,1,8,0:0:0:0:
249,109,87067,1,0,0:0:0:0:
249,109,87222,1,8,0:0:0:0:
249,109,87531,1,8,0:0:0:0:
248,108,88150,1,8,0:0:0:0:
245,78,88459,1,0,0:0:0:0:
245,78,88768,1,0,0:0:0:0:
240,72,89078,1,8,0:0:0:0:
240,72,89232,1,0,0:0:0:0:
236,63,89541,1,0,0:0:0:0:
236,63,89696,1,8,0:0:0:0:
230,53,90005,1,0,0:0:0:0:
230,53,90160,1,8,0:0:0:0:
230,53,90315,1,8,0:0:0:0:
223,59,90469,1,0,0:0:0:0:
277,79,90624,1,8,0:0:0:0:
275,78,90934,1,8,0:0:0:0:
275,78,91243,1,8,0:0:0:0:
275,78,91552,1,0,0:0:0:0:
275,78,91707,1,8,0:0:0:0:
281,81,92171,1,8,0:0:0:0:
272,92,92789,1,8,0:0:0:0:
272,92,92944,1,0,0:0:0:0:
272,92,93099,1,8,0:0:0:0:
273,92,93408,1,8,0:0:0:0:
273,92,93717,1,8,0:0:0:0:
272,93,94026,1,8,0:0:0:0:
272,93,94181,1,8,0:0:0:0:
277,82,94490,1,8,0:0:0:0:
277,82,94645,1,0,0:0:0:0:
277,82,94954,1,8,0:0:0:0:
277,82,95418,1,0,0:0:0:0:
277,82,95573,1,8,0:0:0:0:
278,78,95882,1,0,0:0:0:0:
278,78,96191,1,8,0:0:0:0:
278,78,96655,1,0,0:0:0:0:
278,78,96810,1,8,0:0:0:0:
277,77,97119,1,8,0:0:0:0:
278,77,97738,1,8,0:0:0:0:
282,72,98047,1,8,0:0:0:0:
282,72,98356,1,0,0:0:0:0:
282,72,98511,1,8,0:0:0:0:
282,72,98820,1,8,0:0:0:0:
282,72,98975,1,8,0:0:0:0:
282,72,99284,1,8,0:0:0:0:
282,72,99593,1,0,0:0:0:0:
282,72,99748,1,0,0:0:0:0:
282,72,99903,1,8,0:0:0:0:
282,72,100057,1,8,0:0:0:0:
288,72,100212,1,0,0:0:0:0:
272,75,100521,1,8,0:0:0:0:
316,66,100676,1,0,0:0:0:0:
286,73,100831,1,8,0:0:0:0:
286,73,101140,1,8,0:0:0:0:
286,73,101449,1,8,0:0:0:0:
286,73,101604,1,0,0:0:0:0:
278,71,102068,1,8,0:0:0:0:
283,78,102222,1,8,0:0:0:0:
289,69,102377,1,0,0:0:0:0:
289,69,102686,1,8,0:0:0:0:
284,62,102995,1,8,0:0:0:0:
284,62,103150,1,0,0:0:0:0:
284,62,103305,1,8,0:0:0:0:
283,61,103614,1,8,0:0:0:0:
283,61,103923,1,8,0:0:0:0:
283,61,104078,1,0,0:0:0:0:
282,56,104542,1,8,0:0:0:0:
272,53,104696,1,8,0:0:0:0:
276,60,104851,1,0,0:0:0:0:
276,60,105160,1,8,0:0:0:0:
278,49,105779,1,0,0:0:0:0:
278,49,106088,1,8,0:0:0:0:
279,50,106706,1,8,0:0:0:0:
279,50,106861,1,0,0:0:0:0:
279,50,107016,1,0,0:0:0:0:
276,43,107635,1,8,0:0:0:0:
276,43,107789,1,0,0:0:0:0:
273,45,107944,1,8,0:0:0:0:
266,48,108253,1,0,0:0:0:0:
276,42,108562,1,8,0:0:0:0:
268,50,108871,1,0,0:0:0:0:
270,47,109181,1,8,0:0:0:0:
270,47,109490,1,8,0:0:0:0:
270,47,109645,1,8,0:0:0:0:
269,53,109800,1,0,0:0:0:0:
270,47,110109,1,8,0:0:0:0:
270,47,110418,1,0,0:0:0:0:
262,61,111037,1,8,0:0:0:0:
262,79,111346,1,0,0:0:0:0:
262,79,111965,1,0,0:0:0:0:
262,79,112274,1,8,0:0:0:0:
258,78,112892,1,0,0:0:0:0:
262,70,113356,1,0,0:0:0:0:
262,70,113511,1,8,0:0:0:0:
256,73,113820,1,0,0:0:0:0:
253,75,114439,1,0,0:0:0:0:
252,74,114748,1,8,0:0:0:0:
253,76,115367,1,8,0:0:0:0:
253,76,115676,1,0,0:0:0:0:
262,71,115831,1,8,0:0:0:0:
262,72,116294,1,8,0:0:0:0:
263,73,116604,1,0,0:0:0:0:
263,73,116913,1,8,0:0:0:0:
263,73,117068,1,0,0:0:0:0:
280,69,117532,1,8,0:0:0:0:
280,69,117686,1,0,0:0:0:0:
280,69,117841,1,8,0:0:0:0:
274,75,118150,1,0,0:0:0:0:
274,75,118305,1,8,0:0:0:0:
274,75,118614,1,0,0:0:0:0:
274,75,118769,1,0,0:0:0:0:
274,75,118923,1,8,0:0:0:0:
279,72,120006,1,0,0:0:0:0:
238,80,120315,1,8,0:0:0:0:
248,72,120470,1,8,0:0:0:0:
240,78,120624,1,0,0:0:0:0:
227,76,120934,1,8,0:0:0:0:
227,76,121088,1,8,0:0:0:0:
227,76,121243,1,0,0:0:0:0:
238,80,121552,1,8,0:0:0:0:
248,72,121707,1,8,0:0:0:0:
198,72,121861,1,0,0:0:0:0:
227,76,122171,1,8,0:0:0:0:
227,76,122325,1,8,0:0:0:0:
227,76,122480,1,0,0:0:0:0:
236,76,122789,1,8,0:0:0:0:
237,69,122944,1,0,0:0:0:0:
237,69,123099,1,8,0:0:0:0:
237,69,123408,1,8,0:0:0:0:
246,61,123717,1,0,0:0:0:0:
252,59,123872,1,8,0:0:0:0:
244,48,124645,1,8,0:0:0:0:
251,62,124954,1,0,0:0:0:0:
249,59,125109,1,0,0:0:0:0:
238,80,125264,1,8,0:0:0:0:
248,72,125419,1,8,0:0:0:0:
240,78,125573,1,0,0:0:0:0:
227,76,125883,1,8,0:0:0:0:
227,76,126037,1,8,0:0:0:0:
227,65,126191,1,0,0:0:0:0:
238,80,126501,1,8,0:0:0:0:
248,72,126656,1,8,0:0:0:0:
227,76,126810,1,0,0:0:0:0:
227,76,127120,1,8,0:0:0:0:
227,76,127274,1,8,0:0:0:0:
237,69,127428,1,0,0:0:0:0:
236,76,127738,1,8,0:0:0:0:
237,69,127893,1,0,0:0:0:0:
237,69,128048,1,8,0:0:0:0:
237,69,128356,1,8,0:0:0:0:
246,61,128666,1,0,0:0:0:0:
245,61,128820,1,8,0:0:0:0:
250,55,129284,1,8,0:0:0:0:
250,55,129439,1,0,0:0:0:0:
250,55,129593,1,0,0:0:0:0:
250,55,129903,1,8,0:0:0:0:
232,47,130057,1,0,0:0:0:0:
261,54,130212,1,8,0:0:0:0:
277,67,130831,1,12,0:0:0:0:
267,57,131449,1,0,0:0:0:0:
267,57,131604,1,0,0:0:0:0:
270,48,131758,1,8,0:0:0:0:
267,57,132068,1,8,0:0:0:0:
267,59,132222,1,0,0:0:0:0:
267,59,132377,1,8,0:0:0:0:
267,57,132686,1,8,0:0:0:0:
267,59,132841,1,8,0:0:0:0:
257,56,132995,1,0,0:0:0:0:
265,64,133305,1,8,0:0:0:0:
265,64,133614,1,0,0:0:0:0:
258,58,133769,1,8,0:0:0:0:
275,64,134233,1,8,0:0:0:0:
275,64,134542,1,0,0:0:0:0:
267,66,134851,1,8,0:0:0:0:
267,66,135006,1,0,0:0:0:0:
266,64,135160,1,8,0:0:0:0:
259,53,135315,1,8,0:0:0:0:
277,79,135470,1,0,0:0:0:0:
255,54,135779,1,8,0:0:0:0:
258,56,136088,1,8,0:0:0:0:
239,52,136243,1,0,0:0:0:0:
240,53,136398,1,8,0:0:0:0:
239,52,136552,1,8,0:0:0:0:
239,52,136707,1,0,0:0:0:0:
239,52,137016,1,8,0:0:0:0:
238,56,137635,1,12,0:0:0:0:
238,56,137944,1,0,0:0:0:0:
238,56,138253,1,12,0:0:0:0:
232,56,138717,1,12,0:0:0:0:
232,56,139181,1,0,0:0:0:0:
232,56,139490,1,12,0:0:0:0:
237,55,139954,1,12,0:0:0:0:
256,192,140109,12,0,141037,0:0:0:0:
260,141,141346,5,0,0:0:0:0:
245,135,141809,1,0,0:0:0:0:
245,135,141964,1,8,0:0:0:0:
246,134,142583,1,0,0:0:0:0:
245,134,143047,1,0,0:0:0:0:
245,134,143201,1,8,0:0:0:0:
238,136,143510,1,0,0:0:0:0:
246,134,143820,1,8,0:0:0:0:
237,136,144284,1,0,0:0:0:0:
246,134,144438,1,8,0:0:0:0:
240,115,144902,1,8,0:0:0:0:
248,119,145212,1,8,0:0:0:0:
244,117,145521,1,0,0:0:0:0:
244,117,145675,1,8,0:0:0:0:
244,114,146294,1,0,0:0:0:0:
246,121,146758,1,0,0:0:0:0:
246,121,146913,1,8,0:0:0:0:
245,120,147222,1,0,0:0:0:0:
245,120,147531,1,8,0:0:0:0:
245,120,148150,1,0,0:0:0:0:
246,120,148459,1,0,0:0:0:0:
239,124,148614,1,0,0:0:0:0:
239,124,148768,1,8,0:0:0:0:
247,116,149078,1,0,0:0:0:0:
246,115,149387,1,8,0:0:0:0:
245,115,149851,1,8,0:0:0:0:
245,113,150160,1,8,0:0:0:0:
245,113,150469,1,0,0:0:0:0:
245,113,150624,1,8,0:0:0:0:
244,113,151242,1,0,0:0:0:0:
244,113,151552,1,8,0:0:0:0:
253,114,151861,1,0,0:0:0:0:
253,114,152170,1,8,0:0:0:0:
237,110,152325,1,0,0:0:0:0:
237,110,152480,1,0,0:0:0:0:
237,110,152789,1,8,0:0:0:0:
237,110,153098,1,8,0:0:0:0:
237,110,153253,1,0,0:0:0:0:
237,110,153407,1,8,0:0:0:0:
245,108,153717,1,0,0:0:0:0:
245,108,154335,1,0,0:0:0:0:
245,108,154645,1,8,0:0:0:0:
245,108,154799,1,8,0:0:0:0:
245,108,154954,1,0,0:0:0:0:
247,98,155263,1,8,0:0:0:0:
247,98,155572,1,8,0:0:0:0:
247,98,155727,1,0,0:0:0:0:
247,98,155882,1,8,0:0:0:0:
231,108,156191,1,0,0:0:0:0:
231,108,156500,1,8,0:0:0:0:
231,108,156809,1,0,0:0:0:0:
231,108,156964,1,0,0:0:0:0:
231,108,157119,1,8,0:0:0:0:
249,121,157273,1,8,0:0:0:0:
231,108,157428,1,0,0:0:0:0:
238,105,157737,1,8,0:0:0:0:
238,105,157892,1,8,0:0:0:0:
238,105,158047,1,0,0:0:0:0:
238,105,158356,1,8,0:0:0:0:
253,95,158665,1,0,0:0:0:0:
253,95,158820,1,0,0:0:0:0:
250,96,158974,1,0,0:0:0:0:
253,95,159284,1,0,0:0:0:0:
253,95,159438,1,0,0:0:0:0:
253,95,159593,1,0,0:0:0:0:
253,95,159902,1,0,0:0:0:0:
237,235,160134,2,0,L|276:218,9,35
273,111,161139,1,4,0:0:0:0:
265,109,161758,1,12,0:0:0:0:
265,109,162067,1,8,0:0:0:0:
275,96,162376,1,8,0:0:0:0:
266,101,162531,1,8,0:0:0:0:
269,100,162686,1,0,0:0:0:0:
266,101,162995,1,8,0:0:0:0:
266,101,163304,1,8,0:0:0:0:
248,104,163614,1,0,0:0:0:0:
268,98,163923,1,8,0:0:0:0:
258,95,164232,1,8,0:0:0:0:
248,86,164387,1,8,0:0:0:0:
248,86,164541,1,0,0:0:0:0:
248,86,164851,1,8,0:0:0:0:
248,86,165160,1,8,0:0:0:0:
246,97,165315,1,0,0:0:0:0:
246,97,165469,1,8,0:0:0:0:
248,86,165779,1,8,0:0:0:0:
256,96,165933,1,8,0:0:0:0:
241,83,166088,1,0,0:0:0:0:
221,89,166397,1,8,0:0:0:0:
234,81,166706,1,8,0:0:0:0:
234,81,166861,1,8,0:0:0:0:
253,77,167016,1,0,0:0:0:0:
232,75,167325,1,8,0:0:0:0:
232,75,167634,1,8,0:0:0:0:
232,75,167789,1,0,0:0:0:0:
231,75,167943,1,8,0:0:0:0:
222,66,168562,1,8,0:0:0:0:
217,76,168871,1,0,0:0:0:0:
211,51,169026,1,8,0:0:0:0:
222,64,169335,1,0,0:0:0:0:
224,55,169490,1,8,0:0:0:0:
224,55,169799,1,8,0:0:0:0:
224,55,170108,1,0,0:0:0:0:
224,55,170263,1,0,0:0:0:0:
224,55,170418,1,8,0:0:0:0:
224,55,170727,1,8,0:0:0:0:
224,55,170882,1,0,0:0:0:0:
224,55,171036,1,8,0:0:0:0:
219,58,171655,1,12,0:0:0:0:
219,58,172273,1,0,0:0:0:0:
228,63,172583,1,8,0:0:0:0:
228,63,172737,1,0,0:0:0:0:
228,63,172892,1,8,0:0:0:0:
228,63,173201,1,0,0:0:0:0:
228,63,173510,1,8,0:0:0:0:
228,63,173665,1,8,0:0:0:0:
228,63,173820,1,0,0:0:0:0:
228,63,173974,1,0,0:0:0:0:
228,63,174129,1,8,0:0:0:0:
240,64,174438,1,0,0:0:0:0:
238,63,174593,1,8,0:0:0:0:
221,56,175366,1,8,0:0:0:0:
223,72,175675,1,0,0:0:0:0:
229,61,175830,1,0,0:0:0:0:
233,58,175985,1,8,0:0:0:0:
225,57,176139,1,8,0:0:0:0:
225,57,176294,1,0,0:0:0:0:
240,55,176603,1,8,0:0:0:0:
225,57,176913,1,8,0:0:0:0:
230,48,177067,1,0,0:0:0:0:
220,53,177222,1,8,0:0:0:0:
254,62,177376,1,8,0:0:0:0:
238,64,177531,1,0,0:0:0:0:
236,64,177840,1,8,0:0:0:0:
229,65,178459,1,12,0:0:0:0:
223,60,178768,1,0,0:0:0:0:
216,58,179078,1,12,0:0:0:0:
216,58,179541,1,12,0:0:0:0:
225,71,180005,1,0,0:0:0:0:
225,71,180315,1,12,0:0:0:0:
243,59,180779,1,12,0:0:0:0:
226,53,181552,1,0,0:0:0:0:
225,51,182170,1,12,0:0:0:0:
240,58,182480,1,0,0:0:0:0:
240,58,182789,1,8,0:0:0:0:
240,58,182943,1,8,0:0:0:0:
234,67,183098,1,0,0:0:0:0:
234,66,183407,1,8,0:0:0:0:
234,67,183562,1,8,0:0:0:0:
234,67,183717,1,0,0:0:0:0:
234,67,184026,1,8,0:0:0:0:
234,67,184181,1,8,0:0:0:0:
234,67,184335,1,0,0:0:0:0:
249,67,184645,1,8,0:0:0:0:
249,67,184954,1,0,0:0:0:0:
249,67,185108,1,8,0:0:0:0:
241,81,185418,1,0,0:0:0:0:
241,75,185572,1,8,0:0:0:0:
243,91,185882,1,8,0:0:0:0:
240,58,186500,1,8,0:0:0:0:
240,58,186654,1,8,0:0:0:0:
234,67,186809,1,0,0:0:0:0:
234,66,187118,1,8,0:0:0:0:
234,67,187273,1,0,0:0:0:0:
234,67,187428,1,8,0:0:0:0:
234,67,187737,1,0,0:0:0:0:
234,67,187892,1,0,0:0:0:0:
234,67,188046,1,8,0:0:0:0:
231,58,188356,1,8,0:0:0:0:
232,58,188510,1,0,0:0:0:0:
232,58,188665,1,8,0:0:0:0:
210,60,188974,1,12,0:0:0:0:
224,60,189284,1,0,0:0:0:0:
224,60,189593,1,12,0:0:0:0:
222,60,190057,1,12,0:0:0:0:
228,60,190521,1,0,0:0:0:0:
222,59,190830,1,12,0:0:0:0:
229,61,191294,1,12,0:0:0:0:
256,192,191449,12,0,193923,0:0:0:0:
