osu file format v14

[General]
AudioFilename: audio.mp3
AudioLeadIn: 0
PreviewTime: 66100
Countdown: 0
SampleSet: Soft
StackLeniency: 0.7
Mode: 0
LetterboxInBreaks: 0
WidescreenStoryboard: 1

[Editor]
DistanceSpacing: 1.1
BeatDivisor: 4
GridSize: 4
TimelineZoom: 1.6

[Metadata]
Title:Heat
TitleUnicode:열기
Artist:LOONA
ArtistUnicode:이달의 소녀
Creator:XxProDePoisonxX
Version:Hot
Source:BlockBerry Creative
Tags:Heejin Hyunjin Haseul Yeojin Vivi KimLip Jinsoul Choerry Yves Chuu Gowon Hyejoo loona kpop ++
BeatmapID:2771300
BeatmapSetID:1336549

[Difficulty]
HPDrainRate:5.4
CircleSize:4.7
OverallDifficulty:8.8
ApproachRate:9.5
SliderMultiplier:2.4
SliderTickRate:1

[Events]
//Background and Video events
0,0,"1232.jpg",0,0
//Break Periods
//Storyboard Layer 0 (Background)
//Storyboard Layer 1 (Fail)
//Storyboard Layer 2 (Pass)
//Storyboard Layer 3 (Foreground)
//Storyboard Layer 4 (Overlay)
//Storyboard Sound Samples

[TimingPoints]
505,631.578947368421,4,1,2,100,1,0
6189,-100,4,1,2,5,0,0
6505,-100,4,2,2,100,0,0
8083,-100,4,1,2,5,0,0
8399,-100,4,2,2,100,0,0
8715,-100,4,1,2,5,0,0
9347,-100,4,2,2,100,0,0
10610,-100,4,1,2,5,0,0
10926,-100,4,2,2,100,0,0
12504,-100,4,1,2,5,0,0
12820,-100,4,2,2,100,0,0
13768,-200,4,2,2,100,0,0
14399,-100,4,1,2,5,0,0
14715,-100,4,2,2,100,0,0
15031,-100,4,1,2,5,0,0
15189,-100,4,2,2,100,0,0
15504,-100,4,1,2,5,0,0
15662,-100,4,2,2,100,0,0
15978,-100,4,1,2,5,0,0
16136,-100,4,2,2,100,0,0
16452,-100,4,1,2,5,0,0
16610,-100,4,2,2,100,0,0
18189,-100,4,1,2,5,0,0
18505,-100,4,2,2,100,0,0
18820,-100,4,1,2,5,0,0
19452,-100,4,2,2,100,0,0
20715,-100,4,1,2,5,0,0
21031,-100,4,2,2,100,0,0
22610,-100,4,1,2,5,0,0
22926,-100,4,2,2,100,0,0
45978,-100,4,2,2,100,0,0
65873,-100,4,1,2,5,0,0
66189,-55.5555555555556,4,2,2,100,0,1
68083,-66.6666666666667,4,2,3,100,0,1
68715,-66.6666666666667,4,2,4,100,0,1
69347,-66.6666666666667,4,2,2,100,0,1
70610,-66.6666666666667,4,2,5,100,0,1
71241,-66.6666666666667,4,2,2,100,0,1
71873,-66.6666666666667,4,2,2,100,0,1
73136,-66.6666666666667,4,2,3,100,0,1
73768,-66.6666666666667,4,2,4,100,0,1
74399,-66.6666666666667,4,2,2,100,0,1
75662,-66.6666666666667,4,2,5,100,0,1
76294,-66.6666666666667,4,2,2,100,0,1
78189,-66.6666666666667,4,2,3,100,0,1
78820,-66.6666666666667,4,2,4,100,0,1
79452,-66.6666666666667,4,2,2,100,0,1
80715,-66.6666666666667,4,2,5,100,0,1
81347,-66.6666666666667,4,2,2,100,0,1
83241,-66.6666666666667,4,2,3,100,0,1
83873,-66.6666666666667,4,2,4,100,0,1
84504,-66.6666666666667,4,2,2,100,0,1
85768,-66.6666666666667,4,2,5,100,0,1
86399,-100,4,1,2,100,0,0
106610,-100,4,2,2,100,0,0
126426,-100,4,1,2,5,0,0
126504,-33.3333333333333,4,1,2,100,0,0
126662,-100,4,1,2,5,0,0
126820,-33.3333333333333,4,2,2,100,0,1
127768,-66.6666666666667,4,2,2,100,0,1
128715,-66.6666666666667,4,2,3,100,0,1
129347,-66.6666666666667,4,2,4,100,0,1
131241,-66.6666666666667,4,2,5,100,0,1
131873,-66.6666666666667,4,2,2,100,0,1
133768,-66.6666666666667,4,2,3,100,0,1
134399,-66.6666666666667,4,2,4,100,0,1
136294,-66.6666666666667,4,2,5,100,0,1
136926,-66.6666666666667,4,2,2,100,0,1
138820,-66.6666666666667,4,2,3,100,0,1
139452,-66.6666666666667,4,2,4,100,0,1
141347,-66.6666666666667,4,2,5,100,0,1
141978,-66.6666666666667,4,2,2,100,0,1
143873,-66.6666666666667,4,2,3,100,0,1
144505,-66.6666666666667,4,2,4,100,0,1
146399,-66.6666666666667,4,2,5,100,0,1
147031,-66.6666666666667,4,1,2,100,0,0
167241,-100,4,2,2,100,0,1
167557,-80,4,2,2,100,0,1
167873,-66.6666666666667,4,2,2,100,0,1
168189,-57.1428571428571,4,2,2,100,0,1
168505,-50,4,2,2,100,0,1
169136,-50,4,2,3,100,0,1
169768,-100,4,2,4,100,0,1
170083,-80,4,2,2,100,0,1
170399,-66.6666666666667,4,2,2,100,0,1
170715,-57.1428571428571,4,2,2,100,0,1
171031,-50,4,2,5,100,0,1
172294,-100,4,2,2,100,0,1
174189,-100,4,2,3,100,0,1
174820,-100,4,2,4,100,0,1
176715,-100,4,2,5,100,0,1
177347,-100,4,2,2,100,0,1
177662,-80,4,2,2,100,0,1
177978,-66.6666666666667,4,2,2,100,0,1
178294,-57.1428571428571,4,2,2,100,0,1
178610,-50,4,2,2,100,0,1
179241,-50,4,2,3,100,0,1
179873,-100,4,2,4,100,0,1
180189,-80,4,2,2,100,0,1
180505,-66.6666666666667,4,2,2,100,0,1
180820,-57.1428571428571,4,2,2,100,0,1
181136,-50,4,2,2,100,0,1
181768,-50,4,2,5,100,0,1
182399,-100,4,2,2,100,0,1
184294,-100,4,2,3,100,0,1
184926,-100,4,2,4,100,0,1
186820,-100,4,2,5,100,0,1
187294,-100,4,1,2,100,0,0
187452,-55.5555555555556,4,2,2,100,0,1
189347,-55.5555555555556,4,2,3,100,0,1
189978,-55.5555555555556,4,2,4,100,0,1
191873,-55.5555555555556,4,2,5,100,0,1
192505,-55.5555555555556,4,2,2,100,0,1
194399,-55.5555555555556,4,2,3,100,0,1
195031,-55.5555555555556,4,2,4,100,0,1
196926,-55.5555555555556,4,2,5,100,0,1
197557,-37.037037037037,4,2,2,100,0,1
198189,-55.5555555555556,4,2,2,100,0,1
199452,-55.5555555555556,4,2,3,100,0,1
200083,-55.5555555555556,4,2,4,100,0,1
201978,-55.5555555555556,4,2,5,100,0,1
202610,-55.5555555555556,4,2,2,100,0,1
204505,-55.5555555555556,4,2,3,100,0,1
205136,-55.5555555555556,4,2,4,100,0,1
207031,-55.5555555555556,4,2,5,100,0,1
207662,-100,4,1,2,100,0,0

[Colours]
Combo1 : 0,198,198
Combo2 : 255,255,0
Combo3 : 255,128,0
Combo4 : 255,0,0
Combo5 : 0,0,255
Combo6 : 0,0,0
Combo7 : 255,255,255
Combo8 : 252,137,103

[HitObjects]
59,270,66189,6,0,P|109:275|170:218,1,107.999996704102,6|0,0:0|0:0,0:0:0:0:
65,36,66504,1,0,0:0:0:0:
92,204,66662,1,0,0:0:0:0:
166,21,66820,1,8,0:0:0:0:
32,124,66978,1,0,0:0:0:0:
272,188,67136,6,0,L|260:70,1,107.999996704102
184,347,67452,1,0,0:0:0:0:
276,294,67610,1,0,0:0:0:0:
180,162,67768,1,0,0:0:0:0:
94,293,67926,1,0,0:0:0:0:
276,197,68083,5,10,0:0:0:0:
237,35,68241,1,0,0:0:0:0:
80,139,68399,1,0,0:0:0:0:
144,285,68557,1,0,0:0:0:0:
344,130,68715,6,0,L|324:17,1,90.0000034332277,2|0,0:0|0:0,0:0:0:0:
415,221,69031,2,0,L|395:334,1,90.0000034332277
304,231,69347,1,8,0:0:0:0:
468,109,69504,1,0,0:0:0:0:
490,299,69662,1,0,0:0:0:0:
299,59,69820,1,0,0:0:0:0:
304,231,69978,6,0,P|259:229|203:258,1,90.0000034332277
142,364,70294,1,0,0:0:0:0:
279,305,70452,1,0,0:0:0:0:
38,150,70610,1,10,0:0:0:0:
32,282,70768,1,0,0:0:0:0:
155,224,70926,1,0,0:0:0:0:
167,90,71083,1,0,0:0:0:0:
254,297,71241,6,0,P|273:238|271:188,1,90.0000034332277,2|0,0:0|0:0,0:0:0:0:
167,90,71557,2,0,L|67:110,1,90.0000034332277
13,127,71783,1,0,0:0:0:0:
13,127,71873,1,8,0:0:0:0:
78,181,72031,1,0,0:0:0:0:
26,49,72189,1,0,0:0:0:0:
41,266,72347,1,0,0:0:0:0:
194,152,72504,2,0,B|228:138|228:138|316:154,1,90.0000034332277
314,345,72820,1,0,0:0:0:0:
237,227,72978,1,0,0:0:0:0:
438,101,73136,6,0,L|445:209,1,90.0000034332277,10|0,0:0|0:0,0:0:0:0:
290,62,73452,1,0,0:0:0:0:
487,29,73610,1,0,0:0:0:0:
237,227,73768,2,0,L|118:226,1,90.0000034332277,2|0,0:0|0:0,0:0:0:0:
0,25,74083,2,0,L|119:24,1,90.0000034332277
39,277,74399,5,8,0:0:0:0:
69,97,74557,1,0,0:0:0:0:
178,310,74715,1,0,0:0:0:0:
30,186,74873,1,0,0:0:0:0:
228,125,75031,2,0,L|226:234,1,90.0000034332277
171,72,75347,2,0,P|203:52|271:53,1,90.0000034332277
398,220,75662,1,10,0:0:0:0:
306,100,75820,1,0,0:0:0:0:
494,133,75978,1,0,0:0:0:0:
305,281,76136,1,0,0:0:0:0:
512,340,76294,6,0,B|453:347|453:347|382:318|382:318|300:329,1,180.000006866455,6|0,0:0|0:0,0:0:0:0:
166,369,76768,1,0,0:0:0:0:
246,237,76926,2,0,P|248:184|198:140,1,90.0000034332277,8|0,0:0|0:0,0:0:0:0:
8,121,77241,1,0,0:0:0:0:
129,249,77399,1,0,0:0:0:0:
88,24,77557,1,0,0:0:0:0:
18,263,77715,1,0,0:0:0:0:
247,99,77873,1,0,0:0:0:0:
127,117,78031,1,0,0:0:0:0:
303,202,78189,6,0,B|340:216|340:216|430:202,1,90.0000034332277,10|0,0:0|0:0,0:0:0:0:
305,322,78504,1,0,0:0:0:0:
353,131,78662,1,0,0:0:0:0:
505,342,78820,2,0,P|438:348|509:281,1,180.000006866455,2|0,0:0|0:0,0:0:0:0:
353,131,79294,1,0,0:0:0:0:
217,339,79452,2,0,P|261:336|304:321,1,90.0000034332277,8|0,0:0|0:0,0:0:0:0:
353,131,79768,2,0,P|310:116|265:113,1,90.0000034332277
100,264,80083,5,0,0:0:0:0:
261,199,80241,1,0,0:0:0:0:
141,94,80399,1,0,0:0:0:0:
100,264,80557,1,0,0:0:0:0:
250,87,80715,5,10,0:0:0:0:
205,284,80873,1,0,0:0:0:0:
46,159,81031,1,0,0:0:0:0:
250,87,81189,1,0,0:0:0:0:
207,155,81347,6,0,P|209:159|200:146,1,180.000006866455,2|0,0:0|0:0,0:0:0:0:
289,20,81820,1,0,0:0:0:0:
366,140,81978,2,0,P|384:188|346:227,1,90.0000034332277,8|0,0:0|0:0,0:0:0:0:
238,357,82294,2,0,P|220:309|258:270,1,90.0000034332277
426,297,82610,2,0,B|267:341|345:151|157:199,1,270.000010299683
68,318,83241,1,10,0:0:0:0:
181,264,83399,1,0,0:0:0:0:
41,135,83557,1,0,0:0:0:0:
41,135,83636,1,0,0:0:0:0:
41,135,83715,1,0,0:0:0:0:
85,219,83873,5,2,0:0:0:0:
243,57,84031,1,0,0:0:0:0:
6,25,84189,1,0,0:0:0:0:
219,175,84347,1,0,0:0:0:0:
383,59,84504,2,0,B|396:87|396:87|378:183,1,90.0000034332277,8|0,0:0|0:0,0:0:0:0:
314,354,84820,2,0,B|327:326|327:326|316:267,1,90.0000034332277
219,175,85136,5,0,0:0:0:0:
4,271,85294,1,0,0:0:0:0:
236,310,85452,1,0,0:0:0:0:
69,132,85610,1,0,0:0:0:0:
101,375,85768,1,10,0:0:0:0:
124,264,86083,6,0,P|133:238|123:264,1,90.0000034332277
124,264,86399,1,0,0:0:0:0:
162,277,86873,1,0,0:0:0:0:
193,289,87347,2,0,L|187:215,1,60
220,87,87662,1,0,0:0:0:0:
233,161,87820,1,0,0:0:0:0:
171,37,87978,2,0,P|205:15|255:28,1,60
352,119,88294,2,0,L|262:104,1,60
369,192,88610,2,0,P|418:156|418:84,1,120
438,255,89241,6,0,P|332:257|244:268,1,180
198,352,89873,2,0,P|200:312|198:261,1,60
102,214,90189,1,0,0:0:0:0:
124,301,90347,1,0,0:0:0:0:
174,175,90504,1,0,0:0:0:0:
168,149,90583,1,0,0:0:0:0:
163,125,90662,1,0,0:0:0:0:
158,103,90741,1,0,0:0:0:0:
152,80,90820,6,0,L|182:211,1,120
46,280,91294,1,0,0:0:0:0:
47,149,91452,2,0,P|87:128|139:117,1,60
231,57,91768,6,0,L|150:53,1,60
243,65,92083,2,0,L|162:61,1,60
111,198,92399,2,0,L|192:194,1,60
124,205,92715,2,0,L|253:199,1,120
344,301,93189,1,0,0:0:0:0:
344,301,93347,2,0,P|335:258|340:214,1,60
381,138,93662,2,0,P|344:152|291:159,1,60
471,156,93978,6,0,P|456:116|450:69,1,60
411,286,94294,2,0,P|426:246|432:199,1,60
422,361,94610,2,0,L|243:348,1,180
292,283,95241,2,0,P|296:255|216:221,1,120
84,350,95715,1,0,0:0:0:0:
202,291,95873,1,0,0:0:0:0:
26,269,96031,1,0,0:0:0:0:
168,374,96189,1,0,0:0:0:0:
119,194,96347,1,0,0:0:0:0:
26,269,96504,6,0,L|42:137,1,120
141,76,96978,1,0,0:0:0:0:
141,76,97136,2,0,P|126:132|118:207,1,120
138,269,97610,1,0,0:0:0:0:
195,207,97768,5,0,0:0:0:0:
233,339,97926,1,0,0:0:0:0:
276,171,98083,1,0,0:0:0:0:
410,303,98241,1,0,0:0:0:0:
300,253,98399,2,0,L|274:159,1,60
388,382,98715,2,0,L|414:288,1,60
488,215,99031,6,0,P|496:154|457:93,2,120
417,171,99978,1,0,0:0:0:0:
417,171,100294,5,0,0:0:0:0:
262,116,100452,1,0,0:0:0:0:
382,92,100610,1,0,0:0:0:0:
411,266,100768,1,0,0:0:0:0:
256,219,100926,2,0,L|160:208,1,60
57,339,101241,2,0,L|153:328,1,60
93,105,101557,6,0,L|81:245,2,120
174,44,102504,1,0,0:0:0:0:
295,202,102820,2,0,P|223:218|217:121,1,180
367,243,103452,2,0,B|357:283|373:313|373:313|378:368,1,120
434,269,103926,1,0,0:0:0:0:
432,137,104083,2,0,L|422:232,1,60
471,14,104399,2,0,L|481:109,2,60
468,12,105031,5,0,0:0:0:0:
332,36,105189,1,0,0:0:0:0:
433,92,105347,1,0,0:0:0:0:
307,200,105504,1,0,0:0:0:0:
346,118,105662,1,0,0:0:0:0:
427,312,105820,1,0,0:0:0:0:
206,296,105978,1,0,0:0:0:0:
326,284,106136,1,0,0:0:0:0:
114,343,106294,1,0,0:0:0:0:
171,134,106452,1,0,0:0:0:0:
171,134,106610,6,0,L|266:125,1,60
332,262,106926,2,0,L|427:253,1,60
315,180,107241,2,0,L|306:85,1,60
245,266,107557,2,0,L|236:171,1,60
193,323,107873,5,0,0:0:0:0:
7,267,108189,1,0,0:0:0:0:
151,128,108504,1,0,0:0:0:0:
120,234,108820,1,0,0:0:0:0:
120,234,109136,6,0,P|76:201|60:168,1,60
249,161,109452,2,0,P|236:201|210:239,1,60
198,346,109768,2,0,L|184:258,1,60
151,102,110083,2,0,L|165:190,1,60
275,287,110399,6,0,B|400:329|364:219|509:257,1,240
453,336,111347,1,0,0:0:0:0:
453,336,111662,5,0,0:0:0:0:
428,150,111978,1,0,0:0:0:0:
440,243,112136,1,0,0:0:0:0:
453,336,112294,1,0,0:0:0:0:
355,207,112610,1,0,0:0:0:0:
272,159,112768,2,0,L|289:290,1,120
224,346,113241,2,0,L|207:215,1,120
148,172,113715,5,0,0:0:0:0:
82,348,113873,1,0,0:0:0:0:
42,212,114031,1,0,0:0:0:0:
144,259,114189,2,0,L|289:259,1,120
487,123,114662,1,0,0:0:0:0:
487,123,114820,2,0,L|342:123,1,120
323,295,115294,2,0,P|329:240|307:201,1,60
312,88,115610,2,0,P|304:116|306:146,1,60
422,258,115926,1,0,0:0:0:0:
419,118,116083,1,0,0:0:0:0:
242,175,116241,1,0,0:0:0:0:
242,175,116320,1,0,0:0:0:0:
242,175,116399,1,0,0:0:0:0:
482,189,116557,1,0,0:0:0:0:
307,284,116715,6,0,L|198:288,1,60
75,83,117031,2,0,L|184:87,1,60
287,95,117347,6,0,L|291:204,1,60
86,327,117663,2,0,L|90:218,1,60
39,85,117978,2,0,P|32:158|34:210,1,120
167,322,118452,1,0,0:0:0:0:
167,322,118610,2,0,P|168:262|161:202,1,120
106,137,119241,6,0,L|218:143,1,60
406,137,119557,2,0,L|294:143,1,60
38,254,119873,6,0,L|150:260,1,60
474,254,120189,2,0,L|362:260,1,60
391,329,120504,2,0,P|347:288|369:197,1,120
399,162,120978,1,0,0:0:0:0:
399,162,121136,2,0,L|491:176,1,60
366,73,121452,2,0,L|274:87,1,60
246,7,121768,6,0,L|81:0,1,120
0,110,122399,2,0,L|165:103,1,120
199,148,122873,1,0,0:0:0:0:
199,148,123031,2,0,P|209:194|191:254,1,60
149,331,123347,1,0,0:0:0:0:
131,202,123504,1,0,0:0:0:0:
218,349,123662,2,0,L|320:350,1,60
447,251,123978,2,0,L|345:252,1,60
476,337,124294,5,0,0:0:0:0:
431,108,124610,1,0,0:0:0:0:
314,363,124926,1,0,0:0:0:0:
320,136,125241,1,0,0:0:0:0:
476,337,125557,5,0,0:0:0:0:
431,108,125715,1,0,0:0:0:0:
314,363,125873,1,0,0:0:0:0:
320,136,126031,1,0,0:0:0:0:
320,136,126189,6,0,P|256:143|262:180,1,90
264,207,126504,6,0,B|254:156|254:156|253:118|302:109|322:137|322:137|361:320,1,270.000010299683
351,346,126820,6,0,B|174:366|265:266|58:305,1,270.000010299683,4|0,0:0|0:0,0:0:0:0:
29,340,127136,5,0,0:0:0:0:
75,104,127294,1,0,0:0:0:0:
165,352,127452,1,0,0:0:0:0:
39,207,127610,1,0,0:0:0:0:
302,261,127768,6,0,L|186:274,1,90.0000034332277
360,54,128083,1,0,0:0:0:0:
373,192,128241,1,0,0:0:0:0:
214,102,128399,1,0,0:0:0:0:
273,178,128557,1,0,0:0:0:0:
113,281,128715,5,0,0:0:0:0:
144,54,128873,1,0,0:0:0:0:
198,280,129031,1,0,0:0:0:0:
69,64,129189,1,0,0:0:0:0:
18,202,129347,6,0,L|136:205,1,90.0000034332277
299,109,129662,2,0,L|181:112,1,90.0000034332277
271,327,129978,1,0,0:0:0:0:
324,190,130136,1,0,0:0:0:0:
158,272,130294,1,0,0:0:0:0:
368,298,130452,1,0,0:0:0:0:
214,204,130610,1,0,0:0:0:0:
345,378,130768,1,0,0:0:0:0:
413,123,130926,2,0,L|422:229,1,90.0000034332277
328,49,131241,5,0,0:0:0:0:
501,165,131399,1,0,0:0:0:0:
273,165,131557,1,0,0:0:0:0:
468,288,131715,1,0,0:0:0:0:
220,281,131873,2,0,P|182:321|107:346,1,90.0000034332277
33,167,132189,2,0,P|71:207|146:232,1,90.0000034332277
183,45,132505,2,0,P|149:108|192:214,1,180.000006866455
249,129,132978,1,0,0:0:0:0:
249,129,133136,2,0,P|285:84|293:35,1,90.0000034332277
387,235,133452,2,0,P|351:190|343:141,1,90.0000034332277
306,213,133768,6,0,P|269:246|288:319,1,90.0000034332277
421,350,134083,2,0,P|458:317|439:244,1,90.0000034332277
147,78,134399,6,0,L|30:86,1,90.0000034332277
263,277,134715,2,0,L|380:285,1,90.0000034332277
300,132,135031,2,0,P|307:84|298:19,1,90.0000034332277
153,235,135347,2,0,P|146:283|155:348,1,90.0000034332277
223,174,135662,6,0,P|155:149|60:214,1,180.000006866455
35,366,136136,1,0,0:0:0:0:
96,288,136294,5,0,0:0:0:0:
11,288,136452,1,0,0:0:0:0:
222,361,136610,1,0,0:0:0:0:
109,101,136768,1,0,0:0:0:0:
284,171,136926,6,0,P|266:217|280:289,1,90.0000034332277
445,301,137242,5,0,0:0:0:0:
339,112,137400,1,0,0:0:0:0:
347,352,137558,1,0,0:0:0:0:
473,207,137716,1,0,0:0:0:0:
296,223,137874,6,0,L|412:236,1,90.0000034332277
205,335,138189,1,0,0:0:0:0:
139,192,138347,1,0,0:0:0:0:
297,303,138505,1,0,0:0:0:0:
135,276,138663,1,0,0:0:0:0:
376,261,138821,5,0,0:0:0:0:
254,87,138979,1,0,0:0:0:0:
297,303,139137,1,0,0:0:0:0:
395,118,139295,1,0,0:0:0:0:
494,202,139453,6,0,L|376:205,1,90.0000034332277
213,109,139768,2,0,L|331:112,1,90.0000034332277
321,331,140084,1,0,0:0:0:0:
188,190,140242,1,0,0:0:0:0:
299,229,140400,1,0,0:0:0:0:
152,336,140558,1,0,0:0:0:0:
257,161,140716,1,0,0:0:0:0:
240,363,140874,1,0,0:0:0:0:
92,208,141032,2,0,L|83:314,1,90.0000034332277
161,272,141347,5,0,0:0:0:0:
61,45,141505,1,0,0:0:0:0:
236,133,141663,1,0,0:0:0:0:
31,206,141821,1,0,0:0:0:0:
161,161,141979,2,0,B|191:194|191:194|269:222,1,90.0000034332277
429,247,142295,2,0,B|403:290|403:290|316:312,1,90.0000034332277
329,45,142611,2,0,P|363:108|320:214,1,180.000006866455
263,129,143084,1,0,0:0:0:0:
263,129,143242,2,0,P|227:84|219:35,1,90.0000034332277
286,281,143558,2,0,P|322:236|330:187,1,90.0000034332277
111,98,143874,6,0,P|148:131|129:204,1,90.0000034332277
253,346,144189,2,0,P|216:313|235:240,1,90.0000034332277
57,204,144505,6,0,L|174:212,1,90.0000034332277
497,275,144821,2,0,L|380:283,1,90.0000034332277
212,132,145137,2,0,P|205:84|214:19,1,90.0000034332277
359,235,145453,2,0,P|366:283|357:348,1,90.0000034332277
289,174,145768,6,0,P|357:149|452:214,1,180.000006866455
477,366,146242,1,0,0:0:0:0:
444,199,146399,2,0,P|372:150|289:174,1,180.000006866455
