osu file format v14

[General]
AudioFilename: audio.mp3
AudioLeadIn: 0
PreviewTime: 4978
Countdown: 1
SampleSet: None
StackLeniency: 0.5
Mode: 0
LetterboxInBreaks: 0
WidescreenStoryboard: 0

[Editor]
Bookmarks: 5080,14776,24473,34170,43867,53564,56292
DistanceSpacing: 1.8
BeatDivisor: 6
GridSize: 32
TimelineZoom: 1

[Metadata]
Title:Go Into Orbit
TitleUnicode:Go Into Orbit
Artist:LOONA
ArtistUnicode:이달의 소녀
Creator:Marianna
Version:Orbit
Source:
Tags:
BeatmapID:1729637
BeatmapSetID:825389

[Difficulty]
HPDrainRate:6
CircleSize:3.8
OverallDifficulty:8
ApproachRate:9.2
SliderMultiplier:2.3
SliderTickRate:1

[Events]
//Background and Video events
0,0,"IlliterateCornyHadrosaurus-poster.jpg",0,0
//Break Periods
//Storyboard Layer 0 (Background)
//Storyboard Layer 1 (Fail)
//Storyboard Layer 2 (Pass)
//Storyboard Layer 3 (Foreground)
//Storyboard Sound Samples

[TimingPoints]
5080,606.060606060606,4,2,0,70,1,0
5080,-125,4,2,0,70,0,0
5484,-125,4,2,0,5,0,0
5585,-125,4,2,0,70,0,0
6696,-125,4,2,0,5,0,0
6797,-125,4,2,0,70,0,0
7100,-125,4,2,0,5,0,0
7201,-125,4,2,0,70,0,0
7908,-125,4,2,0,5,0,0
8009,-125,4,2,0,70,0,0
8312,-125,4,2,0,5,0,0
8413,-125,4,2,0,70,0,0
9827,-125,4,2,0,5,0,0
9928,-125,4,2,0,70,0,0
10332,-125,4,2,0,5,0,0
10433,-125,4,2,0,70,0,0
11544,-125,4,2,0,5,0,0
11645,-125,4,2,0,70,0,0
11948,-125,4,2,0,5,0,0
12049,-125,4,2,0,70,0,0
12756,-125,4,2,0,5,0,0
12857,-125,4,2,0,70,0,0
13160,-125,4,2,0,5,0,0
13261,-125,4,2,0,70,0,0
13564,-100,4,2,0,70,0,0
14776,-83.3333333333333,4,2,0,70,0,1
14877,-83.3333333333333,4,2,0,70,0,0
24473,-83.3333333333333,4,2,0,70,0,1
24574,-83.3333333333333,4,2,0,70,0,0
26898,-76.9230769230769,4,2,0,70,0,0
27807,-83.3333333333333,4,2,0,70,0,0
31746,-125,4,2,0,70,0,0
32958,-200,4,2,0,70,0,0
33463,-200,4,2,0,5,0,0
33564,-76.9230769230769,4,2,0,70,0,0
34170,-66.6666666666667,4,2,0,70,0,1
36595,-62.5,4,2,0,70,0,1
39019,-58.8235294117647,4,2,0,70,0,1
41443,-55.5555555555556,4,2,0,70,0,1
43867,-83.3333333333333,4,2,0,70,0,0
51140,-58.8235294117647,4,2,0,70,0,0

[Colours]
Combo1 : 130,50,194
Combo2 : 233,22,85

[HitObjects]
83,69,5080,6,0,B|112:89|112:89|199:81,1,122.666666666667
235,64,5585,2,0,P|223:107|239:149,1,92
265,179,5989,1,0,0:0:0:0:
421,115,6292,6,0,L|299:102,1,122.666666666667
260,93,6797,2,0,P|271:136|255:178,1,92
230,210,7201,1,0,0:0:0:0:
473,343,7504,6,0,B|414:326|414:326|355:343,1,122.666666666667
324,317,8009,2,0,B|279:329|279:329|235:316,1,92
197,302,8413,1,0,0:0:0:0:
292,111,8716,2,0,L|287:172,1,61.3333333333333
281,250,9019,1,0,0:0:0:0:
242,53,9221,2,0,P|283:35|328:45,1,92
357,70,9625,2,0,P|386:80|417:77,1,61.3333333333333
502,24,9928,6,0,P|477:77|496:134,1,122.666666666667
477,169,10433,2,0,P|492:211|477:254,1,92
451,284,10837,1,0,0:0:0:0:
300,215,11140,6,0,B|357:194|357:194|415:213,1,122.666666666667
449,235,11645,2,0,L|436:143,1,92
426,105,12049,1,0,0:0:0:0:
300,215,12352,6,0,B|269:231|269:231|181:219,1,122.666666666667
149,196,12857,2,0,L|160:287,1,92
164,326,13261,1,0,0:0:0:0:
105,126,13564,6,0,P|141:114|178:122,1,76.6666666666667
284,244,13867,2,0,P|256:218|243:182,1,76.6666666666667
276,100,14170,2,0,P|312:88|349:96,1,76.6666666666667
398,169,14473,2,0,P|389:205|364:234,1,76.6666666666667
245,315,14776,6,0,P|190:239|283:243,1,229.999992980957
411,317,15383,2,0,P|367:326|325:310,1,91.9999971923829
376,228,15686,2,0,P|420:218|462:234,1,91.9999971923829
463,137,15989,2,0,P|432:103|424:58,1,91.9999971923829
345,113,16292,2,0,P|331:156|296:185,1,91.9999971923829
213,234,16595,1,0,0:0:0:0:
411,317,16797,1,0,0:0:0:0:
376,228,16898,1,0,0:0:0:0:
178,323,17100,1,0,0:0:0:0:
212,234,17201,6,0,P|207:142|140:204,1,229.999992980957
178,323,17807,1,0,0:0:0:0:
323,275,18009,1,0,0:0:0:0:
206,188,18110,2,0,L|211:233,1,45.9999985961914
232,374,18312,1,0,0:0:0:0:
344,264,18413,6,0,P|386:247|430:259,1,91.9999971923829
380,85,18716,2,0,P|372:129|340:161,1,91.9999971923829
501,215,19019,2,0,P|465:186|454:142,1,91.9999971923829
491,53,19322,1,0,0:0:0:0:
344,264,19524,1,0,0:0:0:0:
251,201,19625,6,0,P|159:215|227:278,1,229.999992980957
344,264,20231,1,0,0:0:0:0:
251,201,20433,1,0,0:0:0:0:
341,309,20534,2,0,L|343:263,1,45.9999985961914
351,177,20736,1,0,0:0:0:0:
260,351,20837,5,0,0:0:0:0:
466,278,21039,1,0,0:0:0:0:
434,274,21140,2,0,L|342:262,1,91.9999971923829
442,188,21443,2,0,L|350:176,1,91.9999971923829
429,103,21746,2,0,L|337:91,1,91.9999971923829
252,0,22049,6,0,B|202:124|305:97|250:220,1,229.999992980957
191,297,22655,1,0,0:0:0:0:
442,188,22857,1,0,0:0:0:0:
350,176,22958,1,0,0:0:0:0:
288,310,23160,1,0,0:0:0:0:
380,298,23261,1,0,0:0:0:0:
248,174,23463,6,0,L|250:219,1,45.9999985961914
377,343,23766,2,0,L|379:297,1,45.9999985961914
168,242,24069,2,0,L|170:287,1,45.9999985961914
459,349,24372,1,0,0:0:0:0:
416,225,24473,6,0,P|323:222|379:296,1,229.999992980957
501,178,25080,2,0,L|490:269,1,91.9999971923829
405,133,25383,2,0,L|415:224,1,91.9999971923829
476,98,25686,1,0,0:0:0:0:
323,216,25888,1,0,0:0:0:0:
416,234,25989,2,0,P|451:224|419:207,1,91.9999971923829
320,253,26292,2,0,P|311:288|342:269,1,91.9999971923829
355,165,26595,2,0,P|328:140|329:176,1,91.9999971923829
431,299,26898,6,0,P|471:307|457:268,1,99.6666621042889
290,274,27201,2,0,P|262:304|303:312,1,99.6666621042889
377,144,27504,2,0,P|363:104|337:136,1,99.6666621042889
457,268,27807,6,0,L|411:263,1,45.9999985961914
303,256,28009,1,0,0:0:0:0:
467,176,28110,6,0,L|456:267,1,91.9999971923829
313,347,28413,2,0,L|302:255,1,91.9999971923829
499,171,28716,2,0,L|488:262,1,91.9999971923829
285,364,29019,2,0,L|274:272,1,91.9999971923829
410,178,29322,6,0,P|325:213|352:125,1,229.999992980957
430,102,29928,1,0,0:0:0:0:
501,274,30130,2,0,L|455:266,1,45.9999985961914
365,252,30332,1,0,0:0:0:0:
490,186,30433,1,0,0:0:0:0:
370,343,30534,2,0,L|364:251,1,91.9999971923829
495,94,30837,2,0,L|489:185,1,91.9999971923829
288,310,31140,2,0,L|282:218,1,91.9999971923829
423,53,31443,2,0,L|417:144,1,91.9999971923829
428,337,31746,6,0,B|395:306|395:306|287:309,1,153.333333333333
137,317,32655,1,0,0:0:0:0:
282,126,32958,6,0,P|294:171|282:217,1,95.8333333333333
121,180,33564,6,0,L|220:172,1,99.6666621042889
381,133,33867,2,0,L|281:125,1,99.6666621042889
379,352,34170,6,0,P|413:307|408:252,1,115.000004386902
282,217,34473,2,0,P|247:261|252:316,1,115.000004386902
379,352,34776,1,0,0:0:0:0:
156,238,34978,1,0,0:0:0:0:
55,262,35079,1,0,0:0:0:0:
242,152,35282,1,0,0:0:0:0:
343,176,35383,6,0,L|457:164,1,115.000004386902
503,40,35686,2,0,L|388:51,1,115.000004386902
212,61,35989,1,0,0:0:0:0:
323,272,36191,1,0,0:0:0:0:
343,176,36292,1,0,0:0:0:0:
127,88,36494,1,0,0:0:0:0:
147,198,36595,6,0,B|184:209|184:209|266:192,1,122.666666666667
340,33,36898,2,0,B|303:22|303:22|220:38,1,122.666666666667
112,61,37201,1,0,0:0:0:0:
270,215,37403,1,0,0:0:0:0:
296,107,37504,1,0,0:0:0:0:
100,36,37706,1,0,0:0:0:0:
126,144,37807,6,0,L|150:264,1,122.666666666667
307,93,38110,2,0,L|282:213,1,122.666666666667
249,318,38413,1,0,0:0:0:0:
215,34,38615,1,0,0:0:0:0:
307,93,38716,1,0,0:0:0:0:
488,64,38918,1,0,0:0:0:0:
395,123,39019,6,0,P|378:184|405:241,1,130.333335819244
287,354,39322,2,0,P|304:292|277:235,1,130.333335819244
193,173,39625,1,0,0:0:0:0:
405,241,39827,1,0,0:0:0:0:
494,209,39928,1,0,0:0:0:0:
287,354,40130,1,0,0:0:0:0:
198,322,40231,2,0,B|132:301|132:301|74:320,1,130.333335819244
51,171,40534,2,0,P|68:221|17:206,1,130.333335819244
178,103,40837,2,0,P|125:92|163:55,1,130.333335819244
161,235,41140,2,0,P|195:194|208:246,1,130.333335819244
39,157,41443,6,0,P|-15:141|1:195,1,137.999995788574
153,80,41746,2,0,P|193:40|138:28,1,137.999995788574
187,229,42049,2,0,P|200:283|239:242,1,137.999995788574
39,157,42352,1,0,0:0:0:0:
255,139,42554,1,0,0:0:0:0:
239,242,42655,5,0,0:0:0:0:
23,54,42857,1,0,0:0:0:0:
39,157,42958,1,0,0:0:0:0:
358,123,43160,1,0,0:0:0:0:
255,139,43261,1,0,0:0:0:0:
12,52,43463,1,0,0:0:0:0:
115,68,43564,1,0,0:0:0:0:
365,17,43766,1,0,0:0:0:0:
313,88,43867,6,0,P|302:188|402:179,1,229.999992980957
466,126,44473,2,0,P|452:170|467:213,1,91.9999971923829
502,288,44776,1,0,0:0:0:0:
335,283,44978,2,0,L|380:279,1,45.9999985961914
512,216,45282,2,0,L|466:212,1,45.9999985961914
289,173,45585,2,0,L|334:169,1,45.9999985961914
512,103,45888,2,0,L|466:99,1,45.9999985961914
253,14,46191,1,0,0:0:0:0:
243,102,46292,6,0,B|235:194|235:194|245:214|245:214|236:328,1,229.999992980957
320,269,46898,2,0,P|363:256|407:270,1,91.9999971923829
475,316,47201,1,0,0:0:0:0:
420,142,47403,2,0,L|417:187,1,45.9999985961914
419,55,47706,2,0,L|461:71,1,45.9999985961914
334,35,48009,2,0,L|363:0,1,45.9999985961914
263,87,48312,2,0,L|238:48,1,45.9999985961914
291,177,48615,1,0,0:0:0:0:
193,136,48716,6,0,P|111:183|195:226,1,229.999992980957
291,177,49322,2,0,B|336:167|336:167|381:177,1,91.9999971923829
457,208,49625,1,0,0:0:0:0:
398,41,49827,2,0,L|393:86,1,45.9999985961914
374,259,50130,2,0,L|369:304,1,45.9999985961914
303,96,50433,2,0,L|308:51,1,45.9999985961914
284,269,50736,2,0,L|279:314,1,45.9999985961914
211,144,51039,1,0,0:0:0:0:
133,184,51140,6,0,P|102:189|70:180,2,65.1666679096222
35,101,51443,2,0,P|46:70|69:47,2,65.1666679096222
151,55,51746,2,0,P|171:80|179:111,2,65.1666679096222
133,184,52049,1,0,0:0:0:0:
139,248,52150,1,0,0:0:0:0:
145,313,52251,1,0,0:0:0:0:
213,266,52352,6,0,P|244:257|276:259,1,65.1666679096222
366,289,52554,1,0,0:0:0:0:
284,153,52655,6,0,P|311:170|330:196,1,65.1666679096222
370,309,52857,1,0,0:0:0:0:
448,138,52958,6,0,P|446:170|434:200,1,65.1666679096222
375,323,53160,1,0,0:0:0:0:
512,280,53261,6,0,P|486:299|455:309,1,65.1666679096222
282,313,53463,1,0,0:0:0:0:
434,200,53564,5,0,0:0:0:0:
256,192,55079,12,4,56292,0:0:0:0:
