osu file format v14

[General]
AudioFilename: cool.mp3
AudioLeadIn: 0
PreviewTime: 75926
Countdown: 0
SampleSet: Soft
StackLeniency: 0.5
Mode: 0
LetterboxInBreaks: 0
WidescreenStoryboard: 0

[Editor]
Bookmarks: 605,14319,28033,41747,55462,69176,76033,89747,103462,117176,130890,137747,151462,160462,163247,165176,178890,192605
DistanceSpacing: 1
BeatDivisor: 4
GridSize: 4
TimelineZoom: 2.3

[Metadata]
Title:Girl Front
TitleUnicode:Girl Front
Artist:LOONA / ODD EYE CIRCLE
ArtistUnicode:이달의 소녀 오드아이써클
Creator:Marianna
Version:Paradox
Source:
Tags:LOOΠΔ girl of the month Blockberry Creative 블록베리 크리에이티브 김립 진솔 최리 Kim Lip JinSoul Choerry Mix&Match Peter dora- doraemonelf
BeatmapID:1430234
BeatmapSetID:676192

[Difficulty]
HPDrainRate:6
CircleSize:4
OverallDifficulty:9.2
ApproachRate:9.5
SliderMultiplier:3
SliderTickRate:1

[Events]
//Background and Video events
0,0,"bg.jpg",0,0
Video,400,"oddfront+(1).mp4"
//Break Periods
2,160662,163247
//Storyboard Layer 0 (Background)
//Storyboard Layer 1 (Fail)
//Storyboard Layer 2 (Pass)
//Storyboard Layer 3 (Foreground)
//Storyboard Layer 4 (Overlay)
//Storyboard Sound Samples

[TimingPoints]
605,428.571428571429,4,2,1,40,1,0
2105,-100,4,2,2,40,0,0
2426,-100,4,2,1,40,0,0
3819,-100,4,2,2,50,0,0
4140,-100,4,2,1,50,0,0
4890,-100,4,2,2,50,0,0
5105,-100,4,2,1,50,0,0
5212,-100,4,2,2,50,0,0
5426,-100,4,2,1,50,0,0
5533,-100,4,2,2,60,0,0
5855,-100,4,2,1,60,0,0
5962,-100,4,2,2,60,0,0
6390,-100,4,2,1,60,0,0
6605,-100,4,2,2,60,0,0
6819,-100,4,2,1,60,0,0
6926,-100,4,2,2,60,0,0
7140,-100,4,2,1,60,0,0
7247,-100,4,2,2,60,0,0
7462,-100,4,2,2,70,0,0
7676,-100,4,2,1,70,0,0
7890,-100,4,2,2,70,0,0
8533,-100,4,2,1,70,0,0
8640,-100,4,2,2,70,0,0
8855,-100,4,2,1,70,0,0
8962,-100,4,2,2,70,0,0
9283,-100,4,2,1,70,0,0
9390,-100,4,2,2,70,0,0
9819,-100,4,2,3,70,0,0
10033,-100,4,2,2,70,0,0
10247,-100,4,2,1,70,0,0
10355,-100,4,2,2,70,0,0
10569,-100,4,2,1,70,0,0
10676,-100,4,2,2,80,0,0
10997,-100,4,2,1,80,0,0
11105,-100,4,2,2,80,0,0
11533,-100,4,2,3,80,0,0
11747,-100,4,2,2,80,0,0
11962,-100,4,2,1,80,0,0
12069,-100,4,2,2,80,0,0
12283,-100,4,2,1,80,0,0
12390,-100,4,2,2,80,0,0
12605,-100,4,2,1,80,0,0
13890,-100,4,2,2,65,0,0
14319,-100,4,2,4,65,0,0
15176,-100,4,2,1,65,0,0
16033,-100,4,2,2,65,0,0
17105,-100,4,2,1,65,0,0
17212,-100,4,2,2,65,0,0
17426,-100,4,2,1,65,0,0
17533,-100,4,2,2,65,0,0
19569,-100,4,2,1,65,0,0
19890,-100,4,2,2,65,0,0
20105,-100,4,2,1,65,0,0
20319,-100,4,2,2,65,0,0
20533,-100,4,2,1,65,0,0
20747,-100,4,2,2,65,0,0
20855,-100,4,2,1,65,0,0
21176,-100,4,2,2,65,0,0
22033,-100,4,2,1,65,0,0
22462,-100,4,2,2,65,0,0
22569,-100,4,2,1,65,0,0
22890,-100,4,2,2,65,0,0
23962,-100,4,2,1,65,0,0
24069,-100,4,2,2,65,0,0
24283,-100,4,2,1,65,0,0
24390,-100,4,2,2,65,0,0
25997,-100,4,2,1,65,0,0
26105,-100,4,2,2,65,0,0
26426,-100,4,2,1,65,0,0
26533,-100,4,2,2,65,0,0
27069,-100,4,2,1,65,0,0
27176,-100,4,2,2,65,0,0
27497,-100,4,2,1,65,0,0
27605,-100,4,2,2,65,0,0
28033,-100,4,2,5,70,0,0
28247,-100,4,2,1,70,0,0
28462,-100,4,2,2,70,0,0
28676,-100,4,2,1,70,0,0
28890,-100,4,2,2,70,0,0
29105,-100,4,2,1,70,0,0
29533,-100,4,2,6,70,0,0
30819,-100,4,2,1,70,0,0
31033,-100,4,2,2,70,0,0
31140,-100,4,2,1,70,0,0
31247,-100,4,2,2,70,0,0
32533,-100,4,2,1,70,0,0
32962,-100,4,2,2,70,0,0
33283,-100,4,2,1,70,0,0
33390,-100,4,2,2,70,0,0
34247,-100,4,2,1,70,0,0
34890,-100,4,2,2,70,0,0
35319,-100,4,2,1,70,0,0
35533,-100,4,2,2,70,0,0
35747,-100,4,2,1,70,0,0
36390,-100,4,2,2,70,0,0
37676,-100,4,2,1,70,0,0
37783,-100,4,2,2,70,0,0
38105,-100,4,2,1,70,0,0
38747,-100,4,2,2,70,0,0
39390,-100,4,2,1,70,0,0
39497,-100,4,2,2,70,0,0
39605,-100,4,2,7,70,0,0
39712,-100,4,2,1,70,0,0
39819,-100,4,2,2,70,0,0
40033,-100,4,2,1,80,0,0
40462,-100,4,2,8,80,0,0
40676,-100,4,2,9,80,0,0
40890,-100,4,2,8,80,0,0
41105,-100,4,2,9,80,0,0
41319,-100,4,2,10,80,0,0
41747,-83.3333333333333,4,2,11,85,0,1
41962,-83.3333333333333,4,2,12,85,0,1
42069,-83.3333333333333,4,2,13,85,0,1
42176,-71.4285714285714,4,2,13,85,0,1
42283,-83.3333333333333,4,2,13,85,0,1
42390,-83.3333333333333,4,2,8,85,0,1
42497,-83.3333333333333,4,2,1,85,0,1
42605,-83.3333333333333,4,2,8,85,0,1
42819,-83.3333333333333,4,2,3,85,0,1
43033,-83.3333333333333,4,2,1,85,0,1
43247,-83.3333333333333,4,2,8,85,0,1
43676,-83.3333333333333,4,2,3,85,0,1
43890,-83.3333333333333,4,2,1,85,0,1
44105,-83.3333333333333,4,2,8,85,0,1
44212,-83.3333333333333,4,2,1,85,0,1
44319,-83.3333333333333,4,2,10,85,0,1
44533,-83.3333333333333,4,2,14,85,0,1
44640,-83.3333333333333,4,2,1,85,0,1
44747,-83.3333333333333,4,2,8,85,0,1
44855,-83.3333333333333,4,2,1,85,0,1
44962,-83.3333333333333,4,2,8,85,0,1
45390,-83.3333333333333,4,2,12,85,0,1
45605,-83.3333333333333,4,2,1,85,0,1
45819,-83.3333333333333,4,2,8,85,0,1
45926,-83.3333333333333,4,2,1,85,0,1
46033,-83.3333333333333,4,2,8,85,0,1
46247,-83.3333333333333,4,2,3,85,0,1
46355,-83.3333333333333,4,2,15,85,0,1
46462,-83.3333333333333,4,2,1,85,0,1
46676,-83.3333333333333,4,2,16,85,0,1
46890,-83.3333333333333,4,2,3,85,0,1
47212,-83.3333333333333,4,2,2,85,0,1
47319,-83.3333333333333,4,2,1,85,0,1
47533,-83.3333333333333,4,2,8,85,0,1
47747,-83.3333333333333,4,2,10,85,0,1
47962,-83.3333333333333,4,2,14,85,0,1
48069,-83.3333333333333,4,2,1,85,0,1
48176,-83.3333333333333,4,2,10,85,0,1
48390,-83.3333333333333,4,2,8,85,0,1
48605,-83.3333333333333,4,2,1,85,0,1
48819,-83.3333333333333,4,2,3,85,0,1
49033,-83.3333333333333,4,2,8,85,0,1
49676,-83.3333333333333,4,2,3,85,0,1
49783,-83.3333333333333,4,2,10,85,0,1
49997,-83.3333333333333,4,2,1,85,0,1
50105,-83.3333333333333,4,2,14,85,0,1
50426,-83.3333333333333,4,2,3,85,0,1
50747,-83.3333333333333,4,2,8,85,0,1
51390,-83.3333333333333,4,2,3,85,0,1
51497,-83.3333333333333,4,2,17,85,0,1
51605,-83.3333333333333,4,2,1,85,0,1
51819,-83.3333333333333,4,2,14,85,0,1
52247,-83.3333333333333,4,2,3,85,0,1
52462,-83.3333333333333,4,2,8,85,0,1
53105,-83.3333333333333,4,2,3,85,0,1
53212,-83.3333333333333,4,2,10,85,0,1
53426,-83.3333333333333,4,2,1,85,0,1
53533,-83.3333333333333,4,2,14,85,0,1
53855,-83.3333333333333,4,2,3,85,0,1
54176,-83.3333333333333,4,2,8,85,0,1
54390,-83.3333333333333,4,2,18,85,0,1
54605,-83.3333333333333,4,2,8,85,0,1
54819,-83.3333333333333,4,2,18,85,0,1
54926,-83.3333333333333,4,2,1,85,0,1
55033,-83.3333333333333,4,2,10,85,0,1
55140,-83.3333333333333,4,2,1,85,0,1
55355,-83.3333333333333,4,2,1,85,0,0
55462,-83.3333333333333,4,2,11,85,0,1
55676,-83.3333333333333,4,2,12,85,0,1
55783,-83.3333333333333,4,2,13,85,0,1
56105,-83.3333333333333,4,2,3,85,0,1
56747,-83.3333333333333,4,2,8,85,0,1
56855,-83.3333333333333,4,2,3,85,0,1
57605,-83.3333333333333,4,2,1,85,0,1
57819,-83.3333333333333,4,2,8,85,0,1
57926,-83.3333333333333,4,2,1,85,0,1
58033,-83.3333333333333,4,2,10,85,0,1
58247,-83.3333333333333,4,2,14,85,0,1
58355,-83.3333333333333,4,2,1,85,0,1
58462,-83.3333333333333,4,2,10,85,0,1
58676,-83.3333333333333,4,2,8,85,0,1
59105,-83.3333333333333,4,2,18,85,0,1
59319,-83.3333333333333,4,2,8,85,0,1
59533,-83.3333333333333,4,2,18,85,0,1
59640,-83.3333333333333,4,2,1,85,0,1
59747,-83.3333333333333,4,2,8,85,0,1
59962,-83.3333333333333,4,2,18,85,0,1
60069,-83.3333333333333,4,2,1,85,0,1
60176,-83.3333333333333,4,2,8,85,0,1
60283,-83.3333333333333,4,2,1,85,0,1
60390,-83.3333333333333,4,2,16,85,0,1
60605,-83.3333333333333,4,2,3,85,0,1
61033,-83.3333333333333,4,2,1,85,0,1
61247,-83.3333333333333,4,2,8,85,0,1
61355,-83.3333333333333,4,2,1,85,0,1
61462,-83.3333333333333,4,2,10,85,0,1
61676,-83.3333333333333,4,2,14,85,0,1
61783,-83.3333333333333,4,2,1,85,0,1
61890,-83.3333333333333,4,2,10,85,0,1
61997,-83.3333333333333,4,2,1,85,0,1
62105,-83.3333333333333,4,2,8,85,0,1
62319,-83.3333333333333,4,2,11,85,0,1
62533,-83.3333333333333,4,2,8,85,0,1
62962,-83.3333333333333,4,2,15,85,0,1
63069,-83.3333333333333,4,2,1,85,0,1
63176,-83.3333333333333,4,2,8,85,0,1
63390,-83.3333333333333,4,2,14,85,0,1
63497,-83.3333333333333,4,2,1,85,0,1
63605,-83.3333333333333,4,2,8,85,0,1
63819,-83.3333333333333,4,2,15,85,0,1
64033,-83.3333333333333,4,2,8,85,0,1
64247,-83.3333333333333,4,2,3,85,0,1
64462,-83.3333333333333,4,2,1,85,0,1
64676,-83.3333333333333,4,2,15,85,0,1
64783,-83.3333333333333,4,2,1,85,0,1
64890,-83.3333333333333,4,2,8,85,0,1
65105,-83.3333333333333,4,2,14,85,0,1
65212,-83.3333333333333,4,2,1,85,0,1
65319,-83.3333333333333,4,2,8,85,0,1
65533,-83.3333333333333,4,2,15,85,0,1
65747,-83.3333333333333,4,2,8,85,0,1
65962,-83.3333333333333,4,2,3,85,0,1
66176,-83.3333333333333,4,2,1,85,0,1
66390,-83.3333333333333,4,2,15,85,0,1
66497,-83.3333333333333,4,2,1,85,0,1
66605,-83.3333333333333,4,2,8,85,0,1
66819,-83.3333333333333,4,2,14,85,0,1
66926,-83.3333333333333,4,2,1,85,0,1
67033,-83.3333333333333,4,2,8,85,0,1
67247,-83.3333333333333,4,2,15,85,0,1
67676,-83.3333333333333,4,2,3,85,0,1
67890,-83.3333333333333,4,2,8,85,0,1
68105,-83.3333333333333,4,2,18,85,0,1
68212,-83.3333333333333,4,2,1,85,0,1
68319,-83.3333333333333,4,2,8,85,0,1
68533,-83.3333333333333,4,2,18,85,0,1
68640,-83.3333333333333,4,2,1,85,0,1
68747,-83.3333333333333,4,2,10,85,0,1
68962,-83.3333333333333,4,2,1,85,0,1
69176,-100,4,2,19,70,0,0
69390,-100,4,2,20,70,0,0
69605,-100,4,2,21,70,0,0
69819,-100,4,2,2,70,0,0
70033,-100,4,2,21,70,0,0
70890,-100,4,2,2,70,0,0
71105,-100,4,2,21,70,0,0
71533,-100,4,2,2,70,0,0
71747,-100,4,2,21,70,0,0
72605,-100,4,2,2,70,0,0
72819,-100,4,2,21,70,0,0
73247,-100,4,2,2,70,0,0
73462,-100,4,2,21,70,0,0
74319,-100,4,2,7,70,0,0
74426,-100,4,2,1,70,0,0
74962,-100,4,2,2,70,0,0
76033,-125,4,2,2,60,0,0
76462,-125,4,2,1,60,0,0
77105,-125,4,2,2,60,0,0
77212,-125,4,2,1,60,0,0
77319,-125,4,2,2,60,0,0
77426,-125,4,2,2,5,0,0
77533,-125,4,2,1,60,0,0
77962,-125,4,2,2,60,0,0
78819,-125,4,2,2,5,0,0
78926,-125,4,2,2,60,0,0
79140,-125,4,2,2,5,0,0
79247,-125,4,2,2,60,0,0
79355,-125,4,2,2,5,0,0
79462,-125,4,2,1,60,0,0
79890,-125,4,2,2,60,0,0
80212,-125,4,2,1,60,0,0
80319,-125,4,2,2,60,0,0
80640,-125,4,2,1,60,0,0
80747,-125,4,2,2,60,0,0
80962,-125,4,2,1,60,0,0
81176,-125,4,2,2,60,0,0
81390,-125,4,2,1,60,0,0
81605,-125,4,2,2,60,0,0
81819,-125,4,2,1,60,0,0
82033,-125,4,2,2,60,0,0
82355,-125,4,2,1,60,0,0
82462,-125,4,2,2,60,0,0
82676,-125,4,2,22,60,0,0
82890,-125,4,2,2,70,0,0
83962,-125,4,2,2,70,0,0
84069,-125,4,2,2,70,0,0
84283,-125,4,2,2,70,0,0
84390,-125,4,2,2,70,0,0
84497,-125,4,2,2,5,0,0
84604,-125,4,2,2,70,0,0
84926,-125,4,2,1,70,0,0
85033,-125,4,2,2,70,0,0
85140,-125,4,2,1,70,0,0
85247,-125,4,2,2,70,0,0
85355,-125,4,2,1,70,0,0
85462,-125,4,2,2,70,0,0
85783,-125,4,2,1,70,0,0
85890,-125,4,2,6,70,0,0
86105,-125,4,2,1,70,0,0
86747,-125,4,2,6,70,0,0
87390,-125,4,2,6,70,0,0
87497,-125,4,2,6,70,0,0
87712,-125,4,2,6,70,0,0
87819,-125,4,2,6,70,0,0
87926,-125,4,2,6,5,0,0
88033,-125,4,2,6,70,0,0
89747,-133.333333333333,4,2,5,70,0,0
90069,-133.333333333333,4,2,5,5,0,0
90176,-133.333333333333,4,2,6,70,0,0
90497,-133.333333333333,4,2,6,5,0,0
90604,-133.333333333333,4,2,6,70,0,0
91676,-133.333333333333,4,2,6,70,0,0
91783,-133.333333333333,4,2,6,70,0,0
91997,-133.333333333333,4,2,6,5,0,0
92105,-133.333333333333,4,2,6,70,0,0
92212,-133.333333333333,4,2,6,5,0,0
92319,-133.333333333333,4,2,6,70,0,0
92640,-133.333333333333,4,2,6,5,0,0
92747,-133.333333333333,4,2,6,70,0,0
96605,-181.818181818181,4,2,6,70,0,0
97033,-181.818181818181,4,2,13,70,0,0
98319,-181.818181818181,4,2,4,70,0,0
98533,-181.818181818181,4,2,4,70,0,0
98640,-181.818181818181,4,2,4,70,0,0
98855,-181.818181818181,4,2,4,5,0,0
98962,-181.818181818181,4,2,4,70,0,0
99069,-181.818181818181,4,2,4,5,0,0
99176,-181.818181818181,4,2,4,70,0,0
101319,-181.818181818181,4,2,7,70,0,0
101533,-181.818181818181,4,2,2,70,0,0
101747,-181.818181818181,4,2,1,80,0,0
102176,-181.818181818181,4,2,8,80,0,0
102390,-181.818181818181,4,2,9,80,0,0
102605,-181.818181818181,4,2,8,80,0,0
102819,-181.818181818181,4,2,9,80,0,0
103033,-181.818181818181,4,2,10,80,0,0
103462,-83.3333333333333,4,2,11,85,0,1
103676,-83.3333333333333,4,2,12,85,0,1
103783,-83.3333333333333,4,2,13,85,0,1
103890,-71.4285714285714,4,2,13,85,0,1
104105,-83.3333333333333,4,2,8,85,0,1
104212,-83.3333333333333,4,2,1,85,0,1
104319,-83.3333333333333,4,2,8,85,0,1
104533,-83.3333333333333,4,2,3,85,0,1
104747,-83.3333333333333,4,2,1,85,0,1
104962,-83.3333333333333,4,2,8,85,0,1
105390,-83.3333333333333,4,2,3,85,0,1
105605,-83.3333333333333,4,2,1,85,0,1
105819,-83.3333333333333,4,2,8,85,0,1
105926,-83.3333333333333,4,2,1,85,0,1
106033,-83.3333333333333,4,2,10,85,0,1
106247,-83.3333333333333,4,2,14,85,0,1
106355,-83.3333333333333,4,2,1,85,0,1
106462,-83.3333333333333,4,2,8,85,0,1
106569,-83.3333333333333,4,2,1,85,0,1
106676,-83.3333333333333,4,2,8,85,0,1
107105,-83.3333333333333,4,2,12,85,0,1
107319,-83.3333333333333,4,2,1,85,0,1
107533,-83.3333333333333,4,2,8,85,0,1
107640,-83.3333333333333,4,2,1,85,0,1
107747,-83.3333333333333,4,2,8,85,0,1
107962,-83.3333333333333,4,2,3,85,0,1
108069,-83.3333333333333,4,2,15,85,0,1
108176,-83.3333333333333,4,2,1,85,0,1
108390,-83.3333333333333,4,2,16,85,0,1
108605,-83.3333333333333,4,2,3,85,0,1
108926,-83.3333333333333,4,2,2,85,0,1
109033,-83.3333333333333,4,2,1,85,0,1
109247,-83.3333333333333,4,2,8,85,0,1
109462,-83.3333333333333,4,2,10,85,0,1
109676,-83.3333333333333,4,2,14,85,0,1
109783,-83.3333333333333,4,2,1,85,0,1
109890,-83.3333333333333,4,2,10,85,0,1
110105,-83.3333333333333,4,2,8,85,0,1
110319,-83.3333333333333,4,2,1,85,0,1
110533,-83.3333333333333,4,2,3,85,0,1
110747,-83.3333333333333,4,2,8,85,0,1
111390,-83.3333333333333,4,2,3,85,0,1
111497,-83.3333333333333,4,2,10,85,0,1
111712,-83.3333333333333,4,2,1,85,0,1
111819,-83.3333333333333,4,2,14,85,0,1
112140,-83.3333333333333,4,2,3,85,0,1
112462,-83.3333333333333,4,2,8,85,0,1
113105,-83.3333333333333,4,2,3,85,0,1
113212,-83.3333333333333,4,2,17,85,0,1
113319,-83.3333333333333,4,2,1,85,0,1
113533,-83.3333333333333,4,2,14,85,0,1
113962,-83.3333333333333,4,2,3,85,0,1
114176,-83.3333333333333,4,2,8,85,0,1
114819,-83.3333333333333,4,2,3,85,0,1
114926,-83.3333333333333,4,2,10,85,0,1
115140,-83.3333333333333,4,2,1,85,0,1
115247,-83.3333333333333,4,2,14,85,0,1
115569,-83.3333333333333,4,2,23,85,0,1
115890,-83.3333333333333,4,2,8,85,0,1
116105,-83.3333333333333,4,2,18,85,0,1
116319,-83.3333333333333,4,2,8,85,0,1
116533,-83.3333333333333,4,2,18,85,0,1
116640,-83.3333333333333,4,2,1,85,0,1
116747,-83.3333333333333,4,2,10,85,0,1
116855,-83.3333333333333,4,2,1,85,0,1
117069,-83.3333333333333,4,2,1,85,0,0
117176,-83.3333333333333,4,2,11,85,0,1
117390,-83.3333333333333,4,2,12,85,0,1
117497,-83.3333333333333,4,2,13,85,0,1
117819,-83.3333333333333,4,2,3,85,0,1
118462,-83.3333333333333,4,2,8,85,0,1
118569,-83.3333333333333,4,2,3,85,0,1
119319,-83.3333333333333,4,2,1,85,0,1
119533,-83.3333333333333,4,2,8,85,0,1
119640,-83.3333333333333,4,2,1,85,0,1
119747,-83.3333333333333,4,2,10,85,0,1
119962,-83.3333333333333,4,2,14,85,0,1
120069,-83.3333333333333,4,2,1,85,0,1
120176,-83.3333333333333,4,2,10,85,0,1
120390,-83.3333333333333,4,2,8,85,0,1
120819,-83.3333333333333,4,2,18,85,0,1
121033,-83.3333333333333,4,2,8,85,0,1
121247,-83.3333333333333,4,2,18,85,0,1
121355,-83.3333333333333,4,2,1,85,0,1
121462,-83.3333333333333,4,2,8,85,0,1
121676,-83.3333333333333,4,2,18,85,0,1
121783,-83.3333333333333,4,2,1,85,0,1
121890,-83.3333333333333,4,2,8,85,0,1
121997,-83.3333333333333,4,2,1,85,0,1
122105,-83.3333333333333,4,2,16,85,0,1
122319,-83.3333333333333,4,2,3,85,0,1
122747,-83.3333333333333,4,2,1,85,0,1
122962,-83.3333333333333,4,2,8,85,0,1
123069,-83.3333333333333,4,2,1,85,0,1
123176,-83.3333333333333,4,2,10,85,0,1
123390,-83.3333333333333,4,2,14,85,0,1
123497,-83.3333333333333,4,2,1,85,0,1
123605,-83.3333333333333,4,2,10,85,0,1
123712,-83.3333333333333,4,2,1,85,0,1
123819,-83.3333333333333,4,2,8,85,0,1
124033,-83.3333333333333,4,2,11,85,0,1
124247,-83.3333333333333,4,2,8,85,0,1
124676,-83.3333333333333,4,2,15,85,0,1
124783,-83.3333333333333,4,2,1,85,0,1
124890,-83.3333333333333,4,2,8,85,0,1
125105,-83.3333333333333,4,2,14,85,0,1
125212,-83.3333333333333,4,2,1,85,0,1
125319,-83.3333333333333,4,2,8,85,0,1
125533,-83.3333333333333,4,2,15,85,0,1
125747,-83.3333333333333,4,2,8,85,0,1
125962,-83.3333333333333,4,2,3,85,0,1
126176,-83.3333333333333,4,2,1,85,0,1
126390,-83.3333333333333,4,2,15,85,0,1
126497,-83.3333333333333,4,2,1,85,0,1
126605,-83.3333333333333,4,2,8,85,0,1
126819,-83.3333333333333,4,2,14,85,0,1
126926,-83.3333333333333,4,2,1,85,0,1
127033,-83.3333333333333,4,2,8,85,0,1
127247,-83.3333333333333,4,2,15,85,0,1
127462,-83.3333333333333,4,2,8,85,0,1
127676,-83.3333333333333,4,2,3,85,0,1
127890,-83.3333333333333,4,2,1,85,0,1
128105,-83.3333333333333,4,2,15,85,0,1
128212,-83.3333333333333,4,2,1,85,0,1
128319,-83.3333333333333,4,2,8,85,0,1
128533,-83.3333333333333,4,2,14,85,0,1
128640,-83.3333333333333,4,2,1,85,0,1
128747,-83.3333333333333,4,2,8,85,0,1
128962,-83.3333333333333,4,2,15,85,0,1
129390,-83.3333333333333,4,2,3,85,0,1
129605,-83.3333333333333,4,2,8,85,0,1
129819,-83.3333333333333,4,2,18,85,0,1
129926,-83.3333333333333,4,2,1,85,0,1
130033,-83.3333333333333,4,2,8,85,0,1
130247,-83.3333333333333,4,2,18,85,0,1
130355,-83.3333333333333,4,2,1,85,0,1
130462,-83.3333333333333,4,2,10,85,0,1
130676,-83.3333333333333,4,2,1,85,0,1
130890,-100,4,2,19,70,0,0
131105,-100,4,2,20,70,0,0
131319,-100,4,2,21,70,0,0
131533,-100,4,2,2,70,0,0
131747,-100,4,2,21,70,0,0
132605,-100,4,2,2,70,0,0
132819,-100,4,2,21,70,0,0
133247,-100,4,2,2,70,0,0
133462,-100,4,2,21,70,0,0
134319,-100,4,2,2,70,0,0
134533,-100,4,2,21,70,0,0
134962,-100,4,2,2,70,0,0
135176,-100,4,2,21,70,0,0
136033,-100,4,2,2,70,0,0
136247,-100,4,2,21,70,0,0
136676,-100,4,2,2,70,0,0
136890,-100,4,2,21,70,0,0
137747,-260,4,2,21,50,0,0
138176,-260,4,2,2,50,0,0
138605,-260,4,2,24,50,0,0
139355,-260,4,2,24,5,0,0
139462,-260,4,2,24,50,0,0
139890,-260,4,2,2,50,0,0
140319,-260,4,2,24,50,0,0
141176,-400,4,2,24,50,0,0
142569,-400,4,2,24,5,0,0
142676,-400,4,2,24,50,0,0
144390,-400,4,2,2,50,0,0
145462,-400,4,2,24,50,0,0
146212,-400,4,2,24,5,0,0
146319,-400,4,2,24,50,0,0
146747,-400,4,2,2,50,0,0
147176,-400,4,2,1,50,0,0
147926,-400,4,2,1,5,0,0
148033,-400,4,2,1,50,0,0
149640,-400,4,2,1,5,0,0
149747,-400,4,2,24,50,0,0
151247,-400,4,2,1,50,0,0
151462,-400,4,2,3,50,0,0
151569,-400,4,2,3,50,0,0
154890,-285.714285714286,4,2,3,50,0,0
156176,-285.714285714286,4,2,2,50,0,0
156605,-200,4,2,25,50,0,0
156712,-600,4,2,25,50,0,0
157676,-600,4,2,6,50,0,0
158212,-600,4,2,1,50,0,0
158319,-600,4,2,1,60,0,0
159819,-600,4,2,2,60,0,0
160140,-600,4,2,1,60,0,0
161533,-600,4,2,2,60,0,0
161855,-600,4,2,1,60,0,0
162605,-600,4,2,2,60,0,0
162819,-600,4,2,1,60,0,0
162926,-600,4,2,2,60,0,0
163140,-600,4,2,1,60,0,0
163247,-600,4,2,2,60,0,0
163890,-600,4,2,8,85,0,0
164105,-600,4,2,9,85,0,0
164319,-600,4,2,8,85,0,0
164533,-600,4,2,9,85,0,0
164747,-600,4,2,10,85,0,0
165176,-83.3333333333333,4,2,11,90,0,1
165390,-83.3333333333333,4,2,12,90,0,1
165497,-83.3333333333333,4,2,13,90,0,1
165605,-71.4285714285714,4,2,13,90,0,1
165712,-83.3333333333333,4,2,13,90,0,1
165819,-83.3333333333333,4,2,8,90,0,1
165926,-83.3333333333333,4,2,1,90,0,1
166033,-83.3333333333333,4,2,8,90,0,1
166247,-83.3333333333333,4,2,3,90,0,1
166462,-83.3333333333333,4,2,1,90,0,1
166676,-83.3333333333333,4,2,8,90,0,1
167105,-83.3333333333333,4,2,3,90,0,1
167319,-83.3333333333333,4,2,1,90,0,1
167533,-83.3333333333333,4,2,8,90,0,1
167640,-83.3333333333333,4,2,1,90,0,1
167747,-83.3333333333333,4,2,10,90,0,1
167962,-83.3333333333333,4,2,14,90,0,1
168069,-83.3333333333333,4,2,1,90,0,1
168176,-83.3333333333333,4,2,8,90,0,1
168283,-83.3333333333333,4,2,1,90,0,1
168390,-83.3333333333333,4,2,8,90,0,1
168819,-83.3333333333333,4,2,12,90,0,1
169033,-83.3333333333333,4,2,1,90,0,1
169247,-83.3333333333333,4,2,8,90,0,1
169355,-83.3333333333333,4,2,1,90,0,1
169462,-83.3333333333333,4,2,8,90,0,1
169676,-83.3333333333333,4,2,3,90,0,1
169783,-83.3333333333333,4,2,15,90,0,1
169890,-83.3333333333333,4,2,1,90,0,1
170105,-83.3333333333333,4,2,16,90,0,1
170319,-83.3333333333333,4,2,3,90,0,1
170747,-83.3333333333333,4,2,1,90,0,1
170962,-83.3333333333333,4,2,8,90,0,1
171176,-83.3333333333333,4,2,10,90,0,1
171390,-83.3333333333333,4,2,14,90,0,1
171497,-83.3333333333333,4,2,1,90,0,1
171605,-83.3333333333333,4,2,10,90,0,1
171819,-83.3333333333333,4,2,8,90,0,1
172033,-83.3333333333333,4,2,1,90,0,1
172247,-83.3333333333333,4,2,3,90,0,1
172462,-83.3333333333333,4,2,8,90,0,1
173105,-83.3333333333333,4,2,3,90,0,1
173212,-83.3333333333333,4,2,10,90,0,1
173426,-83.3333333333333,4,2,1,90,0,1
173533,-83.3333333333333,4,2,14,90,0,1
173855,-83.3333333333333,4,2,3,90,0,1
174176,-83.3333333333333,4,2,8,90,0,1
174819,-83.3333333333333,4,2,3,90,0,1
174926,-83.3333333333333,4,2,17,90,0,1
175033,-83.3333333333333,4,2,1,90,0,1
175247,-83.3333333333333,4,2,14,90,0,1
175676,-83.3333333333333,4,2,3,90,0,1
175890,-83.3333333333333,4,2,8,90,0,1
176533,-83.3333333333333,4,2,3,90,0,1
176640,-83.3333333333333,4,2,10,90,0,1
176855,-83.3333333333333,4,2,1,90,0,1
176962,-83.3333333333333,4,2,14,90,0,1
177283,-83.3333333333333,4,2,23,90,0,1
177605,-83.3333333333333,4,2,8,90,0,1
177819,-83.3333333333333,4,2,18,90,0,1
178033,-83.3333333333333,4,2,8,90,0,1
178247,-83.3333333333333,4,2,18,90,0,1
178355,-83.3333333333333,4,2,1,90,0,1
178462,-83.3333333333333,4,2,10,90,0,1
178569,-83.3333333333333,4,2,1,90,0,1
178783,-83.3333333333333,4,2,1,90,0,0
178890,-83.3333333333333,4,2,11,90,0,1
179105,-83.3333333333333,4,2,12,90,0,1
179212,-83.3333333333333,4,2,13,90,0,1
179533,-83.3333333333333,4,2,3,90,0,1
180176,-83.3333333333333,4,2,8,90,0,1
180283,-83.3333333333333,4,2,3,90,0,1
181033,-83.3333333333333,4,2,1,90,0,1
181247,-83.3333333333333,4,2,8,90,0,1
181355,-83.3333333333333,4,2,1,90,0,1
181462,-83.3333333333333,4,2,10,90,0,1
181676,-83.3333333333333,4,2,14,90,0,1
181783,-83.3333333333333,4,2,1,90,0,1
181890,-83.3333333333333,4,2,10,90,0,1
182105,-83.3333333333333,4,2,8,90,0,1
182533,-83.3333333333333,4,2,18,90,0,1
182747,-83.3333333333333,4,2,8,90,0,1
182962,-83.3333333333333,4,2,18,90,0,1
183069,-83.3333333333333,4,2,1,90,0,1
183176,-83.3333333333333,4,2,8,90,0,1
183390,-83.3333333333333,4,2,18,90,0,1
183497,-83.3333333333333,4,2,1,90,0,1
183605,-83.3333333333333,4,2,8,90,0,1
183712,-83.3333333333333,4,2,1,90,0,1
183819,-83.3333333333333,4,2,16,90,0,1
184033,-83.3333333333333,4,2,3,90,0,1
184462,-83.3333333333333,4,2,1,90,0,1
184676,-83.3333333333333,4,2,8,90,0,1
184783,-83.3333333333333,4,2,1,90,0,1
184890,-83.3333333333333,4,2,10,90,0,1
185105,-83.3333333333333,4,2,14,90,0,1
185212,-83.3333333333333,4,2,1,90,0,1
185319,-83.3333333333333,4,2,10,90,0,1
185426,-83.3333333333333,4,2,1,90,0,1
185533,-83.3333333333333,4,2,8,90,0,1
185747,-83.3333333333333,4,2,11,90,0,1
185962,-83.3333333333333,4,2,8,90,0,1
186390,-83.3333333333333,4,2,15,90,0,1
186497,-83.3333333333333,4,2,1,90,0,1
186605,-83.3333333333333,4,2,8,90,0,1
186819,-83.3333333333333,4,2,14,90,0,1
186926,-83.3333333333333,4,2,1,90,0,1
187033,-83.3333333333333,4,2,8,90,0,1
187247,-83.3333333333333,4,2,15,90,0,1
187462,-83.3333333333333,4,2,8,90,0,1
187676,-83.3333333333333,4,2,3,90,0,1
187890,-83.3333333333333,4,2,1,90,0,1
188105,-83.3333333333333,4,2,15,90,0,1
188212,-83.3333333333333,4,2,1,90,0,1
188319,-83.3333333333333,4,2,8,90,0,1
188533,-83.3333333333333,4,2,14,90,0,1
188640,-83.3333333333333,4,2,1,90,0,1
188747,-83.3333333333333,4,2,8,90,0,1
188962,-83.3333333333333,4,2,15,90,0,1
189176,-83.3333333333333,4,2,8,90,0,1
189390,-83.3333333333333,4,2,3,90,0,1
189605,-83.3333333333333,4,2,1,90,0,1
189819,-83.3333333333333,4,2,15,90,0,1
189926,-83.3333333333333,4,2,1,90,0,1
190033,-83.3333333333333,4,2,8,90,0,1
190247,-83.3333333333333,4,2,14,90,0,1
190355,-83.3333333333333,4,2,1,90,0,1
190462,-83.3333333333333,4,2,8,90,0,1
190676,-83.3333333333333,4,2,15,90,0,1
191105,-83.3333333333333,4,2,3,90,0,1
191319,-83.3333333333333,4,2,8,90,0,1
191533,-83.3333333333333,4,2,18,90,0,1
191640,-83.3333333333333,4,2,1,90,0,1
191747,-83.3333333333333,4,2,8,90,0,1
191962,-83.3333333333333,4,2,18,90,0,1
192069,-83.3333333333333,4,2,1,90,0,1
192176,-83.3333333333333,4,2,10,90,0,1
192390,-83.3333333333333,4,2,1,90,0,1
192605,-100,4,2,26,60,0,0
192819,-100,4,2,20,60,0,0
193033,-100,4,2,21,60,0,0
193247,-100,4,2,2,60,0,0
193462,-100,4,2,21,60,0,0

[Colours]
Combo1 : 227,51,64
Combo2 : 61,41,231
Combo3 : 183,40,180

[HitObjects]
80,192,12605,5,8,2:3:0:0:
124,32,12926,1,4,2:3:0:0:
256,148,13247,1,10,2:3:0:0:
80,192,13462,5,6,2:3:0:0:
124,32,13676,1,6,2:3:0:0:
256,148,13890,1,10,2:2:0:0:
80,192,14105,1,8,2:2:0:0:
256,28,14319,6,0,B|336:28|304:80|392:80,1,150,6|0,3:2|0:0,0:0:0:0:
472,44,14640,1,0,0:0:0:0:
472,44,14747,6,0,P|480:80|472:116,1,75,2|0,1:2|0:0,0:0:0:0:
390,152,14962,2,0,P|382:116|390:80,1,75,0|0,3:3|0:0,0:0:0:0:
456,224,15176,1,2,2:2:0:0:
456,224,15283,1,2,2:2:0:0:
456,224,15390,2,0,L|380:232,1,75,2|2,2:2|2:2,0:0:0:0:
315,144,15605,1,2,1:2:0:0:
315,144,15712,1,2,2:2:0:0:
315,144,15819,2,0,L|391:152,1,75,2|0,2:2|0:0,0:0:0:0:
244,112,16033,6,0,P|236:156|248:184,1,75,2|0,3:2|0:0,0:0:0:0:
264,40,16247,2,0,P|219:39|193:56,1,75,2|0,2:2|0:0,0:0:0:0:
340,72,16462,2,0,P|347:27|335:0,1,75,2|0,1:2|0:0,0:0:0:0:
315,144,16676,2,0,P|359:148|386:133,1,75,2|0,3:2|0:0,0:0:0:0:
472,44,16890,6,0,L|484:120,1,75,2|0,2:2|0:0,0:0:0:0:
432,256,17105,1,2,2:2:0:0:
432,256,17212,2,0,L|444:180,1,75,2|0,2:2|1:1,0:0:0:0:
373,60,17426,1,2,2:2:0:0:
373,60,17533,2,0,L|385:136,1,75,2|0,2:2|0:0,0:0:0:0:
432,256,17747,5,0,3:3:0:0:
164,164,18176,5,0,1:1:0:0:
92,220,18283,1,2,2:2:0:0:
124,304,18390,1,2,3:2:0:0:
212,304,18497,1,2,2:2:0:0:
244,220,18605,2,0,L|320:212,1,75,2|0,2:2|0:0,0:0:0:0:
408,112,18819,1,2,2:2:0:0:
408,112,18926,2,0,L|333:104,1,75,2|0,2:2|1:1,0:0:0:0:
232,232,19140,1,2,2:2:0:0:
232,232,19247,2,0,L|308:224,1,75,2|0,2:2|0:0,0:0:0:0:
152,212,19462,6,0,P|152:252|168:284,1,75,0|2,3:3|2:2,0:0:0:0:
212,152,19676,2,0,L|196:76,1,75,2|0,2:2|0:0,0:0:0:0:
232,232,19890,2,0,P|268:232|308:224,1,75,2|0,1:2|0:0,0:0:0:0:
88,152,20105,1,2,3:2:0:0:
88,152,20212,1,2,2:2:0:0:
88,152,20319,6,0,L|12:168,1,75,2|0,2:2|0:0,0:0:0:0:
212,152,20533,1,2,3:2:0:0:
212,152,20640,1,2,2:2:0:0:
212,152,20747,2,0,L|288:136,1,75,2|2,1:2|2:2,0:0:0:0:
224,68,20962,1,2,2:2:0:0:
272,220,21069,1,0,0:0:0:0:
216,48,21176,5,2,3:2:0:0:
216,48,21605,2,0,L|292:48,1,75,2|0,1:2|0:0,0:0:0:0:
340,124,21819,2,0,L|264:124,1,75,0|0,3:3|0:0,0:0:0:0:
408,88,22033,5,2,2:2:0:0:
408,88,22140,1,2,2:2:0:0:
408,88,22247,2,0,P|416:124|408:160,1,75,2|2,2:2|2:2,0:0:0:0:
264,196,22462,1,2,1:2:0:0:
264,196,22569,1,2,2:2:0:0:
264,196,22676,2,0,P|256:160|264:124,1,75,2|0,2:2|0:0,0:0:0:0:
316,268,22890,6,0,B|252:304|200:264|200:264|200:296,1,150,2|0,3:2|0:0,0:0:0:0:
264,124,23319,1,0,1:1:0:0:
336,352,23533,1,0,3:3:0:0:
256,198,23747,6,0,L|264:122,1,75,2|0,2:2|0:0,0:0:0:0:
176,40,23962,1,2,2:2:0:0:
176,40,24069,2,0,L|184:116,1,75,2|0,2:2|1:1,0:0:0:0:
104,248,24283,1,2,2:2:0:0:
104,248,24390,2,0,L|112:172,1,75,2|0,2:2|0:0,0:0:0:0:
36,68,24605,5,0,3:3:0:0:
352,296,25033,5,2,1:2:0:0:
424,240,25140,1,2,2:2:0:0:
392,156,25247,1,2,3:2:0:0:
304,156,25354,1,2,2:2:0:0:
272,240,25462,2,0,L|196:248,1,75,2|0,2:2|0:0,0:0:0:0:
136,132,25676,1,2,2:2:0:0:
136,132,25783,2,0,L|212:140,1,75,2|0,2:2|1:1,0:0:0:0:
64,160,25998,1,2,2:2:0:0:
64,160,26105,2,0,P|56:120|68:88,1,75,2|0,2:2|0:0,0:0:0:0:
124,212,26319,6,0,L|132:296,1,75,0|2,3:3|2:2,0:0:0:0:
212,368,26533,2,0,L|220:284,1,75,2|0,2:2|0:0,0:0:0:0:
300,212,26747,2,0,L|308:296,1,75,2|0,1:2|0:0,0:0:0:0:
248,160,26962,1,2,3:2:0:0:
248,160,27069,1,2,2:2:0:0:
248,160,27176,6,0,P|212:152|176:164,1,75,2|0,2:2|0:0,0:0:0:0:
384,216,27390,1,2,3:2:0:0:
384,216,27497,1,2,2:2:0:0:
384,216,27604,2,0,P|409:189|418:152,1,75,2|0,1:2|0:0,0:0:0:0:
307,286,27819,2,0,P|308:322|329:354,1,75,2|0,2:2|0:0,0:0:0:0:
418,153,28033,6,0,B|418:69|362:117|362:13,1,150,6|2,3:2|2:2,0:0:0:0:
336,148,28355,1,2,2:2:0:0:
472,212,28462,2,0,P|496:169|497:142,1,75,2|0,1:2|0:0,0:0:0:0:
336,148,28676,2,0,P|344:196|361:217,1,75,2|2,3:2|2:2,0:0:0:0:
392,92,28890,6,0,L|256:160,1,150,2|2,2:2|2:2,0:0:0:0:
472,104,29212,1,2,2:2:0:0:
472,104,29319,2,0,P|468:60|444:32,1,75,0|2,1:1|2:2,0:0:0:0:
440,176,29533,2,0,P|483:183|516:167,1,75,2|0,2:2|0:0,0:0:0:0:
392,92,29747,6,0,L|400:248,1,150,0|2,3:3|2:2,0:0:0:0:
449,36,30069,1,0,0:0:0:0:
449,36,30176,2,0,P|416:16|380:12,1,75,2|0,1:2|0:0,0:0:0:0:
323,67,30390,2,0,P|356:87|392:91,1,75,0|0,3:3|0:0,0:0:0:0:
236,16,30605,6,0,L|244:92,1,75,6|0,2:2|0:0,0:0:0:0:
160,192,30819,2,0,L|168:116,1,75,10|2,2:2|2:2,0:0:0:0:
243,90,31033,2,0,L|251:166,1,75,10|2,1:2|2:2,0:0:0:0:
152,266,31247,2,0,L|160:190,1,75,2|0,2:2|0:0,0:0:0:0:
319,91,31462,6,0,P|355:83|391:91,1,75,2|0,3:2|0:0,0:0:0:0:
356,236,31676,2,0,L|356:156,1,75,2|0,2:2|0:0,0:0:0:0:
391,91,31890,2,0,P|427:83|463:91,1,75,2|0,1:2|0:0,0:0:0:0:
428,236,32104,2,0,L|428:156,1,75,0|0,3:3|0:0,0:0:0:0:
464,304,32319,6,0,P|427:312|391:304,1,75,2|0,2:2|0:0,0:0:0:0:
325,170,32533,1,2,2:2:0:0:
325,170,32640,2,0,P|347:200|355:236,1,75,2|0,2:2|1:1,0:0:0:0:
264,360,32855,1,2,2:2:0:0:
264,360,32962,2,0,P|280:326|310:304,1,75,2|0,2:2|0:0,0:0:0:0:
280,232,33176,6,0,L|204:236,1,75,0|2,3:3|2:2,0:0:0:0:
128,192,33390,2,0,L|52:196,1,75,2|0,2:2|0:0,0:0:0:0:
272,148,33605,2,0,L|196:152,1,75,2|0,1:2|0:0,0:0:0:0:
120,108,33819,2,0,L|44:112,1,75,2|0,3:2|0:0,0:0:0:0:
272,148,34033,6,0,P|316:144|344:128,1,75,2|0,2:2|0:0,0:0:0:0:
232,76,34247,2,0,P|209:37|183:19,1,75,10|2,3:2|2:2,0:0:0:0:
197,151,34462,2,0,P|171:187|166:219,1,75,8|0,1:2|0:0,0:0:0:0:
336,288,34676,2,0,P|361:251|366:219,1,75,2|0,2:2|0:0,0:0:0:0:
201,339,34890,6,0,B|281:339|245:287|337:287,1,150,2|0,3:2|0:0,0:0:0:0:
204,264,35212,1,0,0:0:0:0:
204,264,35319,2,0,P|150:279|136:298,1,75,2|0,1:2|0:0,0:0:0:0:
332,372,35533,2,0,P|385:356|399:337,1,75,2|0,3:2|0:0,0:0:0:0:
387,152,35747,6,0,B|387:232|335:196|335:288,1,150,2|2,2:2|2:2,0:0:0:0:
492,260,36069,1,2,2:2:0:0:
492,260,36176,2,0,L|416:276,1,75,2|0,1:2|0:0,0:0:0:0:
236,144,36390,2,0,L|312:160,1,75,2|0,2:2|0:0,0:0:0:0:
156,172,36605,6,0,P|152:124|164:96,1,75,2|0,3:2|0:0,0:0:0:0:
230,216,36819,2,0,L|306:232,1,75,2|0,2:2|0:0,0:0:0:0:
150,244,37034,2,0,P|146:196|158:168,1,75,2|0,1:2|0:0,0:0:0:0:
380,204,37247,2,0,P|384:252|372:280,1,75,2|0,3:2|0:0,0:0:0:0:
324,144,37462,6,0,L|396:120,1,75,2|0,2:2|0:0,0:0:0:0:
244,128,37676,1,10,2:2:0:0:
244,128,37783,2,0,L|187:77,1,75,2|8,2:2|1:2,0:0:0:0:
272,212,37997,1,0,0:0:0:0:
272,212,38104,2,0,L|256:286,1,75,2|0,2:2|0:0,0:0:0:0:
304,68,38319,5,2,3:2:0:0:
256,285,38747,5,2,1:2:0:0:
304,68,38962,1,0,3:3:0:0:
128,192,39176,6,0,L|52:180,1,75,2|0,2:2|0:0,0:0:0:0:
180,124,39390,1,2,2:2:0:0:
180,124,39497,2,0,L|104:112,1,75,2|2,2:2|1:2,0:0:0:0:
224,48,39712,1,2,2:2:0:0:
224,48,39819,2,0,L|148:36,1,75,2|0,2:2|0:0,0:0:0:0:
432,236,40033,5,8,2:3:0:0:
388,76,40354,1,4,2:3:0:0:
256,192,40675,1,10,2:2:0:0:
432,236,40890,5,6,2:2:0:0:
388,76,41104,1,6,2:2:0:0:
256,192,41318,1,10,2:2:0:0:
432,236,41533,1,8,2:2:0:0:
256,64,41747,6,0,L|164:64,1,89.9999972534181,6|0,3:2|0:0,0:0:0:0:
92,144,41962,2,0,L|182:144,1,89.9999972534181,10|2,2:2|2:2,0:0:0:0:
32,96,42176,6,0,P|12:152|32:196,1,104.999996795654,6|0,1:2|0:0,0:0:0:0:
136,300,42390,1,10,3:2:0:0:
48,208,42497,1,2,2:2:0:0:
160,324,42605,6,0,L|252:324,1,89.9999972534181,2|0,2:2|0:0,0:0:0:0:
336,208,42819,1,10,2:2:0:0:
264,308,42926,1,2,2:2:0:0:
346,192,43033,2,0,P|360:152|344:108,1,89.9999972534181,0|2,1:1|2:2,0:0:0:0:
256,192,43247,1,10,2:2:0:0:
416,228,43355,1,0,0:0:0:0:
384,48,43462,6,0,P|344:34|300:50,1,89.9999972534181,2|0,3:2|0:0,0:0:0:0:
240,104,43676,1,10,2:2:0:0:
180,160,43783,1,0,0:0:0:0:
347,275,43890,2,0,P|361:235|345:191,1,89.9999972534181,2|0,1:2|0:0,0:0:0:0:
180,160,44105,6,0,P|166:200|182:244,1,89.9999972534181,10|2,3:2|2:2,0:0:0:0:
347,275,44319,2,0,L|439:275,1,89.9999972534181,2|0,2:2|0:0,0:0:0:0:
488,212,44533,1,10,2:2:0:0:
488,212,44640,2,0,P|500:172|488:124,1,89.9999972534181,2|2,2:2|1:2,0:0:0:0:
346,105,44855,1,2,2:2:0:0:
346,105,44962,2,0,P|334:145|346:193,1,89.9999972534181,10|0,2:2|0:0,0:0:0:0:
472,40,45176,6,0,L|380:32,1,89.9999972534181,2|0,3:2|0:0,0:0:0:0:
224,8,45390,1,10,2:2:0:0:
360,28,45497,1,0,0:0:0:0:
172,0,45605,2,0,P|184:44|172:88,1,89.9999972534181,2|0,1:2|0:0,0:0:0:0:
64,212,45819,2,0,P|96:179|140:168,1,89.9999972534181,10|2,3:2|2:2,0:0:0:0:
304,204,46033,6,0,P|259:192|227:160,1,89.9999972534181,2|0,2:2|0:0,0:0:0:0:
393,238,46247,1,10,2:2:0:0:
393,238,46355,1,2,2:2:0:0:
393,238,46462,2,0,P|437:249|469:282,1,89.9999972534181,0|2,1:1|2:2,0:0:0:0:
234,277,46676,2,0,L|326:277,1,89.9999972534181,10|0,2:2|0:0,0:0:0:0:
483,238,46890,6,0,L|393:238,1,89.9999972534181,0|0,3:3|0:0,0:0:0:0:
236,192,47105,2,0,P|220:152|236:108,1,89.9999972534181,10|2,2:2|2:2,0:0:0:0:
391,155,47319,2,0,P|407:195|391:239,1,89.9999972534181,2|0,1:2|0:0,0:0:0:0:
349,94,47533,2,0,P|389:78|433:94,1,89.9999972534181,10|0,3:2|0:0,0:0:0:0:
275,256,47747,2,0,P|235:272|191:256,1,89.9999972534181,2|0,2:2|0:0,0:0:0:0:
392,236,47962,2,0,L|488:236,1,89.9999972534181,10|2,3:2|2:2,0:0:0:0:
236,192,48176,2,0,P|220:152|236:108,1,89.9999972534181,2|0,1:2|0:0,0:0:0:0:
433,12,48390,2,0,P|449:52|433:96,1,89.9999972534181,10|0,2:2|0:0,0:0:0:0:
325,195,48605,5,4,3:2:0:0:
325,195,48712,1,0,0:0:0:0:
325,195,48819,2,0,L|233:191,1,89.9999972534181,10|2,2:2|2:2,0:0:0:0:
144,113,49033,2,0,L|236:109,1,89.9999972534181,2|0,1:2|0:0,0:0:0:0:
344,40,49247,2,0,L|252:36,1,89.9999972534181,10|0,3:2|0:0,0:0:0:0:
402,84,49462,6,0,P|418:43|408:0,1,89.9999972534181,2|0,2:2|0:0,0:0:0:0:
477,127,49676,1,10,2:2:0:0:
477,127,49783,1,2,2:2:0:0:
477,127,49890,2,0,P|463:169|475:211,1,89.9999972534181,0|2,1:1|2:2,0:0:0:0:
508,288,50105,2,0,P|520:328|504:376,1,89.9999972534181,10|0,2:2|0:0,0:0:0:0:
312,320,50319,6,0,B|448:328|448:328|416:288,1,179.999994506836,0|10,3:3|2:2,0:0:0:0:
360,164,50640,1,2,2:2:0:0:
360,164,50747,2,0,P|344:204|356:248,1,89.9999972534181,2|0,1:2|0:0,0:0:0:0:
408,96,50962,2,0,P|368:80|324:92,1,89.9999972534181,10|0,3:2|0:0,0:0:0:0:
420,208,51176,2,0,L|516:204,1,89.9999972534181,2|0,2:2|0:0,0:0:0:0:
332,100,51390,1,10,2:2:0:0:
332,100,51497,1,6,2:2:0:0:
332,100,51605,2,0,L|242:103,1,89.9999972534181,0|2,1:1|2:2,0:0:0:0:
164,228,51819,2,0,L|254:225,1,89.9999972534181,10|0,2:2|0:0,0:0:0:0:
88,188,52033,6,0,B|60:260|120:300|120:300|68:300,1,179.999994506836,0|10,3:3|2:2,0:0:0:0:
164,228,52355,1,2,2:2:0:0:
164,228,52462,2,0,P|172:176|156:140,1,89.9999972534181,2|0,1:2|0:0,0:0:0:0:
92,24,52676,2,0,P|75:73|84:112,1,89.9999972534181,10|0,3:2|0:0,0:0:0:0:
3,201,52890,2,0,P|55:204|89:185,1,89.9999972534181,2|0,2:2|0:0,0:0:0:0:
240,60,53105,1,10,2:2:0:0:
240,60,53212,1,2,2:2:0:0:
240,60,53319,2,0,P|187:56|153:75,1,89.9999972534181,0|2,1:1|2:2,0:0:0:0:
216,220,53533,2,0,L|208:128,1,89.9999972534181,10|0,2:2|0:0,0:0:0:0:
196,304,53747,6,0,B|304:304|256:240|360:240,1,179.999994506836,0|10,3:3|2:2,0:0:0:0:
436,284,54069,1,2,2:2:0:0:
436,284,54176,2,0,L|424:184,1,89.9999972534181,2|0,1:2|0:0,0:0:0:0:
372,72,54390,2,0,L|360:172,1,89.9999972534181,10|0,3:2|0:0,0:0:0:0:
284,268,54605,2,0,L|272:168,1,89.9999972534181,2|0,2:2|0:0,0:0:0:0:
218,40,54819,2,0,L|206:140,1,89.9999972534181,10|2,3:2|2:2,0:0:0:0:
128,232,55033,2,0,L|116:132,1,89.9999972534181,2|2,1:2|2:2,0:0:0:0:
236,28,55247,5,0,1:1:0:0:
88,148,55355,1,0,1:1:0:0:
256,16,55462,6,0,B|392:16|392:16|352:48,1,179.999994506836,6|10,3:2|2:2,0:0:0:0:
284,112,55783,1,2,2:2:0:0:
284,112,55890,2,0,P|272:156|284:200,1,89.9999972534181,6|0,1:2|0:0,0:0:0:0:
428,200,56105,2,0,P|440:156|428:112,1,89.9999972534181,10|2,3:2|2:2,0:0:0:0:
388,260,56319,2,0,L|484:256,1,89.9999972534181,2|0,2:2|0:0,0:0:0:0:
304,328,56533,1,10,2:2:0:0:
304,328,56640,1,2,2:2:0:0:
304,328,56747,2,0,L|208:324,1,89.9999972534181,2|2,1:2|2:2,0:0:0:0:
88,192,56962,2,0,P|76:152|96:108,1,89.9999972534181,10|0,2:2|0:0,0:0:0:0:
310,245,57176,6,0,P|322:285|302:329,1,89.9999972534181,0|0,3:3|0:0,0:0:0:0:
256,160,57390,1,10,2:2:0:0:
256,160,57497,1,0,0:0:0:0:
256,160,57605,2,0,L|348:160,1,89.9999972534181,2|0,1:2|0:0,0:0:0:0:
248,282,57819,2,0,L|158:282,1,89.9999972534181,10|2,3:2|2:2,0:0:0:0:
310,245,58033,6,0,P|322:285|302:329,1,89.9999972534181,2|0,2:2|0:0,0:0:0:0:
164,160,58247,1,10,2:2:0:0:
164,160,58355,1,2,2:2:0:0:
164,160,58462,2,0,P|152:120|172:76,1,89.9999972534181,2|0,1:2|0:0,0:0:0:0:
339,77,58676,2,0,P|357:117|345:159,1,89.9999972534181,10|0,2:2|0:0,0:0:0:0:
200,276,58890,6,0,P|156:284|112:268,1,89.9999972534181,2|0,3:2|0:0,0:0:0:0:
164,160,59105,2,0,P|156:116|172:72,1,89.9999972534181,10|0,2:2|0:0,0:0:0:0:
288,120,59319,2,0,P|332:112|376:128,1,89.9999972534181,2|0,1:2|0:0,0:0:0:0:
320,236,59534,2,0,P|328:280|312:324,1,89.9999972534181,10|2,3:2|2:2,0:0:0:0:
169,244,59747,6,0,P|126:233|93:200,1,89.9999972534181,2|0,2:2|0:0,0:0:0:0:
186,124,59962,2,0,P|197:80|230:47,1,89.9999972534181,10|2,2:2|2:2,0:0:0:0:
315,140,60176,2,0,P|358:151|391:184,1,89.9999972534181,2|2,1:2|2:2,0:0:0:0:
295,258,60391,2,0,P|284:302|250:335,1,89.9999972534181,10|0,2:2|0:0,0:0:0:0:
186,124,60605,6,0,L|190:32,1,89.9999972534181,0|0,3:3|0:0,0:0:0:0:
232,184,60819,2,0,P|192:200|144:188,1,89.9999972534181,10|0,2:2|0:0,0:0:0:0:
270,117,61033,2,0,L|274:25,1,89.9999972534181,2|0,1:2|0:0,0:0:0:0:
316,177,61247,2,0,P|276:193|228:181,1,89.9999972534181,10|2,3:2|2:2,0:0:0:0:
364,240,61462,2,0,L|360:332,1,89.9999972534181,2|0,2:2|0:0,0:0:0:0:
316,177,61676,1,10,3:2:0:0:
440,208,61783,1,2,2:2:0:0:
284,292,61890,2,0,L|192:284,1,89.9999972534181,2|2,1:2|2:2,0:0:0:0:
364,240,62105,1,10,2:2:0:0:
256,376,62212,1,0,0:0:0:0:
176,192,62319,6,0,B|176:96|104:144|104:36,1,179.999994506836,6|8,3:2|2:2,0:0:0:0:
92,188,62640,1,0,0:0:0:0:
100,184,62747,2,0,L|4:176,1,89.9999972534181,0|0,1:1|0:0,0:0:0:0:
184,52,62962,2,0,L|273:59,1,89.9999972534181,10|2,3:2|2:2,0:0:0:0:
386,165,63176,6,0,P|398:209|386:253,1,89.9999972534181,2|0,2:2|0:0,0:0:0:0:
342,101,63390,2,0,P|386:89|430:101,1,89.9999972534181,10|2,2:2|2:2,0:0:0:0:
274,145,63605,2,0,P|262:101|274:57,1,89.9999972534181,2|0,1:2|0:0,0:0:0:0:
318,209,63819,2,0,P|274:221|230:209,1,89.9999972534181,10|0,2:2|0:0,0:0:0:0:
152,116,64033,6,0,B|104:92|60:128|28:124|8:68|52:48|80:72,1,179.999994506836,2|10,3:2|2:2,0:0:0:0:
112,192,64355,1,0,0:0:0:0:
104,204,64462,2,0,L|112:300,1,89.9999972534181,2|0,1:2|0:0,0:0:0:0:
256,116,64676,2,0,L|248:26,1,89.9999972534181,10|2,3:2|2:2,0:0:0:0:
301,269,64890,6,0,P|257:281|213:269,1,89.9999972534181,2|0,2:2|0:0,0:0:0:0:
365,225,65104,2,0,P|377:269|365:313,1,89.9999972534181,10|2,2:2|2:2,0:0:0:0:
321,157,65319,2,0,P|365:145|409:157,1,89.9999972534181,2|0,1:2|0:0,0:0:0:0:
257,201,65533,2,0,P|245:157|257:113,1,89.9999972534181,10|0,2:2|0:0,0:0:0:0:
366,310,65747,6,0,P|288:288|256:200,1,179.999994506836,2|10,3:2|2:2,0:0:0:0:
444,312,66069,1,0,0:0:0:0:
432,332,66176,2,0,L|356:380,1,89.9999972534181,2|0,1:2|0:0,0:0:0:0:
352,216,66390,2,0,L|428:168,1,89.9999972534181,10|2,3:2|2:2,0:0:0:0:
238,110,66605,6,0,P|226:66|238:22,1,89.9999972534181,2|0,2:2|0:0,0:0:0:0:
282,174,66819,2,0,P|238:186|194:174,1,89.9999972534181,10|2,2:2|2:2,0:0:0:0:
350,130,67034,2,0,P|362:174|350:218,1,89.9999972534181,2|0,1:2|0:0,0:0:0:0:
306,66,67248,2,0,P|350:54|394:66,1,89.9999972534181,10|0,2:2|0:0,0:0:0:0:
488,176,67462,5,0,3:3:0:0:
416,92,67569,1,0,0:0:0:0:
504,196,67676,2,0,L|492:288,1,89.9999972534181,10|0,2:2|0:0,0:0:0:0:
304,336,67890,5,2,1:2:0:0:
408,312,67997,1,0,0:0:0:0:
264,344,68105,2,0,L|172:348,1,89.9999972534181,10|2,3:2|2:2,0:0:0:0:
106,178,68319,2,0,L|195:174,1,89.9999972534181,2|0,2:2|0:0,0:0:0:0:
40,228,68533,2,0,P|24:168|32:144,1,89.9999972534181,10|2,3:2|2:2,0:0:0:0:
256,124,68747,2,0,P|272:184|264:208,1,89.9999972534181,2|0,1:2|0:0,0:0:0:0:
208,64,68962,2,0,P|268:48|292:56,1,89.9999972534181,2|0,1:2|1:1,0:0:0:0:
195,174,69176,5,6,3:2:0:0:
292,56,69390,1,2,2:2:0:0:
352,192,69605,1,2,2:2:0:0:
195,174,69819,5,4,3:2:0:0:
292,56,70033,1,2,3:2:0:0:
352,192,70248,1,2,2:2:0:0:
280,140,70462,1,0,3:3:0:0:
292,292,70890,5,4,2:2:0:0:
195,174,71104,1,2,3:2:0:0:
135,310,71319,1,2,3:2:0:0:
292,292,71533,5,4,2:2:0:0:
195,174,71747,1,2,3:2:0:0:
135,310,71962,1,2,2:2:0:0:
207,258,72176,1,0,3:3:0:0:
50,240,72605,5,4,3:2:0:0:
147,122,72819,1,2,2:2:0:0:
207,258,73034,1,2,2:2:0:0:
50,240,73248,5,4,3:2:0:0:
147,122,73462,1,2,3:2:0:0:
207,258,73677,1,2,2:2:0:0:
135,206,73891,1,0,3:3:0:0:
336,68,74319,6,0,L|416:72,1,75,12|4,2:2|2:3,0:0:0:0:
276,112,74533,2,0,L|196:108,1,75,4|8,2:3|2:3,0:0:0:0:
336,68,74747,2,0,P|348:132|288:184,1,150,4|4,2:3|2:2,0:0:0:0:
212,184,75069,5,4,2:3:0:0:
204,184,75123,1,4,2:3:0:0:
196,184,75176,2,0,L|121:180,1,75,4|4,2:3|2:3,0:0:0:0:
289,183,75390,2,0,L|363:179,1,75,4|4,2:3|2:3,0:0:0:0:
184,268,75605,5,4,2:3:0:0:
208,348,75712,1,4,2:3:0:0:
304,348,75819,1,4,2:3:0:0:
328,268,75926,1,4,2:3:0:0:
408,248,76033,6,0,P|472:300|472:188,1,240,2|2,2:2|2:2,0:0:0:0:
328,260,76676,1,2,2:2:0:0:
328,260,76783,1,0,0:0:0:0:
328,260,76890,6,0,L|328:384,1,120,2|2,2:2|2:2,0:0:0:0:
380,200,77212,2,0,P|320:176|272:200,1,120,2|0,2:2|0:0,0:0:0:0:
408,272,77533,1,2,2:2:0:0:
280,72,77962,5,6,3:3:0:0:
200,88,78070,1,4,3:3:0:0:
192,168,78177,1,6,3:3:0:0:
272,200,78284,1,4,3:3:0:0:
321,138,78391,1,6,3:3:0:0:
280,72,78497,1,4,3:3:0:0:
192,168,78605,6,0,L|60:164,1,120,6|0,3:3|0:0,0:0:0:0:
224,256,78926,2,0,L|92:252,1,120,6|0,3:3|0:0,0:0:0:0:
256,348,79247,2,0,L|192:345,1,60,6|0,3:3|0:0,0:0:0:0:
364,288,79462,5,2,3:2:0:0:
364,288,79890,5,2,3:2:0:0:
336,212,80105,5,2,2:2:0:0:
364,288,80213,1,2,2:2:0:0:
384,364,80320,1,2,3:2:0:0:
424,180,80533,5,2,2:2:0:0:
336,212,80747,1,2,3:2:0:0:
248,244,80962,1,2,2:2:0:0:
384,364,81176,6,0,L|448:360,1,60,2|2,3:2|2:2,0:0:0:0:
248,244,81605,6,0,L|312:240,1,60,2|2,3:2|2:2,0:0:0:0:
101,123,82033,6,0,L|220:116,1,120,2|0,3:2|0:0,0:0:0:0:
392,100,82355,5,10,2:2:0:0:
392,100,82462,1,2,3:2:0:0:
307,240,82676,1,14,2:2:0:0:
220,115,82890,5,2,3:2:0:0:
316,192,83212,5,2,2:2:0:0:
303,112,83320,1,2,3:2:0:0:
375,76,83427,1,2,2:2:0:0:
432,140,83534,1,2,2:2:0:0:
391,208,83641,1,2,2:2:0:0:
316,192,83747,6,0,L|184:188,1,120,2|2,3:2|2:2,0:0:0:0:
335,286,84068,2,0,L|203:282,1,120,2|2,2:2|2:2,0:0:0:0:
360,376,84389,2,0,L|296:373,1,60,2|0,2:2|0:0,0:0:0:0:
160,368,84605,5,2,3:2:0:0:
383,90,84819,5,2,2:2:0:0:
303,106,84927,1,2,2:2:0:0:
295,186,85034,1,2,3:2:0:0:
375,218,85141,1,2,2:2:0:0:
424,156,85248,1,2,2:2:0:0:
383,90,85354,1,2,2:2:0:0:
303,106,85462,1,2,3:2:0:0:
375,218,85676,6,0,L|439:218,1,60,2|2,2:2|2:2,0:0:0:0:
295,186,85890,2,0,L|227:186,1,60,6|0,3:2|0:0,0:0:0:0:
383,90,86105,1,2,2:2:0:0:
263,270,86319,5,2,3:2:0:0:
375,218,86747,5,2,3:2:0:0:
447,202,86855,1,2,2:2:0:0:
451,126,86962,1,2,2:2:0:0:
383,90,87069,1,2,2:2:0:0:
324,152,87176,6,0,L|192:148,1,120,2|2,3:2|2:2,0:0:0:0:
354,244,87497,2,0,L|222:240,1,120,2|2,2:2|2:2,0:0:0:0:
379,334,87818,2,0,L|315:331,1,60,2|0,2:2|0:0,0:0:0:0:
179,326,88034,5,4,3:2:0:0:
335,150,88247,1,2,2:2:0:0:
404,184,88355,1,0,0:0:0:0:
472,220,88462,1,2,3:2:0:0:
354,244,88676,1,2,2:2:0:0:
452,112,88890,5,2,3:2:0:0:
464,296,89212,1,0,3:3:0:0:
272,200,89533,1,2,3:2:0:0:
448,48,89747,6,0,P|496:80|476:180,1,168.750006437302,14|0,3:2|0:0,0:0:0:0:
288,184,90176,2,0,B|384:184|332:120|440:120,1,168.750006437302,10|0,2:2|0:0,0:0:0:0:
300,108,90605,1,10,1:2:0:0:
400,232,91033,1,8,2:2:0:0:
448,48,91462,6,0,L|399:149,1,112.500004291535,8|2,3:2|2:2,0:0:0:0:
488,129,91783,2,0,L|439:230,1,112.500004291535,0|0,3:3|0:0,0:0:0:0:
512,248,92105,2,0,L|487:298,1,56.2500021457673,0|0,3:3|0:0,0:0:0:0:
399,149,92319,6,0,B|303:149|355:213|247:213,1,168.750006437302,14|0,1:2|0:0,0:0:0:0:
179,165,92747,1,10,2:2:0:0:
267,297,92962,1,10,2:2:0:0:
267,297,93069,1,8,2:2:0:0:
267,297,93176,5,10,3:2:0:0:
323,89,93605,1,10,2:2:0:0:
99,145,94033,1,10,1:2:0:0:
267,297,94462,1,8,2:2:0:0:
323,89,94890,5,8,3:2:0:0:
99,145,95212,1,0,3:3:0:0:
267,297,95533,1,2,3:2:0:0:
235,181,95747,1,10,1:2:0:0:
175,345,96176,1,10,2:2:0:0:
332,308,96605,6,0,P|408:276|412:196,1,165.000005035401,10|10,3:2|2:2,0:0:0:0:
192,176,97247,1,2,2:2:0:0:
192,176,97462,2,0,B|280:176|244:232|344:232,1,165.000005035401,8|10,1:2|2:2,0:0:0:0:
352,64,98105,1,2,2:2:0:0:
352,64,98319,6,0,L|328:152,1,82.5000025177003,10|2,3:2|2:2,0:0:0:0:
432,80,98640,2,0,L|408:168,1,82.5000025177003,0|0,3:3|0:0,0:0:0:0:
512,92,98962,2,0,L|492:164,1,41.2500012588501,2|0,3:2|0:0,0:0:0:0:
468,260,99176,5,10,1:2:0:0:
352,64,99605,1,8,2:2:0:0:
512,92,99819,1,10,2:2:0:0:
512,92,99926,1,8,2:2:0:0:
512,92,100033,5,10,3:2:0:0:
312,236,100462,1,2,2:2:0:0:
248,20,100890,5,2,1:2:0:0:
360,120,101212,1,2,2:2:0:0:
200,160,101533,1,2,2:2:0:0:
388,24,101747,5,8,2:3:0:0:
344,184,102068,1,4,2:3:0:0:
212,68,102389,1,10,2:2:0:0:
388,24,102604,5,6,2:2:0:0:
344,184,102818,1,6,2:2:0:0:
212,68,103032,1,10,2:2:0:0:
388,24,103247,1,8,2:2:0:0:
208,192,103462,6,0,L|116:192,1,89.9999972534181,6|0,3:2|0:0,0:0:0:0:
60,112,103676,2,0,L|150:112,1,89.9999972534181,10|2,2:2|2:2,0:0:0:0:
208,192,103890,6,0,B|192:236|208:276|208:276|172:268,1,104.999996795654,6|0,1:2|0:0,0:0:0:0:
112,300,104105,1,10,3:2:0:0:
292,232,104212,1,2,2:2:0:0:
92,308,104319,6,0,L|0:308,1,89.9999972534181,2|0,2:2|0:0,0:0:0:0:
28,192,104533,2,0,L|118:192,1,89.9999972534181,10|2,2:2|2:2,0:0:0:0:
160,264,104747,2,0,P|172:316|156:352,1,89.9999972534181,0|2,1:1|2:2,0:0:0:0:
264,256,104962,1,10,2:2:0:0:
132,368,105069,1,0,0:0:0:0:
292,240,105176,6,0,P|280:188|296:152,1,89.9999972534181,2|0,3:2|0:0,0:0:0:0:
428,84,105390,1,10,2:2:0:0:
428,84,105497,1,0,0:0:0:0:
428,84,105605,2,0,P|442:126|429:168,1,89.9999972534181,2|0,1:2|0:0,0:0:0:0:
340,296,105819,1,10,3:2:0:0:
412,196,105926,1,2,2:2:0:0:
328,316,106033,6,0,P|284:328|240:316,1,89.9999972534181,2|0,2:2|0:0,0:0:0:0:
276,160,106247,1,10,2:2:0:0:
284,168,106355,1,2,2:2:0:0:
284,168,106462,2,0,P|296:212|284:256,1,89.9999972534181,2|2,1:2|2:2,0:0:0:0:
128,208,106676,2,0,L|220:212,1,89.9999972534181,10|0,2:2|0:0,0:0:0:0:
373,164,106890,6,0,L|281:168,1,89.9999972534181,2|0,3:2|0:0,0:0:0:0:
428,104,107105,1,10,2:2:0:0:
384,244,107212,1,0,0:0:0:0:
283,167,107319,2,0,P|271:123|283:79,1,89.9999972534181,2|0,1:2|0:0,0:0:0:0:
373,164,107533,1,10,3:2:0:0:
176,132,107640,1,2,2:2:0:0:
392,172,107747,6,0,L|488:164,1,89.9999972534181,2|0,2:2|0:0,0:0:0:0:
348,256,107962,1,10,2:2:0:0:
348,256,108069,1,2,2:2:0:0:
348,256,108176,2,0,L|258:263,1,89.9999972534181,0|2,1:1|2:2,0:0:0:0:
283,167,108390,1,10,2:2:0:0:
316,352,108497,1,0,0:0:0:0:
280,156,108605,6,0,L|284:64,1,89.9999972534181,0|0,3:3|0:0,0:0:0:0:
384,72,108819,2,0,L|380:161,1,89.9999972534181,10|2,2:2|2:2,0:0:0:0:
316,248,109033,2,0,P|276:256|228:240,1,89.9999972534181,2|0,1:2|0:0,0:0:0:0:
280,156,109247,2,0,P|272:116|288:68,1,89.9999972534181,10|0,3:2|0:0,0:0:0:0:
384,128,109462,6,0,P|424:120|472:136,1,89.9999972534181,2|0,2:2|0:0,0:0:0:0:
420,220,109676,2,0,P|428:260|412:308,1,89.9999972534181,10|2,3:2|2:2,0:0:0:0:
316,248,109890,1,2,1:2:0:0:
508,224,109997,1,0,0:0:0:0:
296,248,110105,2,0,L|204:244,1,89.9999972534181,10|0,2:2|0:0,0:0:0:0:
108,144,110319,5,4,3:2:0:0:
108,144,110426,1,0,0:0:0:0:
108,144,110533,2,0,P|96:104|116:56,1,89.9999972534181,10|2,2:2|2:2,0:0:0:0:
324,56,110747,2,0,P|336:96|316:144,1,89.9999972534181,2|0,1:2|0:0,0:0:0:0:
172,104,110962,2,0,L|268:96,1,89.9999972534181,10|0,3:2|0:0,0:0:0:0:
480,203,111176,6,0,B|388:203|428:139|320:139,1,179.999994506836,2|10,2:2|2:2,0:0:0:0:
460,36,111497,1,2,2:2:0:0:
460,36,111605,2,0,L|468:132,1,89.9999972534181,0|2,1:1|2:2,0:0:0:0:
388,156,111819,2,0,L|380:60,1,89.9999972534181,10|0,2:2|0:0,0:0:0:0:
480,203,112033,6,0,B|456:263|492:327|492:327|464:320|436:327,1,179.999994506836,0|10,3:3|2:2,0:0:0:0:
348,356,112355,1,2,2:2:0:0:
348,356,112462,2,0,L|256:356,1,89.9999972534181,2|0,1:2|0:0,0:0:0:0:
212,268,112676,2,0,L|302:268,1,89.9999972534181,10|0,3:2|0:0,0:0:0:0:
160,340,112890,6,0,P|124:264|176:188,1,179.999994506836,2|10,2:2|2:2,0:0:0:0:
212,268,113212,1,6,2:2:0:0:
56,188,113319,2,0,L|56:92,1,89.9999972534181,0|2,1:1|2:2,0:0:0:0:
172,99,113533,2,0,L|172:189,1,89.9999972534181,10|0,2:2|0:0,0:0:0:0:
156,20,113747,6,0,B|260:20|212:84|316:84,1,179.999994506836,0|10,3:3|2:2,0:0:0:0:
408,44,114069,1,2,2:2:0:0:
408,44,114176,2,0,P|420:84|404:136,1,89.9999972534181,2|0,1:2|0:0,0:0:0:0:
336,260,114390,2,0,P|324:220|340:168,1,89.9999972534181,10|0,3:2|0:0,0:0:0:0:
352,348,114605,6,0,B|248:348|296:284|192:284,1,179.999994506836,2|10,2:2|2:2,0:0:0:0:
116,332,114926,1,2,2:2:0:0:
116,332,115033,2,0,L|24:328,1,89.9999972534181,0|2,1:1|2:2,0:0:0:0:
28,220,115247,2,0,L|117:223,1,89.9999972534181,10|0,2:2|0:0,0:0:0:0:
233,195,115462,6,0,P|245:151|233:107,1,89.9999972534181,0|2,3:3|2:2,0:0:0:0:
161,151,115676,2,0,P|117:139|73:151,1,89.9999972534181,14|2,2:2|2:2,0:0:0:0:
117,223,115890,2,0,P|105:267|117:311,1,89.9999972534181,2|0,1:2|0:0,0:0:0:0:
189,267,116105,2,0,P|233:279|277:267,1,89.9999972534181,10|0,3:2|0:0,0:0:0:0:
233,195,116319,6,0,P|255:155|255:109,1,89.9999972534181,2|0,2:2|0:0,0:0:0:0:
174,133,116533,2,0,P|134:110|88:110,1,89.9999972534181,10|2,3:2|2:2,0:0:0:0:
113,192,116747,2,0,P|90:231|90:277,1,89.9999972534181,2|2,1:2|2:2,0:0:0:0:
228,320,116962,1,0,1:1:0:0:
52,264,117069,1,0,1:1:0:0:
268,336,117176,6,0,B|400:336|400:336|364:304,1,179.999994506836,6|10,3:2|2:2,0:0:0:0:
288,232,117497,1,2,2:2:0:0:
288,232,117605,2,0,P|280:192|292:144,1,89.9999972534181,6|0,1:2|0:0,0:0:0:0:
400,144,117819,2,0,P|408:184|396:232,1,89.9999972534181,10|2,3:2|2:2,0:0:0:0:
212,276,118033,2,0,L|120:276,1,89.9999972534181,2|0,2:2|0:0,0:0:0:0:
44,136,118247,1,10,2:2:0:0:
44,136,118355,1,2,2:2:0:0:
44,136,118462,2,0,L|134:136,1,89.9999972534181,2|2,1:2|2:2,0:0:0:0:
232,88,118676,2,0,P|244:48|232:0,1,89.9999972534181,10|0,2:2|0:0,0:0:0:0:
134,136,118890,6,0,P|122:176|134:224,1,89.9999972534181,0|0,3:3|0:0,0:0:0:0:
324,276,119105,1,10,2:2:0:0:
324,276,119212,1,0,0:0:0:0:
324,276,119319,2,0,P|336:236|324:188,1,89.9999972534181,2|0,1:2|0:0,0:0:0:0:
288,360,119533,2,0,L|380:352,1,89.9999972534181,10|2,3:2|2:2,0:0:0:0:
414,182,119747,2,0,L|324:189,1,89.9999972534181,2|0,2:2|0:0,0:0:0:0:
488,228,119962,1,10,2:2:0:0:
488,228,120069,1,2,2:2:0:0:
488,228,120176,2,0,P|496:176|480:136,1,89.9999972534181,2|0,1:2|0:0,0:0:0:0:
325,190,120390,2,0,P|317:242|333:282,1,89.9999972534181,10|0,2:2|0:0,0:0:0:0:
400,80,120605,6,0,L|308:88,1,89.9999972534181,2|0,3:2|0:0,0:0:0:0:
164,24,120819,2,0,L|256:32,1,89.9999972534181,10|0,2:2|0:0,0:0:0:0:
414,182,121033,6,0,L|322:190,1,89.9999972534181,2|0,1:2|0:0,0:0:0:0:
152,100,121247,2,0,L|244:108,1,89.9999972534181,10|2,3:2|2:2,0:0:0:0:
408,272,121462,6,0,L|316:280,1,89.9999972534181,2|0,2:2|0:0,0:0:0:0:
144,180,121676,2,0,L|236:188,1,89.9999972534181,10|2,2:2|2:2,0:0:0:0:
412,360,121890,6,0,L|320:368,1,89.9999972534181,2|2,1:2|2:2,0:0:0:0:
144,256,122104,2,0,L|236:264,1,89.9999972534181,10|0,2:2|0:0,0:0:0:0:
80,296,122319,6,0,P|68:240|88:204,1,89.9999972534181,0|0,3:3|0:0,0:0:0:0:
234,179,122533,2,0,P|246:235|226:271,1,89.9999972534181,10|0,2:2|0:0,0:0:0:0:
80,212,122747,2,0,P|68:156|88:120,1,89.9999972534181,2|0,1:2|0:0,0:0:0:0:
234,95,122961,2,0,P|246:151|226:187,1,89.9999972534181,10|2,3:2|2:2,0:0:0:0:
192,36,123176,6,0,L|292:40,1,89.9999972534181,2|0,2:2|0:0,0:0:0:0:
448,88,123390,2,0,L|348:92,1,89.9999972534181,10|2,3:2|2:2,0:0:0:0:
156,136,123605,2,0,L|256:140,1,89.9999972534181,2|2,1:2|2:2,0:0:0:0:
440,196,123819,2,0,L|340:200,1,89.9999972534181,10|0,2:2|0:0,0:0:0:0:
191,267,124033,6,0,B|295:267|251:199|351:199,1,179.999994506836,6|8,3:2|2:2,0:0:0:0:
356,372,124355,1,0,0:0:0:0:
356,372,124462,2,0,L|340:284,1,89.9999972534181,0|0,1:1|0:0,0:0:0:0:
228,92,124676,2,0,L|212:180,1,89.9999972534181,10|2,3:2|2:2,0:0:0:0:
191,292,124890,6,0,P|147:304|103:292,1,89.9999972534181,2|0,2:2|0:0,0:0:0:0:
255,248,125104,2,0,P|267:292|255:336,1,89.9999972534181,10|2,2:2|2:2,0:0:0:0:
211,180,125319,2,0,P|255:168|299:180,1,89.9999972534181,2|0,1:2|0:0,0:0:0:0:
147,224,125533,2,0,P|135:180|147:136,1,89.9999972534181,10|0,2:2|0:0,0:0:0:0:
256,24,125747,6,0,B|376:24|376:24|332:68,1,179.999994506836,2|10,3:2|2:2,0:0:0:0:
235,138,126069,1,0,0:0:0:0:
235,138,126176,2,0,L|143:138,1,89.9999972534181,2|0,1:2|0:0,0:0:0:0:
166,24,126390,2,0,L|256:24,1,89.9999972534181,10|2,3:2|2:2,0:0:0:0:
369,129,126605,6,0,P|381:173|369:217,1,89.9999972534181,2|0,2:2|0:0,0:0:0:0:
325,65,126819,2,0,P|369:53|413:65,1,89.9999972534181,10|2,2:2|2:2,0:0:0:0:
257,109,127034,2,0,P|245:65|257:21,1,89.9999972534181,2|0,1:2|0:0,0:0:0:0:
301,173,127248,2,0,P|257:185|213:173,1,89.9999972534181,10|0,2:2|0:0,0:0:0:0:
410,63,127462,6,0,B|458:39|502:75|534:71|554:15|510:-5|482:19,1,179.999994506836,2|10,3:2|2:2,0:0:0:0:
369,129,127783,1,0,0:0:0:0:
369,129,127890,2,0,L|373:229,1,89.9999972534181,2|0,1:2|0:0,0:0:0:0:
500,280,128105,2,0,L|496:190,1,89.9999972534181,10|2,3:2|2:2,0:0:0:0:
304,262,128319,6,0,P|274:227|266:182,1,89.9999972534181,2|0,2:2|0:0,0:0:0:0:
370,301,128533,2,0,P|335:330|290:338,1,89.9999972534181,10|2,2:2|2:2,0:0:0:0:
413,232,128748,2,0,P|442:266|450:311,1,89.9999972534181,2|0,1:2|0:0,0:0:0:0:
347,193,128962,2,0,P|381:163|426:155,1,89.9999972534181,10|0,2:2|0:0,0:0:0:0:
304,262,129176,5,0,3:3:0:0:
368,88,129283,1,0,0:0:0:0:
292,288,129390,2,0,L|196:284,1,89.9999972534181,10|0,2:2|0:0,0:0:0:0:
96,192,129605,5,2,1:2:0:0:
180,316,129712,1,0,0:0:0:0:
80,168,129819,2,0,L|96:80,1,89.9999972534181,10|2,3:2|2:2,0:0:0:0:
272,104,130033,2,0,L|256:192,1,89.9999972534181,2|0,2:2|0:0,0:0:0:0:
248,28,130247,2,0,P|300:28|336:56,1,89.9999972534181,10|2,3:2|2:2,0:0:0:0:
436,152,130462,6,0,P|384:152|348:124,1,89.9999972534181,2|0,1:2|0:0,0:0:0:0:
412,80,130676,1,2,1:2:0:0:
368,228,130783,1,0,1:1:0:0:
424,48,130890,5,6,3:2:0:0:
280,172,131105,1,2,2:2:0:0:
240,0,131319,1,2,2:2:0:0:
424,48,131533,5,4,3:2:0:0:
280,172,131748,1,2,3:2:0:0:
240,0,131962,1,2,2:2:0:0:
312,72,132176,1,0,3:3:0:0:
404,316,132605,5,4,2:2:0:0:
280,172,132820,1,2,3:2:0:0:
452,132,133034,1,2,3:2:0:0:
404,316,133248,5,4,2:2:0:0:
280,172,133463,1,2,3:2:0:0:
452,132,133677,1,2,2:2:0:0:
380,204,133891,1,0,3:3:0:0:
136,48,134319,5,4,3:2:0:0:
280,172,134534,1,2,2:2:0:0:
320,0,134748,1,2,2:2:0:0:
136,48,134962,5,4,3:2:0:0:
280,172,135177,1,2,3:2:0:0:
320,0,135391,1,2,2:2:0:0:
248,72,135605,1,0,3:3:0:0:
156,316,136034,5,4,2:2:0:0:
280,172,136247,1,2,3:2:0:0:
108,132,136462,1,2,3:2:0:0:
156,316,136676,5,4,2:2:0:0:
280,172,136890,1,2,3:2:0:0:
108,132,137106,1,2,2:2:0:0:
180,204,137320,1,0,3:3:0:0:
197,121,137747,6,0,P|210:281|115:152,1,432.692307692308,0|0,3:3|0:0,0:0:0:0:
180,204,139462,6,0,B|360:204|264:344|488:344,1,346.153846153846,6|2,2:2|2:2,0:0:0:0:
432,116,141176,6,0,P|376:176|488:252,1,243.75,2|0,2:2|0:0,0:0:0:0:
448,188,142676,1,2,2:2:0:0:
324,272,142890,6,0,L|276:268,1,37.5,6|2,2:2|2:2,0:0:0:0:
216,232,143319,2,0,L|168:228,1,37.5,2|2,2:2|2:2,0:0:0:0:
116,184,143747,1,2,2:2:0:0:
116,184,143962,2,0,P|112:148|120:108,1,75,2|4,2:2|2:3,0:0:0:0:
256,48,144605,6,0,B|284:0|396:8|375:60|356:116|480:120|504:64,1,281.25,4|0,2:3|0:0,0:0:0:0:
444,24,146319,6,0,P|368:104|488:168,1,281.25,6|0,2:2|0:0,0:0:0:0:
448,104,148033,6,0,P|368:96|344:256,1,281.25,6|0,2:3|0:0,0:0:0:0:
372,348,149747,6,0,B|236:348|284:248|140:248,1,262.5,6|4,2:2|2:3,0:0:0:0:
101,314,151462,6,0,B|52:288|52:216|97:186|97:186|180:128|180:28|112:-12|40:-8|-4:64|20:128|72:152,1,525,6|0,2:3|0:0,0:0:0:0:
208,320,154890,6,0,B|312:320|288:248|399:248,1,209.999993591309,2|0,2:2|0:0,0:0:0:0:
480,308,156176,1,2,2:2:0:0:
128,336,156605,6,0,B|184:192|184:192|80:120|80:120|216:120|216:120|256:0|256:0|288:120|288:120|424:120|424:120|320:192|320:192|376:336|376:336|256:240|256:240|144:320,1,1350,6|2,2:2|2:2,0:0:0:0:
198,133,164747,6,0,L|160:133,1,37.5,6|0,2:2|0:0,0:0:0:0:
199,47,165176,6,0,P|187:91|199:135,1,89.9999972534181,6|0,3:2|0:0,0:0:0:0:
348,92,165390,1,10,2:2:0:0:
264,92,165497,1,2,2:2:0:0:
420,140,165605,6,0,P|434:80|416:36,1,104.999996795654,6|0,1:2|0:0,0:0:0:0:
352,176,165819,1,10,3:2:0:0:
352,176,165926,1,2,2:2:0:0:
352,176,166033,6,0,L|360:268,1,89.9999972534181,2|0,2:2|0:0,0:0:0:0:
256,336,166247,1,10,2:2:0:0:
256,336,166355,1,2,2:2:0:0:
256,336,166462,6,0,L|248:246,1,89.9999972534181,0|2,1:1|2:2,0:0:0:0:
359,265,166676,1,10,2:2:0:0:
172,232,166783,1,0,0:0:0:0:
376,272,166890,6,0,P|424:280|464:268,1,89.9999972534181,2|0,3:2|0:0,0:0:0:0:
352,176,167105,2,0,P|338:129|311:97,1,89.9999972534181,10|0,2:2|0:0,0:0:0:0:
280,244,167319,2,0,P|243:275|226:313,1,89.9999972534181,2|0,1:2|0:0,0:0:0:0:
376,272,167533,1,10,3:2:0:0:
272,228,167640,1,2,2:2:0:0:
408,288,167747,2,0,L|504:284,1,89.9999972534181,2|0,2:2|0:0,0:0:0:0:
402,94,167962,1,10,2:2:0:0:
402,94,168069,1,2,2:2:0:0:
402,94,168176,6,0,L|312:97,1,89.9999972534181,2|2,1:2|2:2,0:0:0:0:
472,132,168390,2,0,P|480:72|460:40,1,89.9999972534181,10|0,2:2|0:0,0:0:0:0:
403,203,168605,6,0,P|395:263|415:295,1,89.9999972534181,2|0,3:2|0:0,0:0:0:0:
484,368,168819,1,10,2:2:0:0:
484,368,168926,1,0,0:0:0:0:
484,368,169033,2,0,L|392:360,1,89.9999972534181,2|0,1:2|0:0,0:0:0:0:
240,316,169247,2,0,L|332:308,1,89.9999972534181,10|2,3:2|2:2,0:0:0:0:
403,203,169462,6,0,P|412:160|400:116,1,89.9999972534181,2|0,2:2|0:0,0:0:0:0:
208,68,169676,1,10,2:2:0:0:
208,68,169783,1,2,2:2:0:0:
208,68,169890,2,0,P|199:111|211:155,1,89.9999972534181,0|2,1:1|2:2,0:0:0:0:
313,206,170105,2,0,L|405:202,1,89.9999972534181,10|0,2:2|0:0,0:0:0:0:
210,154,170319,6,0,L|120:157,1,89.9999972534181,0|0,3:3|0:0,0:0:0:0:
40,228,170533,1,10,2:2:0:0:
40,228,170640,1,0,0:0:0:0:
44,232,170747,2,0,P|32:276|44:320,1,89.9999972534181,2|0,1:2|0:0,0:0:0:0:
200,232,170962,1,10,3:2:0:0:
208,239,171069,1,0,0:0:0:0:
208,239,171176,2,0,P|220:195|208:151,1,89.9999972534181,2|0,2:2|0:0,0:0:0:0:
164,316,171390,2,0,P|208:328|252:316,1,89.9999972534181,10|2,3:2|2:2,0:0:0:0:
380,240,171605,2,0,P|336:228|292:240,1,89.9999972534181,2|0,1:2|0:0,0:0:0:0:
448,296,171819,2,0,L|464:200,1,89.9999972534181,10|0,2:2|0:0,0:0:0:0:
376,60,172033,6,0,L|392:156,1,89.9999972534181,4|0,3:2|0:0,0:0:0:0:
294,238,172247,1,10,2:2:0:0:
294,238,172355,1,2,2:2:0:0:
294,238,172462,2,0,L|310:142,1,89.9999972534181,2|0,1:2|0:0,0:0:0:0:
204,96,172676,2,0,L|220:192,1,89.9999972534181,10|0,3:2|0:0,0:0:0:0:
256,36,172890,6,0,P|164:24|124:100,1,179.999994506836,2|10,2:2|2:2,0:0:0:0:
304,100,173212,1,2,2:2:0:0:
304,100,173319,2,0,P|330:65|330:20,1,89.9999972534181,0|2,1:1|2:2,0:0:0:0:
52,80,173533,2,0,P|57:122|89:155,1,89.9999972534181,10|0,2:2|0:0,0:0:0:0:
304,100,173747,6,0,B|404:100|356:164|464:164,1,179.999994506836,0|10,3:3|2:2,0:0:0:0:
456,0,174069,1,2,2:2:0:0:
456,0,174176,2,0,L|448:104,1,89.9999972534181,2|0,1:2|0:0,0:0:0:0:
324,272,174390,2,0,L|316:168,1,89.9999972534181,10|0,3:2|0:0,0:0:0:0:
392,308,174605,6,0,P|304:348|248:300,1,179.999994506836,2|10,2:2|2:2,0:0:0:0:
440,248,174926,1,6,2:2:0:0:
440,248,175033,2,0,P|468:304|456:344,1,89.9999972534181,0|2,1:1|2:2,0:0:0:0:
172,300,175247,2,0,P|196:242|235:226,1,89.9999972534181,10|0,2:2|0:0,0:0:0:0:
440,248,175462,6,0,B|484:184|436:120|436:120|500:120,1,179.999994506836,0|10,3:3|2:2,0:0:0:0:
368,184,175783,1,2,2:2:0:0:
368,184,175890,2,0,L|276:172,1,89.9999972534181,2|0,1:2|0:0,0:0:0:0:
304,24,176105,2,0,L|393:35,1,89.9999972534181,10|0,3:2|0:0,0:0:0:0:
176,156,176319,6,0,B|48:156|48:156|80:116,1,179.999994506836,2|10,2:2|2:2,0:0:0:0:
304,24,176640,1,2,2:2:0:0:
304,24,176747,2,0,P|312:68|296:112,1,89.9999972534181,0|2,1:1|2:2,0:0:0:0:
169,241,176962,2,0,P|161:197|177:153,1,89.9999972534181,10|0,2:2|0:0,0:0:0:0:
236,288,177176,6,0,P|279:299|312:332,1,89.9999972534181,0|2,3:3|2:2,0:0:0:0:
160,328,177390,2,0,P|131:362|87:378,1,89.9999972534181,14|2,2:2|2:2,0:0:0:0:
169,241,177605,6,0,P|161:197|177:153,1,89.9999972534181,2|0,1:2|0:0,0:0:0:0:
404,104,177819,2,0,P|412:148|396:192,1,89.9999972534181,10|0,3:2|0:0,0:0:0:0:
248,132,178033,2,0,L|344:144,1,89.9999972534181,2|0,2:2|0:0,0:0:0:0:
486,178,178247,2,0,L|390:190,1,89.9999972534181,10|2,3:2|2:2,0:0:0:0:
248,56,178462,2,0,L|344:68,1,89.9999972534181,2|2,1:2|2:2,0:0:0:0:
124,100,178676,5,0,1:1:0:0:
272,28,178783,1,0,1:1:0:0:
88,120,178890,6,0,B|88:256|88:256|124:232,1,179.999994506836,6|10,3:2|2:2,0:0:0:0:
232,152,179212,1,2,2:2:0:0:
232,152,179319,2,0,P|272:136|320:152,1,89.9999972534181,6|0,1:2|0:0,0:0:0:0:
460,200,179533,2,0,P|420:216|372:200,1,89.9999972534181,10|2,3:2|2:2,0:0:0:0:
404,52,179747,6,0,L|416:144,1,89.9999972534181,2|0,2:2|0:0,0:0:0:0:
388,292,179962,1,10,2:2:0:0:
388,292,180069,1,2,2:2:0:0:
388,292,180176,2,0,L|376:202,1,89.9999972534181,2|2,1:2|2:2,0:0:0:0:
432,352,180390,2,0,P|380:368|340:352,1,89.9999972534181,10|0,2:2|0:0,0:0:0:0:
216,288,180605,6,0,P|268:272|308:288,1,89.9999972534181,0|0,3:3|0:0,0:0:0:0:
140,344,180819,2,0,L|132:252,1,89.9999972534181,10|0,2:2|0:0,0:0:0:0:
184,100,181033,2,0,L|191:189,1,89.9999972534181,2|0,1:2|0:0,0:0:0:0:
136,40,181247,2,0,P|188:24|228:40,1,89.9999972534181,10|2,3:2|2:2,0:0:0:0:
356,100,181462,6,0,P|304:116|264:100,1,89.9999972534181,2|0,2:2|0:0,0:0:0:0:
412,40,181676,1,10,2:2:0:0:
380,184,181783,1,2,2:2:0:0:
420,4,181890,2,0,L|512:12,1,89.9999972534181,2|0,1:2|0:0,0:0:0:0:
469,191,182105,2,0,L|379:183,1,89.9999972534181,10|0,2:2|0:0,0:0:0:0:
256,68,182319,6,0,P|224:32|176:16,1,89.9999972534181,2|0,3:2|0:0,0:0:0:0:
176,192,182533,2,0,P|140:224|124:272,1,89.9999972534181,10|0,2:2|0:0,0:0:0:0:
304,252,182747,2,0,P|336:288|384:304,1,89.9999972534181,2|0,1:2|0:0,0:0:0:0:
384,128,182961,2,0,P|420:96|436:48,1,89.9999972534181,10|2,3:2|2:2,0:0:0:0:
203,79,183176,6,0,P|159:60|109:66,1,89.9999972534181,2|0,2:2|0:0,0:0:0:0:
183,225,183390,2,0,P|164:270|170:320,1,89.9999972534181,10|2,2:2|2:2,0:0:0:0:
324,226,183604,2,0,P|369:245|419:239,1,89.9999972534181,2|2,1:2|2:2,0:0:0:0:
344,79,183818,2,0,P|364:35|358:-14,1,89.9999972534181,10|0,2:2|0:0,0:0:0:0:
169,146,184033,6,0,L|173:238,1,89.9999972534181,0|0,3:3|0:0,0:0:0:0:
222,83,184247,1,10,2:2:0:0:
90,115,184355,1,0,0:0:0:0:
254,75,184462,2,0,L|346:79,1,89.9999972534181,2|0,1:2|0:0,0:0:0:0:
436,192,184676,1,10,3:2:0:0:
436,192,184783,1,2,2:2:0:0:
436,192,184890,6,0,L|346:188,1,89.9999972534181,2|0,2:2|0:0,0:0:0:0:
424,104,185105,1,10,3:2:0:0:
408,276,185212,1,2,2:2:0:0:
428,84,185319,2,0,P|440:44|424:0,1,89.9999972534181,2|2,1:2|2:2,0:0:0:0:
284,152,185533,2,0,P|272:192|288:236,1,89.9999972534181,10|0,2:2|0:0,0:0:0:0:
340,48,185747,6,0,B|276:16|216:56|216:56|216:4,1,179.999994506836,6|8,3:2|2:2,0:0:0:0:
284,152,186069,1,0,0:0:0:0:
284,152,186176,2,0,L|292:252,1,89.9999972534181,0|0,1:1|0:0,0:0:0:0:
136,188,186390,2,0,L|128:98,1,89.9999972534181,10|2,3:2|2:2,0:0:0:0:
180,256,186605,6,0,P|136:268|92:256,1,89.9999972534181,2|0,2:2|0:0,0:0:0:0:
244,212,186819,2,0,P|256:256|244:300,1,89.9999972534181,14|2,2:2|2:2,0:0:0:0:
200,144,187034,2,0,P|244:132|288:144,1,89.9999972534181,2|0,1:2|0:0,0:0:0:0:
136,188,187248,2,0,P|124:144|136:100,1,89.9999972534181,10|0,2:2|0:0,0:0:0:0:
288,240,187462,6,0,B|384:240|340:160|440:160,1,179.999994506836,2|10,3:2|2:2,0:0:0:0:
285,142,187783,1,0,0:0:0:0:
285,142,187890,2,0,L|296:40,1,89.9999972534181,2|0,1:2|0:0,0:0:0:0:
432,240,188105,2,0,L|422:329,1,89.9999972534181,10|2,3:2|2:2,0:0:0:0:
386,86,188319,6,0,P|430:74|474:86,1,89.9999972534181,2|0,2:2|0:0,0:0:0:0:
322,130,188533,2,0,P|310:86|322:42,1,89.9999972534181,14|2,2:2|2:2,0:0:0:0:
366,198,188748,2,0,P|322:210|278:198,1,89.9999972534181,2|0,1:2|0:0,0:0:0:0:
430,154,188962,2,0,P|442:198|430:242,1,89.9999972534181,10|0,2:2|0:0,0:0:0:0:
248,328,189176,6,0,B|112:328|112:328|148:296,1,179.999994506836,2|10,3:2|2:2,0:0:0:0:
308,284,189497,1,0,0:0:0:0:
308,284,189605,2,0,P|324:320|312:368,1,89.9999972534181,2|0,1:2|0:0,0:0:0:0:
212,248,189819,2,0,L|216:148,1,89.9999972534181,10|2,3:2|2:2,0:0:0:0:
235,46,190033,6,0,P|279:34|323:46,1,89.9999972534181,2|0,2:2|0:0,0:0:0:0:
171,90,190247,2,0,P|159:46|171:2,1,89.9999972534181,14|2,2:2|2:2,0:0:0:0:
215,158,190462,2,0,P|171:170|127:158,1,89.9999972534181,2|0,1:2|0:0,0:0:0:0:
279,114,190676,2,0,P|291:158|279:202,1,89.9999972534181,10|0,2:2|0:0,0:0:0:0:
160,352,190890,5,0,3:3:0:0:
260,224,190997,1,0,0:0:0:0:
140,376,191105,2,0,L|44:368,1,89.9999972534181,10|0,2:2|0:0,0:0:0:0:
8,172,191319,5,2,1:2:0:0:
40,336,191426,1,0,0:0:0:0:
4,136,191533,2,0,P|-4:96|8:48,1,89.9999972534181,10|2,3:2|2:2,0:0:0:0:
185,36,191747,5,2,2:2:0:0:
237,108,191855,1,0,0:0:0:0:
181,180,191962,1,10,3:2:0:0:
100,144,192069,1,2,2:2:0:0:
97,56,192176,2,0,L|1:48,1,89.9999972534181,2|0,1:2|0:0,0:0:0:0:
237,108,192390,2,0,L|333:100,1,89.9999972534181,2|0,1:2|1:1,0:0:0:0:
100,144,192605,5,6,2:2:0:0:
268,20,192819,1,2,2:2:0:0:
296,228,193033,1,2,2:2:0:0:
116,136,193247,5,4,2:2:0:0:
284,12,193461,1,2,2:2:0:0:
312,220,193675,1,2,2:2:0:0:
