osu file format v14

[General]
AudioFilename: cool.mp3
AudioLeadIn: 0
PreviewTime:75926
Countdown: 0
SampleSet: Soft
StackLeniency: 0.5
Mode: 0
LetterboxInBreaks: 0
WidescreenStoryboard: 0

[Editor]
Bookmarks: 605,14319,28033,41747,55462,69176,76033,89747,103462,117176,130890,137747,151462,160462,165176,178890,192605
DistanceSpacing: 1.2
BeatDivisor: 4
GridSize: 4
TimelineZoom: 2.3

[Metadata]
Title:Girl Front
TitleUnicode:Girl Front
Artist:LOONA / ODD EYE CIRCLE
ArtistUnicode:이달의 소녀 오드아이써클
Creator:Marianna
Version:Normal
Source:
Tags:LOOΠΔ girl of the month Blockberry Creative 블록베리 크리에이티브 김립 진솔 최리 Kim Lip JinSoul Choerry Mix&Match Peter dora- doraemonelf
BeatmapID:1431095
BeatmapSetID:676192

[Difficulty]
HPDrainRate:5
CircleSize:3.6
OverallDifficulty:5
ApproachRate:5
SliderMultiplier:1.3
SliderTickRate:1

[Events]
//Background and Video events
0,0,"bg.jpg",0,0
Video,400,"oddfront+(1).mp4"
//Break Periods
2,69376,73119
2,131090,136547
2,160662,163247
//Storyboard Layer 0 (Background)
//Storyboard Layer 1 (Fail)
//Storyboard Layer 2 (Pass)
//Storyboard Layer 3 (Foreground)
//Storyboard Layer 4 (Overlay)
//Storyboard Sound Samples

[TimingPoints]
605,428.571428571429,4,2,1,40,1,0
2105,-100,4,2,2,40,0,0
2426,-100,4,2,1,40,0,0
3819,-100,4,2,2,50,0,0
4140,-100,4,2,1,50,0,0
4890,-100,4,2,2,50,0,0
5105,-100,4,2,1,50,0,0
5212,-100,4,2,2,50,0,0
5426,-100,4,2,1,50,0,0
5533,-100,4,2,2,60,0,0
5855,-100,4,2,1,60,0,0
5962,-100,4,2,2,60,0,0
6390,-100,4,2,1,60,0,0
6605,-100,4,2,2,60,0,0
6819,-100,4,2,1,60,0,0
6926,-100,4,2,2,60,0,0
7140,-100,4,2,1,60,0,0
7247,-100,4,2,2,60,0,0
7462,-100,4,2,2,70,0,0
7676,-100,4,2,1,70,0,0
7890,-100,4,2,2,70,0,0
8533,-100,4,2,1,70,0,0
8640,-100,4,2,2,70,0,0
8855,-100,4,2,1,70,0,0
8962,-100,4,2,2,70,0,0
9283,-100,4,2,1,70,0,0
9390,-100,4,2,2,70,0,0
9819,-100,4,2,3,70,0,0
10033,-100,4,2,2,70,0,0
10247,-100,4,2,1,70,0,0
10355,-100,4,2,2,70,0,0
10569,-100,4,2,1,70,0,0
10676,-100,4,2,2,80,0,0
10997,-100,4,2,1,80,0,0
11105,-100,4,2,2,80,0,0
11533,-100,4,2,3,80,0,0
11747,-100,4,2,2,80,0,0
11962,-100,4,2,1,80,0,0
12069,-100,4,2,2,80,0,0
12283,-100,4,2,1,80,0,0
12390,-100,4,2,2,80,0,0
12605,-100,4,2,1,80,0,0
13890,-100,4,2,2,65,0,0
14319,-100,4,2,4,65,0,0
15176,-100,4,2,1,65,0,0
16033,-100,4,2,2,65,0,0
17105,-100,4,2,1,65,0,0
17212,-100,4,2,2,65,0,0
17426,-100,4,2,1,65,0,0
17533,-100,4,2,2,65,0,0
19569,-100,4,2,1,65,0,0
19890,-100,4,2,2,65,0,0
20105,-100,4,2,1,65,0,0
20319,-100,4,2,2,65,0,0
20533,-100,4,2,1,65,0,0
20747,-100,4,2,2,65,0,0
20855,-100,4,2,1,65,0,0
21176,-100,4,2,2,65,0,0
22033,-100,4,2,1,65,0,0
22462,-100,4,2,2,65,0,0
22569,-100,4,2,1,65,0,0
22890,-100,4,2,2,65,0,0
23962,-100,4,2,1,65,0,0
24069,-100,4,2,2,65,0,0
24283,-100,4,2,1,65,0,0
24390,-100,4,2,2,65,0,0
25997,-100,4,2,1,65,0,0
26105,-100,4,2,2,65,0,0
26426,-100,4,2,1,65,0,0
26533,-100,4,2,2,65,0,0
27069,-100,4,2,1,65,0,0
27176,-100,4,2,2,65,0,0
27497,-100,4,2,1,65,0,0
27605,-100,4,2,2,65,0,0
28033,-100,4,2,5,70,0,0
28247,-100,4,2,1,70,0,0
28462,-100,4,2,2,70,0,0
28676,-100,4,2,1,70,0,0
28890,-100,4,2,2,70,0,0
29105,-100,4,2,1,70,0,0
29533,-100,4,2,6,70,0,0
30819,-100,4,2,1,70,0,0
31033,-100,4,2,2,70,0,0
31140,-100,4,2,1,70,0,0
31247,-100,4,2,2,70,0,0
32533,-100,4,2,1,70,0,0
32962,-100,4,2,2,70,0,0
33283,-100,4,2,1,70,0,0
33390,-100,4,2,2,70,0,0
34247,-100,4,2,1,70,0,0
34890,-100,4,2,2,70,0,0
35319,-100,4,2,1,70,0,0
35533,-100,4,2,2,70,0,0
35747,-100,4,2,1,70,0,0
36390,-100,4,2,2,70,0,0
37676,-100,4,2,1,70,0,0
37783,-100,4,2,2,70,0,0
38105,-100,4,2,1,70,0,0
38747,-100,4,2,2,70,0,0
39390,-100,4,2,1,70,0,0
39497,-100,4,2,2,70,0,0
39605,-100,4,2,7,70,0,0
39712,-100,4,2,1,70,0,0
39819,-100,4,2,2,70,0,0
40033,-100,4,2,1,80,0,0
40462,-100,4,2,8,80,0,0
40676,-100,4,2,9,80,0,0
40890,-100,4,2,8,80,0,0
41105,-100,4,2,9,80,0,0
41319,-100,4,2,10,80,0,0
41747,-100,4,2,11,85,0,1
41962,-100,4,2,12,85,0,1
42069,-100,4,2,13,85,0,1
42390,-100,4,2,8,85,0,1
42497,-100,4,2,1,85,0,1
42605,-100,4,2,8,85,0,1
42819,-100,4,2,3,85,0,1
43033,-100,4,2,1,85,0,1
43247,-100,4,2,8,85,0,1
43676,-100,4,2,3,85,0,1
43890,-100,4,2,1,85,0,1
44105,-100,4,2,8,85,0,1
44212,-100,4,2,1,85,0,1
44319,-100,4,2,10,85,0,1
44533,-100,4,2,14,85,0,1
44640,-100,4,2,1,85,0,1
44747,-100,4,2,8,85,0,1
44855,-100,4,2,1,85,0,1
44962,-100,4,2,8,85,0,1
45390,-100,4,2,12,85,0,1
45605,-100,4,2,1,85,0,1
45819,-100,4,2,8,85,0,1
45926,-100,4,2,1,85,0,1
46033,-100,4,2,8,85,0,1
46247,-100,4,2,3,85,0,1
46355,-100,4,2,15,85,0,1
46462,-100,4,2,1,85,0,1
46676,-100,4,2,16,85,0,1
46890,-100,4,2,3,85,0,1
47212,-100,4,2,2,85,0,1
47319,-100,4,2,1,85,0,1
47533,-100,4,2,8,85,0,1
47747,-100,4,2,10,85,0,1
47962,-100,4,2,14,85,0,1
48069,-100,4,2,1,85,0,1
48176,-100,4,2,10,85,0,1
48390,-100,4,2,8,85,0,1
48605,-100,4,2,1,85,0,1
48819,-100,4,2,3,85,0,1
49033,-100,4,2,8,85,0,1
49676,-100,4,2,3,85,0,1
49783,-100,4,2,10,85,0,1
49997,-100,4,2,1,85,0,1
50105,-100,4,2,14,85,0,1
50426,-100,4,2,3,85,0,1
50747,-100,4,2,8,85,0,1
51390,-100,4,2,3,85,0,1
51497,-100,4,2,17,85,0,1
51605,-100,4,2,1,85,0,1
51819,-100,4,2,14,85,0,1
52247,-100,4,2,3,85,0,1
52462,-100,4,2,8,85,0,1
53105,-100,4,2,3,85,0,1
53212,-100,4,2,10,85,0,1
53426,-100,4,2,1,85,0,1
53533,-100,4,2,14,85,0,1
53855,-100,4,2,3,85,0,1
54176,-100,4,2,8,85,0,1
54390,-100,4,2,18,85,0,1
54605,-100,4,2,8,85,0,1
54819,-100,4,2,18,85,0,1
54926,-100,4,2,1,85,0,1
55033,-100,4,2,10,85,0,1
55140,-100,4,2,1,85,0,1
55355,-100,4,2,1,85,0,0
55462,-100,4,2,11,85,0,1
55676,-100,4,2,12,85,0,1
55783,-100,4,2,13,85,0,1
56105,-100,4,2,3,85,0,1
56747,-100,4,2,8,85,0,1
56855,-100,4,2,3,85,0,1
57605,-100,4,2,1,85,0,1
57819,-100,4,2,8,85,0,1
57926,-100,4,2,1,85,0,1
58033,-100,4,2,10,85,0,1
58247,-100,4,2,14,85,0,1
58355,-100,4,2,1,85,0,1
58462,-100,4,2,10,85,0,1
58676,-100,4,2,8,85,0,1
59105,-100,4,2,18,85,0,1
59319,-100,4,2,8,85,0,1
59533,-100,4,2,18,85,0,1
59640,-100,4,2,1,85,0,1
59747,-100,4,2,8,85,0,1
59962,-100,4,2,18,85,0,1
60069,-100,4,2,1,85,0,1
60176,-100,4,2,8,85,0,1
60283,-100,4,2,1,85,0,1
60390,-100,4,2,16,85,0,1
60605,-100,4,2,3,85,0,1
61033,-100,4,2,1,85,0,1
61247,-100,4,2,8,85,0,1
61355,-100,4,2,1,85,0,1
61462,-100,4,2,10,85,0,1
61676,-100,4,2,14,85,0,1
61783,-100,4,2,1,85,0,1
61890,-100,4,2,10,85,0,1
61997,-100,4,2,1,85,0,1
62105,-100,4,2,8,85,0,1
62319,-100,4,2,11,85,0,1
62533,-100,4,2,8,85,0,1
62962,-100,4,2,15,85,0,1
63069,-100,4,2,1,85,0,1
63176,-100,4,2,8,85,0,1
63390,-100,4,2,14,85,0,1
63497,-100,4,2,1,85,0,1
63605,-100,4,2,8,85,0,1
63819,-100,4,2,15,85,0,1
64033,-100,4,2,8,85,0,1
64247,-100,4,2,3,85,0,1
64462,-100,4,2,1,85,0,1
64676,-100,4,2,15,85,0,1
64783,-100,4,2,1,85,0,1
64890,-100,4,2,8,85,0,1
65105,-100,4,2,14,85,0,1
65212,-100,4,2,1,85,0,1
65319,-100,4,2,8,85,0,1
65533,-100,4,2,15,85,0,1
65747,-100,4,2,8,85,0,1
65962,-100,4,2,3,85,0,1
66176,-100,4,2,1,85,0,1
66390,-100,4,2,15,85,0,1
66497,-100,4,2,1,85,0,1
66605,-100,4,2,8,85,0,1
66819,-100,4,2,14,85,0,1
66926,-100,4,2,1,85,0,1
67033,-100,4,2,8,85,0,1
67247,-100,4,2,15,85,0,1
67676,-100,4,2,3,85,0,1
67890,-100,4,2,8,85,0,1
68105,-100,4,2,18,85,0,1
68212,-100,4,2,1,85,0,1
68319,-100,4,2,8,85,0,1
68533,-100,4,2,18,85,0,1
68640,-100,4,2,1,85,0,1
68747,-100,4,2,10,85,0,1
68962,-100,4,2,1,85,0,1
69176,-100,4,2,19,70,0,0
69390,-100,4,2,20,70,0,0
69605,-100,4,2,21,70,0,0
69819,-100,4,2,2,70,0,0
70033,-100,4,2,21,70,0,0
70890,-100,4,2,2,70,0,0
71105,-100,4,2,21,70,0,0
71533,-100,4,2,2,70,0,0
71747,-100,4,2,21,70,0,0
72605,-100,4,2,2,70,0,0
72819,-100,4,2,21,70,0,0
73247,-100,4,2,2,70,0,0
73462,-100,4,2,21,70,0,0
74319,-100,4,2,7,70,0,0
74426,-100,4,2,1,70,0,0
74962,-100,4,2,2,70,0,0
76033,-100,4,2,2,60,0,0
76462,-100,4,2,1,60,0,0
77105,-100,4,2,2,60,0,0
77212,-100,4,2,1,60,0,0
77319,-100,4,2,2,60,0,0
77533,-100,4,2,1,60,0,0
77962,-100,4,2,2,60,0,0
79462,-100,4,2,1,60,0,0
79890,-100,4,2,2,60,0,0
80212,-100,4,2,1,60,0,0
80319,-100,4,2,2,60,0,0
80640,-100,4,2,1,60,0,0
80747,-100,4,2,2,60,0,0
80962,-100,4,2,1,60,0,0
81176,-100,4,2,2,60,0,0
81390,-100,4,2,1,60,0,0
81605,-100,4,2,2,60,0,0
81819,-100,4,2,1,60,0,0
82033,-100,4,2,2,60,0,0
82355,-100,4,2,1,60,0,0
82462,-100,4,2,2,60,0,0
82676,-100,4,2,22,60,0,0
82890,-100,4,2,2,70,0,0
84926,-100,4,2,1,70,0,0
85033,-100,4,2,2,70,0,0
85140,-100,4,2,1,70,0,0
85247,-100,4,2,2,70,0,0
85355,-100,4,2,1,70,0,0
85462,-100,4,2,2,70,0,0
85783,-100,4,2,1,70,0,0
85890,-100,4,2,6,70,0,0
86105,-100,4,2,1,70,0,0
86747,-100,4,2,6,70,0,0
89747,-100,4,2,5,70,0,0
90176,-100,4,2,6,70,0,0
97033,-100,4,2,13,70,0,0
98319,-100,4,2,4,70,0,0
101319,-100,4,2,7,70,0,0
101533,-100,4,2,2,70,0,0
101747,-100,4,2,1,80,0,0
102176,-100,4,2,8,80,0,0
102390,-100,4,2,9,80,0,0
102605,-100,4,2,8,80,0,0
102819,-100,4,2,9,80,0,0
103033,-100,4,2,10,80,0,0
103462,-100,4,2,11,85,0,1
103676,-100,4,2,12,85,0,1
103783,-100,4,2,13,85,0,1
104105,-100,4,2,8,85,0,1
104212,-100,4,2,1,85,0,1
104319,-100,4,2,8,85,0,1
104533,-100,4,2,3,85,0,1
104747,-100,4,2,1,85,0,1
104962,-100,4,2,8,85,0,1
105390,-100,4,2,3,85,0,1
105605,-100,4,2,1,85,0,1
105819,-100,4,2,8,85,0,1
105926,-100,4,2,1,85,0,1
106033,-100,4,2,10,85,0,1
106247,-100,4,2,14,85,0,1
106355,-100,4,2,1,85,0,1
106462,-100,4,2,8,85,0,1
106569,-100,4,2,1,85,0,1
106676,-100,4,2,8,85,0,1
107105,-100,4,2,12,85,0,1
107319,-100,4,2,1,85,0,1
107533,-100,4,2,8,85,0,1
107640,-100,4,2,1,85,0,1
107747,-100,4,2,8,85,0,1
107962,-100,4,2,3,85,0,1
108069,-100,4,2,15,85,0,1
108176,-100,4,2,1,85,0,1
108390,-100,4,2,16,85,0,1
108605,-100,4,2,3,85,0,1
108926,-100,4,2,2,85,0,1
109033,-100,4,2,1,85,0,1
109247,-100,4,2,8,85,0,1
109462,-100,4,2,10,85,0,1
109676,-100,4,2,14,85,0,1
109783,-100,4,2,1,85,0,1
109890,-100,4,2,10,85,0,1
110105,-100,4,2,8,85,0,1
110319,-100,4,2,1,85,0,1
110533,-100,4,2,3,85,0,1
110747,-100,4,2,8,85,0,1
111390,-100,4,2,3,85,0,1
111497,-100,4,2,10,85,0,1
111712,-100,4,2,1,85,0,1
111819,-100,4,2,14,85,0,1
112140,-100,4,2,3,85,0,1
112462,-100,4,2,8,85,0,1
113105,-100,4,2,3,85,0,1
113212,-100,4,2,17,85,0,1
113319,-100,4,2,1,85,0,1
113533,-100,4,2,14,85,0,1
113962,-100,4,2,3,85,0,1
114176,-100,4,2,8,85,0,1
114819,-100,4,2,3,85,0,1
114926,-100,4,2,10,85,0,1
115140,-100,4,2,1,85,0,1
115247,-100,4,2,14,85,0,1
115569,-100,4,2,23,85,0,1
115890,-100,4,2,8,85,0,1
116105,-100,4,2,18,85,0,1
116319,-100,4,2,8,85,0,1
116533,-100,4,2,18,85,0,1
116640,-100,4,2,1,85,0,1
116747,-100,4,2,10,85,0,1
116855,-100,4,2,1,85,0,1
117069,-100,4,2,1,85,0,0
117176,-100,4,2,11,85,0,1
117390,-100,4,2,12,85,0,1
117497,-100,4,2,13,85,0,1
117819,-100,4,2,3,85,0,1
118462,-100,4,2,8,85,0,1
118569,-100,4,2,3,85,0,1
119319,-100,4,2,1,85,0,1
119533,-100,4,2,8,85,0,1
119640,-100,4,2,1,85,0,1
119747,-100,4,2,10,85,0,1
119962,-100,4,2,14,85,0,1
120069,-100,4,2,1,85,0,1
120176,-100,4,2,10,85,0,1
120390,-100,4,2,8,85,0,1
120819,-100,4,2,18,85,0,1
121033,-100,4,2,8,85,0,1
121247,-100,4,2,18,85,0,1
121355,-100,4,2,1,85,0,1
121462,-100,4,2,8,85,0,1
121676,-100,4,2,18,85,0,1
121783,-100,4,2,1,85,0,1
121890,-100,4,2,8,85,0,1
121997,-100,4,2,1,85,0,1
122105,-100,4,2,16,85,0,1
122319,-100,4,2,3,85,0,1
122747,-100,4,2,1,85,0,1
122962,-100,4,2,8,85,0,1
123069,-100,4,2,1,85,0,1
123176,-100,4,2,10,85,0,1
123390,-100,4,2,14,85,0,1
123497,-100,4,2,1,85,0,1
123605,-100,4,2,10,85,0,1
123712,-100,4,2,1,85,0,1
123819,-100,4,2,8,85,0,1
124033,-100,4,2,11,85,0,1
124247,-100,4,2,8,85,0,1
124676,-100,4,2,15,85,0,1
124783,-100,4,2,1,85,0,1
124890,-100,4,2,8,85,0,1
125105,-100,4,2,14,85,0,1
125212,-100,4,2,1,85,0,1
125319,-100,4,2,8,85,0,1
125533,-100,4,2,15,85,0,1
125747,-100,4,2,8,85,0,1
125962,-100,4,2,3,85,0,1
126176,-100,4,2,1,85,0,1
126390,-100,4,2,15,85,0,1
126497,-100,4,2,1,85,0,1
126605,-100,4,2,8,85,0,1
126819,-100,4,2,14,85,0,1
126926,-100,4,2,1,85,0,1
127033,-100,4,2,8,85,0,1
127247,-100,4,2,15,85,0,1
127462,-100,4,2,8,85,0,1
127676,-100,4,2,3,85,0,1
127890,-100,4,2,1,85,0,1
128105,-100,4,2,15,85,0,1
128212,-100,4,2,1,85,0,1
128319,-100,4,2,8,85,0,1
128533,-100,4,2,14,85,0,1
128640,-100,4,2,1,85,0,1
128747,-100,4,2,8,85,0,1
128962,-100,4,2,15,85,0,1
129390,-100,4,2,3,85,0,1
129605,-100,4,2,8,85,0,1
129819,-100,4,2,18,85,0,1
129926,-100,4,2,1,85,0,1
130033,-100,4,2,8,85,0,1
130247,-100,4,2,18,85,0,1
130355,-100,4,2,1,85,0,1
130462,-100,4,2,10,85,0,1
130676,-100,4,2,1,85,0,1
130890,-100,4,2,19,70,0,0
131105,-100,4,2,20,70,0,0
131319,-100,4,2,21,70,0,0
131533,-100,4,2,2,70,0,0
131747,-100,4,2,21,70,0,0
132605,-100,4,2,2,70,0,0
132819,-100,4,2,21,70,0,0
133247,-100,4,2,2,70,0,0
133462,-100,4,2,21,70,0,0
134319,-100,4,2,2,70,0,0
134533,-100,4,2,21,70,0,0
134962,-100,4,2,2,70,0,0
135176,-100,4,2,21,70,0,0
136033,-100,4,2,2,70,0,0
136247,-100,4,2,21,70,0,0
136676,-100,4,2,2,70,0,0
136890,-100,4,2,21,70,0,0
137747,-100,4,2,21,50,0,0
138176,-100,4,2,2,50,0,0
138605,-100,4,2,24,50,0,0
139890,-100,4,2,2,50,0,0
140319,-100,4,2,24,50,0,0
144390,-100,4,2,2,50,0,0
145462,-100,4,2,24,50,0,0
146747,-100,4,2,2,50,0,0
147176,-100,4,2,1,50,0,0
149747,-100,4,2,24,50,0,0
151247,-100,4,2,1,50,0,0
151462,-100,4,2,3,50,0,0
153176,-100,4,2,3,50,0,0
153283,-100,4,2,3,50,0,0
156176,-100,4,2,2,50,0,0
156605,-100,4,2,25,50,0,0
156712,-100,4,2,25,50,0,0
157676,-100,4,2,6,50,0,0
158212,-100,4,2,1,50,0,0
158319,-100,4,2,1,60,0,0
159819,-100,4,2,2,60,0,0
160140,-100,4,2,1,60,0,0
161533,-100,4,2,2,60,0,0
161855,-100,4,2,1,60,0,0
162605,-100,4,2,2,60,0,0
162819,-100,4,2,1,60,0,0
162926,-100,4,2,2,60,0,0
163140,-100,4,2,1,60,0,0
163247,-100,4,2,2,60,0,0
163890,-100,4,2,8,85,0,0
164105,-100,4,2,9,85,0,0
164319,-100,4,2,8,85,0,0
164533,-100,4,2,9,85,0,0
164747,-100,4,2,10,85,0,0
165176,-100,4,2,11,90,0,1
165390,-100,4,2,12,90,0,1
165497,-100,4,2,13,90,0,1
165605,-100,4,2,13,90,0,1
165712,-100,4,2,13,90,0,1
165819,-100,4,2,8,90,0,1
165926,-100,4,2,1,90,0,1
166033,-100,4,2,8,90,0,1
166247,-100,4,2,3,90,0,1
166462,-100,4,2,1,90,0,1
166676,-100,4,2,8,90,0,1
167105,-100,4,2,3,90,0,1
167319,-100,4,2,1,90,0,1
167533,-100,4,2,8,90,0,1
167640,-100,4,2,1,90,0,1
167747,-100,4,2,10,90,0,1
167962,-100,4,2,14,90,0,1
168069,-100,4,2,1,90,0,1
168176,-100,4,2,8,90,0,1
168283,-100,4,2,1,90,0,1
168390,-100,4,2,8,90,0,1
168819,-100,4,2,12,90,0,1
169033,-100,4,2,1,90,0,1
169247,-100,4,2,8,90,0,1
169355,-100,4,2,1,90,0,1
169462,-100,4,2,8,90,0,1
169676,-100,4,2,3,90,0,1
169783,-100,4,2,15,90,0,1
169890,-100,4,2,1,90,0,1
170105,-100,4,2,16,90,0,1
170319,-100,4,2,3,90,0,1
170747,-100,4,2,1,90,0,1
170962,-100,4,2,8,90,0,1
171176,-100,4,2,10,90,0,1
171390,-100,4,2,14,90,0,1
171497,-100,4,2,1,90,0,1
171605,-100,4,2,10,90,0,1
171819,-100,4,2,8,90,0,1
172033,-100,4,2,1,90,0,1
172247,-100,4,2,3,90,0,1
172462,-100,4,2,8,90,0,1
173105,-100,4,2,3,90,0,1
173212,-100,4,2,10,90,0,1
173426,-100,4,2,1,90,0,1
173533,-100,4,2,14,90,0,1
173855,-100,4,2,3,90,0,1
174176,-100,4,2,8,90,0,1
174819,-100,4,2,3,90,0,1
174926,-100,4,2,17,90,0,1
175033,-100,4,2,1,90,0,1
175247,-100,4,2,14,90,0,1
175676,-100,4,2,3,90,0,1
175890,-100,4,2,8,90,0,1
176533,-100,4,2,3,90,0,1
176640,-100,4,2,10,90,0,1
176855,-100,4,2,1,90,0,1
176962,-100,4,2,14,90,0,1
177283,-100,4,2,23,90,0,1
177605,-100,4,2,8,90,0,1
177819,-100,4,2,18,90,0,1
178033,-100,4,2,8,90,0,1
178247,-100,4,2,18,90,0,1
178355,-100,4,2,1,90,0,1
178462,-100,4,2,10,90,0,1
178569,-100,4,2,1,90,0,1
178783,-100,4,2,1,90,0,0
178890,-100,4,2,11,90,0,1
179105,-100,4,2,12,90,0,1
179212,-100,4,2,13,90,0,1
179533,-100,4,2,3,90,0,1
180176,-100,4,2,8,90,0,1
180283,-100,4,2,3,90,0,1
181033,-100,4,2,1,90,0,1
181247,-100,4,2,8,90,0,1
181355,-100,4,2,1,90,0,1
181462,-100,4,2,10,90,0,1
181676,-100,4,2,14,90,0,1
181783,-100,4,2,1,90,0,1
181890,-100,4,2,10,90,0,1
182105,-100,4,2,8,90,0,1
182533,-100,4,2,18,90,0,1
182747,-100,4,2,8,90,0,1
182962,-100,4,2,18,90,0,1
183069,-100,4,2,1,90,0,1
183176,-100,4,2,8,90,0,1
183390,-100,4,2,18,90,0,1
183497,-100,4,2,1,90,0,1
183605,-100,4,2,8,90,0,1
183712,-100,4,2,1,90,0,1
183819,-100,4,2,16,90,0,1
184033,-100,4,2,3,90,0,1
184462,-100,4,2,1,90,0,1
184676,-100,4,2,8,90,0,1
184783,-100,4,2,1,90,0,1
184890,-100,4,2,10,90,0,1
185105,-100,4,2,14,90,0,1
185212,-100,4,2,1,90,0,1
185319,-100,4,2,10,90,0,1
185426,-100,4,2,1,90,0,1
185533,-100,4,2,8,90,0,1
185747,-100,4,2,11,90,0,1
185962,-100,4,2,8,90,0,1
186390,-100,4,2,15,90,0,1
186497,-100,4,2,1,90,0,1
186605,-100,4,2,8,90,0,1
186819,-100,4,2,14,90,0,1
186926,-100,4,2,1,90,0,1
187033,-100,4,2,8,90,0,1
187247,-100,4,2,15,90,0,1
187462,-100,4,2,8,90,0,1
187676,-100,4,2,3,90,0,1
187890,-100,4,2,1,90,0,1
188105,-100,4,2,15,90,0,1
188212,-100,4,2,1,90,0,1
188319,-100,4,2,8,90,0,1
188533,-100,4,2,14,90,0,1
188640,-100,4,2,1,90,0,1
188747,-100,4,2,8,90,0,1
188962,-100,4,2,15,90,0,1
189176,-100,4,2,8,90,0,1
189390,-100,4,2,3,90,0,1
189605,-100,4,2,1,90,0,1
189819,-100,4,2,15,90,0,1
189926,-100,4,2,1,90,0,1
190033,-100,4,2,8,90,0,1
190247,-100,4,2,14,90,0,1
190355,-100,4,2,1,90,0,1
190462,-100,4,2,8,90,0,1
190676,-100,4,2,15,90,0,1
191105,-100,4,2,3,90,0,1
191319,-100,4,2,8,90,0,1
191533,-100,4,2,18,90,0,1
191640,-100,4,2,1,90,0,1
191747,-100,4,2,8,90,0,1
191962,-100,4,2,18,90,0,1
192069,-100,4,2,1,90,0,1
192176,-100,4,2,10,90,0,1
192390,-100,4,2,1,90,0,1
192605,-100,4,2,26,60,0,0
192819,-100,4,2,20,60,0,0
193033,-100,4,2,21,60,0,0
193247,-100,4,2,2,60,0,0
193462,-100,4,2,21,60,0,0

[Colours]
Combo1 : 227,51,64
Combo2 : 61,41,231
Combo3 : 183,40,180

[HitObjects]
188,76,12605,6,0,L|88:76,2,97.5,8|4|10,2:3|2:3|2:3,0:0:0:0:
256,36,13462,2,0,P|248:68|256:100,1,65,6|6,2:3|2:3,0:0:0:0:
280,172,13890,2,0,P|288:204|280:236,1,65,10|8,2:2|2:2,0:0:0:0:
216,280,14319,6,0,L|348:280,1,130,6|2,3:2|1:2,0:0:0:0:
400,224,14962,1,0,3:3:0:0:
400,224,15176,2,0,P|396:192|400:160,1,65,2|2,2:2|2:2,0:0:0:0:
432,88,15605,2,0,P|436:56|432:24,1,65,2|2,1:2|2:2,0:0:0:0:
356,8,16033,6,0,L|292:8,1,65,2|2,3:2|2:2,0:0:0:0:
228,56,16462,2,0,L|164:56,1,65,2|2,1:2|3:2,0:0:0:0:
100,100,16890,2,0,P|84:152|96:192,2,97.5,2|2|2,2:2|2:2|2:2,0:0:0:0:
163,56,17747,5,0,3:3:0:0:
256,180,18176,2,0,L|320:180,1,65,0|2,1:1|3:2,0:0:0:0:
380,128,18605,2,0,P|396:76|384:36,2,97.5,2|2|2,2:2|2:2|2:2,0:0:0:0:
320,180,19462,6,0,P|312:212|320:244,1,65,0|2,3:3|2:2,0:0:0:0:
256,288,19890,2,0,P|224:280|192:288,1,65,2|2,1:2|3:2,0:0:0:0:
124,320,20319,2,0,L|56:316,1,65,2|2,2:2|3:2,0:0:0:0:
44,240,20747,2,0,L|108:243,1,65,2|2,1:2|2:2,0:0:0:0:
168,192,21176,6,0,B|188:152|168:96|168:96|200:96,1,130,2|2,3:2|1:2,0:0:0:0:
344,152,22033,2,0,P|376:160|408:152,1,65,2|2,2:2|2:2,0:0:0:0:
464,204,22462,2,0,P|456:236|464:268,1,65,2|2,1:2|2:2,0:0:0:0:
408,320,22890,6,0,B|344:308|344:344|276:328,1,130,2|0,3:2|1:1,0:0:0:0:
152,236,23747,2,0,L|52:236,2,97.5,2|2|2,2:2|2:2|2:2,0:0:0:0:
196,172,24605,5,0,3:3:0:0:
300,288,25033,2,0,P|332:296|364:288,1,65,2|2,1:2|3:2,0:0:0:0:
412,228,25462,2,0,L|512:228,2,97.5,2|2|2,2:2|2:2|2:2,0:0:0:0:
368,164,26319,6,0,P|360:132|368:100,1,65,0|2,3:3|2:2,0:0:0:0:
316,44,26747,2,0,L|248:44,1,65,2|2,1:2|3:2,0:0:0:0:
180,80,27176,2,0,P|188:112|180:144,1,65,2|2,2:2|3:2,0:0:0:0:
232,200,27604,2,0,L|300:200,1,65,2|2,1:2|2:2,0:0:0:0:
368,164,28033,6,0,B|400:156|400:156|436:164,1,65,6|2,3:2|2:2,0:0:0:0:
400,236,28462,2,0,B|408:268|408:268|400:304,1,65,2|2,1:2|3:2,0:0:0:0:
456,352,28890,2,0,L|328:332,1,130,2|0,2:2|1:1,0:0:0:0:
256,192,29747,6,0,B|248:160|248:160|256:124,1,65,0|2,3:3|2:2,0:0:0:0:
328,160,30176,2,0,B|360:152|360:152|396:160,1,65,2|0,1:2|3:3,0:0:0:0:
444,104,30604,2,0,L|424:232,1,130,6|10,2:2|1:2,0:0:0:0:
332,356,31462,6,0,L|268:352,1,65,2|2,3:2|2:2,0:0:0:0:
216,292,31890,2,0,L|152:288,1,65,2|0,1:2|3:3,0:0:0:0:
92,340,32319,2,0,P|72:288|104:224,1,130,2|0,2:2|1:1,0:0:0:0:
176,192,32962,1,2,2:2:0:0:
176,192,33176,6,0,L|312:192,1,130,0|2,3:3|1:2,0:0:0:0:
360,136,33819,1,2,3:2:0:0:
360,136,34033,2,0,P|364:104|356:72,2,65,2|10|8,2:2|3:2|1:2,0:0:0:0:
306,192,34676,1,2,2:2:0:0:
352,256,34890,6,0,L|484:256,1,130,2|2,3:2|1:2,0:0:0:0:
504,332,35533,1,2,3:2:0:0:
504,332,35747,2,0,L|400:332,2,97.5,2|2|2,2:2|2:2|2:2,0:0:0:0:
482,256,36605,6,0,P|476:228|484:192,1,65,2|2,3:2|2:2,0:0:0:0:
432,136,37033,2,0,P|404:142|368:134,1,65,2|2,1:2|3:2,0:0:0:0:
312,84,37462,2,0,L|212:84,2,97.5,2|2|2,2:2|2:2|2:2,0:0:0:0:
372,32,38319,5,2,3:2:0:0:
296,168,38747,2,0,L|296:232,1,65,2|0,1:2|3:3,0:0:0:0:
348,292,39176,2,0,B|392:300|392:276|444:284,2,97.5,2|2|2,2:2|2:2|2:2,0:0:0:0:
296,233,40033,6,0,L|196:233,2,97.5,8|4|10,2:3|2:3|2:2,0:0:0:0:
352,180,40890,2,0,P|360:148|352:112,1,65,6|6,2:2|2:2,0:0:0:0:
320,48,41319,1,10,2:2:0:0:
196,144,41747,6,0,L|60:144,1,130,6|6,3:2|1:2,0:0:0:0:
32,212,42390,1,10,3:2:0:0:
32,212,42605,2,0,P|4:268|28:332,1,130,2|0,2:2|1:1,0:0:0:0:
100,356,43247,1,10,2:2:0:0:
100,356,43462,6,0,P|155:326|172:259,1,130,2|2,3:2|1:2,0:0:0:0:
160,188,44105,1,10,3:2:0:0:
232,212,44319,2,0,L|296:212,1,65,2|10,2:2|2:2,0:0:0:0:
320,136,44747,2,0,L|255:136,1,65,2|10,1:2|2:2,0:0:0:0:
232,212,45176,6,0,B|220:264|236:312|236:312|204:308,1,130,2|2,3:2|1:2,0:0:0:0:
132,292,45819,1,10,3:2:0:0:
132,292,46033,2,0,P|84:280|36:292,2,97.5,2|2|10,2:2|2:2|2:2,0:0:0:0:
207,308,46890,6,0,L|288:308,1,65,0|10,3:3|2:2,0:0:0:0:
292,232,47319,2,0,L|227:232,1,65,2|10,1:2|3:2,0:0:0:0:
176,172,47747,2,0,P|168:144|176:108,1,65,2|10,2:2|3:2,0:0:0:0:
244,76,48176,2,0,P|252:104|244:140,1,65,2|10,1:2|2:2,0:0:0:0:
176,172,48605,5,4,3:2:0:0:
316,240,49033,1,2,1:2:0:0:
316,240,49247,1,10,3:2:0:0:
316,240,49462,2,0,L|420:240,2,97.5,2|2|10,2:2|2:2|2:2,0:0:0:0:
256,292,50319,5,0,3:3:0:0:
196,148,50747,1,2,1:2:0:0:
196,148,50961,1,10,3:2:0:0:
196,148,51176,2,0,L|92:148,2,97.5,2|6|10,2:2|2:2|2:2,0:0:0:0:
256,200,52033,5,0,3:3:0:0:
316,56,52462,1,2,1:2:0:0:
316,56,52676,1,10,3:2:0:0:
316,56,52891,2,0,L|420:56,2,97.5,2|2|10,2:2|2:2|2:2,0:0:0:0:
256,108,53748,5,0,3:3:0:0:
336,244,54176,2,0,P|368:248|404:244,1,65,2|10,1:2|3:2,0:0:0:0:
400,168,54605,2,0,P|368:164|332:168,1,65,2|10,2:2|3:2,0:0:0:0:
268,204,55033,1,2,1:2:0:0:
208,156,55247,1,0,1:1:0:0:
208,156,55355,1,0,1:1:0:0:
208,156,55462,6,0,L|76:156,1,130,6|6,3:2|1:2,0:0:0:0:
32,220,56105,1,10,3:2:0:0:
32,220,56319,2,0,P|16:264|32:316,2,97.5,2|2|10,2:2|2:2|2:2,0:0:0:0:
78,156,57176,6,0,L|78:88,1,65,0|10,3:3|2:2,0:0:0:0:
132,36,57605,2,0,P|164:28|200:36,1,65,2|10,1:2|3:2,0:0:0:0:
256,80,58033,2,0,P|288:88|324:80,1,65,2|10,2:2|2:2,0:0:0:0:
384,40,58462,1,2,1:2:0:0:
384,40,58676,1,10,2:2:0:0:
444,92,58890,6,0,L|472:152,1,65,2|10,3:2|2:2,0:0:0:0:
408,192,59319,2,0,L|408:258,1,65,2|10,1:2|3:2,0:0:0:0:
332,256,59747,2,0,L|304:316,1,65,2|10,2:2|2:2,0:0:0:0:
236,280,60176,2,0,L|185:322,1,65,2|10,1:2|2:2,0:0:0:0:
128,268,60605,6,0,P|108:212|132:148,1,130,0|2,3:3|1:2,0:0:0:0:
192,100,61247,1,10,3:2:0:0:
192,100,61462,2,0,P|224:96|256:100,1,65,2|10,2:2|3:2,0:0:0:0:
316,148,61890,2,0,P|348:152|380:148,1,65,2|10,1:2|2:2,0:0:0:0:
436,92,62319,6,0,L|404:224,1,130,6|0,3:2|1:1,0:0:0:0:
376,292,62962,1,10,3:2:0:0:
376,292,63176,2,0,P|344:288|312:292,1,65,2|10,2:2|2:2,0:0:0:0:
256,236,63605,2,0,P|224:240|192:236,1,65,2|10,1:2|2:2,0:0:0:0:
132,288,64033,6,0,L|164:156,1,130,2|2,3:2|1:2,0:0:0:0:
192,88,64676,1,10,3:2:0:0:
192,88,64890,2,0,P|224:92|256:88,1,65,2|10,2:2|2:2,0:0:0:0:
312,144,65319,2,0,P|344:140|376:144,1,65,2|10,1:2|2:2,0:0:0:0:
436,92,65747,6,0,L|404:224,1,130,2|2,3:2|1:2,0:0:0:0:
376,292,66390,1,10,3:2:0:0:
376,292,66604,2,0,P|344:288|312:292,1,65,2|10,2:2|2:2,0:0:0:0:
256,236,67033,2,0,P|224:240|192:236,1,65,2|10,1:2|2:2,0:0:0:0:
128,192,67462,6,0,L|64:192,2,65,0|10|2,3:3|2:2|1:2,0:0:0:0:
164,124,68105,2,0,L|127:71,2,65,10|2|10,3:2|2:2|3:2,0:0:0:0:
240,112,68747,2,0,L|261:51,1,65,2|2,1:2|1:2,0:0:0:0:
336,24,69176,5,6,3:2:0:0:
320,192,74319,6,0,L|356:192,3,32.5,12|4|4|8,2:2|2:3|2:3|2:3,0:0:0:0:
380,164,74747,2,0,P|372:216|396:256,1,97.5,4|4,2:3|2:3,0:0:0:0:
424,280,75176,2,0,L|356:280,1,65,4|4,2:3|2:3,0:0:0:0:
320,348,75605,2,0,L|252:348,1,65,4|4,2:3|2:3,0:0:0:0:
196,296,76033,5,2,2:2:0:0:
196,296,76462,2,0,B|176:236|220:236|204:168,1,130,2|2,2:2|2:2,0:0:0:0:
160,104,77105,1,2,2:2:0:0:
160,104,77319,6,0,P|208:140|236:92,1,130,2|0,2:2|0:0,0:0:0:0:
296,44,77962,1,6,3:3:0:0:
296,44,78069,1,4,3:3:0:0:
296,44,78176,2,0,L|360:44,1,65,6|6,3:3|3:3,0:0:0:0:
420,96,78605,2,0,L|520:96,2,97.5,6|6|6,3:3|3:3|3:3,0:0:0:0:
356,140,79462,6,0,P|352:172|360:204,1,65,2|0,3:2|0:0,0:0:0:0:
404,268,79890,1,2,3:2:0:0:
328,284,80105,1,2,2:2:0:0:
328,284,80212,1,2,2:2:0:0:
328,284,80319,2,0,L|228:284,2,97.5,2|2|2,3:2|2:2|2:2,0:0:0:0:
404,268,81176,5,2,3:2:0:0:
304,148,81605,1,2,3:2:0:0:
230,284,82033,1,2,3:2:0:0:
136,216,82355,1,10,2:2:0:0:
136,216,82462,2,0,L|136:148,1,65,2|14,3:2|2:2,0:0:0:0:
92,88,82890,6,0,P|136:100|188:88,1,97.5,2|2,3:2|2:2,0:0:0:0:
220,68,83319,2,0,L|284:72,1,65,2|2,3:2|2:2,0:0:0:0:
348,116,83747,2,0,L|412:120,1,65,2|2,3:2|2:2,0:0:0:0:
460,92,84069,2,0,P|444:140|456:188,1,97.5,2|2,2:2|2:2,0:0:0:0:
500,248,84605,6,0,L|488:312,1,65,2|2,3:2|2:2,0:0:0:0:
416,340,85033,2,0,L|404:276,1,65,2|2,3:2|2:2,0:0:0:0:
336,236,85462,2,0,L|324:300,1,65,2|2,3:2|2:2,0:0:0:0:
264,352,85890,2,0,P|232:360|200:352,1,65,6|2,3:2|2:2,0:0:0:0:
140,304,86319,5,2,3:2:0:0:
140,304,86747,2,0,L|136:260,3,32.5,2|2|2|2,3:2|2:2|2:2|2:2,0:0:0:0:
112,240,87176,2,0,P|152:244|216:240,2,97.5,2|2|2,3:2|2:2|2:2,0:0:0:0:
52,192,88033,6,0,L|52:128,1,65,4|2,3:2|2:2,0:0:0:0:
100,68,88462,2,0,P|132:64|164:68,1,65,2|2,3:2|2:2,0:0:0:0:
232,104,88890,2,0,L|336:100,2,97.5,2|0|2,3:2|3:3|3:2,0:0:0:0:
180,160,89747,6,0,B|172:192|172:192|180:228,1,65,14|0,3:2|0:0,0:0:0:0:
148,296,90176,2,0,B|180:304|180:304|216:296,1,65,10|0,2:2|0:0,0:0:0:0:
260,236,90605,2,0,L|392:252,1,130,10|8,1:2|2:2,0:0:0:0:
484,128,91462,6,0,P|496:80|480:32,2,97.5,8|0|0,3:2|3:3|3:3,0:0:0:0:
436,188,92319,1,14,1:2:0:0:
488,336,92747,1,10,2:2:0:0:
416,304,92962,1,10,2:2:0:0:
416,304,93069,1,8,2:2:0:0:
416,304,93176,6,0,L|348:300,1,65,10|2,3:2|2:2,0:0:0:0:
288,348,93605,2,0,L|156:344,1,130,10|10,2:2|1:2,0:0:0:0:
52,228,94462,1,8,2:2:0:0:
168,124,94890,6,0,P|184:80|172:32,2,97.5,8|0|2,3:2|3:3|3:2,0:0:0:0:
120,184,95747,2,0,P|96:240|120:304,1,130,10|10,1:2|2:2,0:0:0:0:
268,352,96605,6,0,B|332:376|332:328|396:348,1,130,10|10,3:2|2:2,0:0:0:0:
460,308,97247,1,2,2:2:0:0:
460,308,97462,2,0,L|460:168,1,130,8|10,1:2|2:2,0:0:0:0:
404,124,98105,1,2,2:2:0:0:
404,124,98319,6,0,P|372:120|336:124,1,65,10|2,3:2|2:2,0:0:0:0:
304,136,98640,2,0,P|272:140|236:136,1,65,0|0,3:3|0:0,0:0:0:0:
204,120,98962,1,2,3:2:0:0:
172,192,99176,2,0,L|172:328,1,130,10|8,1:2|2:2,0:0:0:0:
96,348,99819,1,10,2:2:0:0:
96,348,99926,1,8,2:2:0:0:
96,348,100033,6,0,L|96:212,1,130,10|2,3:2|2:2,0:0:0:0:
144,68,100890,2,0,P|188:52|240:68,2,97.5,2|2|2,1:2|2:2|2:2,0:0:0:0:
192,132,101747,6,0,P|236:148|288:132,2,97.5,8|4|10,2:3|2:3|2:2,0:0:0:0:
144,68,102605,2,0,L|80:68,1,65,6|6,2:2|2:2,0:0:0:0:
24,120,103033,1,10,2:2:0:0:
108,252,103462,6,0,L|240:248,1,130,6|6,3:2|1:2,0:0:0:0:
304,204,104105,1,10,3:2:0:0:
304,204,104319,2,0,P|312:140|260:88,1,130,2|0,2:2|1:1,0:0:0:0:
240,164,104962,1,10,2:2:0:0:
240,164,105176,6,0,P|232:228|284:280,1,130,2|2,3:2|1:2,0:0:0:0:
344,308,105819,1,10,3:2:0:0:
344,308,106033,2,0,L|408:304,1,65,2|10,2:2|2:2,0:0:0:0:
428,228,106462,2,0,L|364:224,1,65,2|10,1:2|2:2,0:0:0:0:
292,192,106890,6,0,B|264:152|284:100|284:100|244:100,1,130,2|2,3:2|1:2,0:0:0:0:
172,100,107533,1,10,3:2:0:0:
172,100,107747,2,0,B|124:108|128:84|72:100,2,97.5,2|2|10,2:2|2:2|2:2,0:0:0:0:
252,100,108605,6,0,L|320:100,1,65,0|10,3:3|2:2,0:0:0:0:
340,176,109033,2,0,L|275:176,1,65,2|10,1:2|3:2,0:0:0:0:
212,220,109462,2,0,P|200:248|200:288,1,65,2|10,2:2|3:2,0:0:0:0:
264,324,109890,2,0,P|294:318|327:297,1,65,2|10,1:2|2:2,0:0:0:0:
384,248,110319,5,4,3:2:0:0:
308,112,110747,1,2,1:2:0:0:
308,112,110962,1,10,3:2:0:0:
308,112,111176,2,0,L|308:8,2,97.5,2|2|10,2:2|2:2|2:2,0:0:0:0:
256,172,112033,5,0,3:3:0:0:
120,252,112462,1,2,1:2:0:0:
120,252,112677,1,10,3:2:0:0:
120,252,112891,2,0,L|120:356,2,97.5,2|6|10,2:2|2:2|2:2,0:0:0:0:
172,192,113748,5,0,3:3:0:0:
28,132,114176,1,2,1:2:0:0:
28,132,114391,1,10,3:2:0:0:
28,132,114605,2,0,L|28:28,2,97.5,2|2|10,2:2|2:2|2:2,0:0:0:0:
80,192,115462,5,0,3:3:0:0:
156,56,115890,2,0,P|188:48|224:56,1,65,2|10,1:2|3:2,0:0:0:0:
256,124,116319,2,0,P|288:132|324:124,1,65,2|10,2:2|3:2,0:0:0:0:
380,80,116747,1,2,1:2:0:0:
436,24,116962,1,0,1:1:0:0:
436,24,117069,1,0,1:1:0:0:
436,24,117176,6,0,P|460:68|432:144,1,130,6|6,3:2|1:2,0:0:0:0:
380,192,117819,1,10,3:2:0:0:
380,192,118033,2,0,L|484:192,2,97.5,2|2|10,2:2|2:2|2:2,0:0:0:0:
320,240,118890,6,0,L|256:240,1,65,0|10,3:3|2:2,0:0:0:0:
184,272,119319,2,0,P|176:244|184:208,1,65,2|10,1:2|3:2,0:0:0:0:
240,156,119747,2,0,P|248:128|240:92,1,65,2|10,2:2|2:2,0:0:0:0:
192,32,120176,1,2,1:2:0:0:
192,32,120390,1,10,2:2:0:0:
120,64,120605,6,0,P|88:56|56:64,1,65,2|10,3:2|2:2,0:0:0:0:
88,136,121033,2,0,P|59:152|41:180,1,65,2|10,1:2|3:2,0:0:0:0:
116,208,121462,2,0,P|106:239|113:271,1,65,2|10,2:2|2:2,0:0:0:0:
184,240,121890,2,0,P|199:269|226:287,1,65,2|10,1:2|2:2,0:0:0:0:
224,364,122319,6,0,P|284:340|304:280,1,130,0|2,3:3|1:2,0:0:0:0:
260,216,122962,1,10,3:2:0:0:
260,216,123176,2,0,L|260:152,1,65,2|10,2:2|3:2,0:0:0:0:
336,144,123605,2,0,L|336:209,1,65,2|10,1:2|2:2,0:0:0:0:
384,272,124033,6,0,P|444:296|504:272,1,130,6|0,3:2|1:1,0:0:0:0:
444,220,124676,1,10,3:2:0:0:
444,220,124890,2,0,B|436:188|436:188|444:156,1,65,2|10,2:2|2:2,0:0:0:0:
384,108,125319,2,0,B|392:76|392:76|384:44,1,65,2|10,1:2|2:2,0:0:0:0:
308,32,125747,6,0,P|248:8|188:32,1,130,2|2,3:2|1:2,0:0:0:0:
136,88,126390,1,10,3:2:0:0:
136,88,126604,2,0,B|144:120|144:120|136:152,1,65,2|10,2:2|2:2,0:0:0:0:
184,212,127033,2,0,B|176:244|176:244|184:276,1,65,2|10,1:2|2:2,0:0:0:0:
256,308,127462,6,0,P|316:332|376:308,1,130,2|2,3:2|1:2,0:0:0:0:
316,256,128105,1,10,3:2:0:0:
316,256,128319,2,0,B|308:224|308:224|316:192,1,65,2|10,2:2|2:2,0:0:0:0:
256,144,128748,2,0,B|264:112|264:112|256:80,1,65,2|10,1:2|2:2,0:0:0:0:
188,48,129176,6,0,L|120:44,2,65,0|10|2,3:3|2:2|1:2,0:0:0:0:
256,80,129819,2,0,L|324:76,2,65,10|2|10,3:2|2:2|3:2,0:0:0:0:
204,140,130462,2,0,L|136:136,1,65,2|2,1:2|1:2,0:0:0:0:
60,128,130890,5,6,3:2:0:0:
72,104,137747,6,0,P|260:32|424:104,1,390,0|2,3:3|2:2,0:0:0:0:
432,260,139462,2,0,P|256:332|80:259,1,390,6|2,2:2|2:2,0:0:0:0:
188,144,141176,6,0,P|256:232|316:136,1,260,2|0,2:2|0:0,0:0:0:0:
100,56,142676,1,2,2:2:0:0:
100,56,142890,6,0,P|64:56|32:72,1,65,6|2,2:2|2:2,0:0:0:0:
84,132,143319,2,0,P|58:157|46:190,1,65,2|2,2:2|2:2,0:0:0:0:
124,204,143747,1,2,2:2:0:0:
124,204,143962,2,0,L|256:204,1,130,2|4,2:2|2:3,0:0:0:0:
288,132,144605,6,0,B|472:192|472:192|292:276,1,390,4|2,2:3|2:2,0:0:0:0:
164,192,146319,6,0,L|32:192,2,130,6|2|2,2:2|2:2|2:2,0:0:0:0:
256,64,147605,1,2,2:2:0:0:
256,64,148033,6,0,B|192:192|324:192|256:320,1,260,6|0,2:3|0:0,0:0:0:0:
148,108,149533,1,0,0:0:0:0:
148,108,149747,6,0,P|256:44|360:112,1,260,6|0,2:2|0:0,0:0:0:0:
256,340,151247,1,4,2:3:0:0:
256,340,151462,6,0,P|64:340|152:108,2,520,6|0|2,2:3|0:0|2:2,0:0:0:0:
256,340,156176,1,2,2:2:0:0:
352,216,156605,6,0,B|504:157|472:13|392:-27|288:-11|256:88|256:88|216:-15|104:-19|32:21|16:141|132:208|132:208|200:253|256:341|256:341|288:261|344:221,1,1170,6|2,2:2|2:2,0:0:0:0:
316,144,165176,6,0,L|452:144,1,130,6|6,3:2|1:2,0:0:0:0:
480,220,165819,1,10,3:2:0:0:
480,220,166034,2,0,P|508:276|484:340,1,130,2|0,2:2|1:1,0:0:0:0:
412,356,166676,1,10,2:2:0:0:
412,356,166891,6,0,P|357:326|340:259,1,130,2|2,3:2|1:2,0:0:0:0:
352,188,167534,1,10,3:2:0:0:
280,212,167748,2,0,L|216:212,1,65,2|10,2:2|2:2,0:0:0:0:
192,136,168176,2,0,L|257:136,1,65,2|10,1:2|2:2,0:0:0:0:
280,212,168605,6,0,B|292:264|276:312|276:312|308:308,1,130,2|2,3:2|1:2,0:0:0:0:
380,292,169248,1,10,3:2:0:0:
380,292,169462,2,0,P|428:280|476:292,2,97.5,2|2|10,2:2|2:2|2:2,0:0:0:0:
305,308,170319,6,0,L|224:308,1,65,0|10,3:3|2:2,0:0:0:0:
220,232,170748,2,0,L|285:232,1,65,2|10,1:2|3:2,0:0:0:0:
336,172,171176,2,0,P|344:144|336:108,1,65,2|10,2:2|3:2,0:0:0:0:
268,76,171605,2,0,P|260:104|268:140,1,65,2|10,1:2|2:2,0:0:0:0:
336,172,172034,5,4,3:2:0:0:
196,240,172462,1,2,1:2:0:0:
196,240,172676,1,10,3:2:0:0:
196,240,172891,2,0,L|92:240,2,97.5,2|2|10,2:2|2:2|2:2,0:0:0:0:
256,292,173748,5,0,3:3:0:0:
316,148,174176,1,2,1:2:0:0:
316,148,174390,1,10,3:2:0:0:
316,148,174605,2,0,L|420:148,2,97.5,2|6|10,2:2|2:2|2:2,0:0:0:0:
256,200,175462,5,0,3:3:0:0:
196,56,175891,1,2,1:2:0:0:
196,56,176105,1,10,3:2:0:0:
196,56,176320,2,0,L|92:56,2,97.5,2|2|10,2:2|2:2|2:2,0:0:0:0:
256,108,177177,5,0,3:3:0:0:
176,244,177605,2,0,P|144:248|108:244,1,65,2|10,1:2|3:2,0:0:0:0:
112,168,178034,2,0,P|144:164|180:168,1,65,2|10,2:2|3:2,0:0:0:0:
244,204,178462,1,2,1:2:0:0:
304,156,178676,1,0,1:1:0:0:
304,156,178784,1,0,1:1:0:0:
304,156,178891,6,0,L|436:156,1,130,6|6,3:2|1:2,0:0:0:0:
480,220,179534,1,10,3:2:0:0:
480,220,179748,2,0,P|496:264|480:316,2,97.5,2|2|10,2:2|2:2|2:2,0:0:0:0:
434,156,180605,6,0,L|434:88,1,65,0|10,3:3|2:2,0:0:0:0:
380,36,181034,2,0,P|348:28|312:36,1,65,2|10,1:2|3:2,0:0:0:0:
256,80,181462,2,0,P|224:88|188:80,1,65,2|10,2:2|2:2,0:0:0:0:
128,40,181891,1,2,1:2:0:0:
128,40,182105,1,10,2:2:0:0:
68,92,182319,6,0,L|40:152,1,65,2|10,3:2|2:2,0:0:0:0:
104,192,182748,2,0,L|104:258,1,65,2|10,1:2|3:2,0:0:0:0:
180,256,183176,2,0,L|208:316,1,65,2|10,2:2|2:2,0:0:0:0:
276,280,183605,2,0,L|327:322,1,65,2|10,1:2|2:2,0:0:0:0:
384,268,184034,6,0,P|404:212|380:148,1,130,0|2,3:3|1:2,0:0:0:0:
320,100,184676,1,10,3:2:0:0:
320,100,184891,2,0,P|288:96|256:100,1,65,2|10,2:2|3:2,0:0:0:0:
196,148,185319,2,0,P|164:152|132:148,1,65,2|10,1:2|2:2,0:0:0:0:
76,92,185748,6,0,L|108:224,1,130,6|0,3:2|1:1,0:0:0:0:
136,292,186391,1,10,3:2:0:0:
136,292,186605,2,0,P|168:288|200:292,1,65,2|14,2:2|2:2,0:0:0:0:
256,236,187034,2,0,P|288:240|320:236,1,65,2|10,1:2|2:2,0:0:0:0:
380,288,187462,6,0,L|348:156,1,130,2|2,3:2|1:2,0:0:0:0:
320,88,188105,1,10,3:2:0:0:
320,88,188319,2,0,P|288:92|256:88,1,65,2|14,2:2|2:2,0:0:0:0:
200,144,188748,2,0,P|168:140|136:144,1,65,2|10,1:2|2:2,0:0:0:0:
76,92,189176,6,0,L|108:224,1,130,2|2,3:2|1:2,0:0:0:0:
136,292,189819,1,10,3:2:0:0:
136,292,190033,2,0,P|168:288|200:292,1,65,2|14,2:2|2:2,0:0:0:0:
256,236,190462,2,0,P|288:240|320:236,1,65,2|10,1:2|2:2,0:0:0:0:
384,192,190891,6,0,L|448:192,2,65,0|10|2,3:3|2:2|1:2,0:0:0:0:
348,124,191534,2,0,L|385:71,2,65,10|2|10,3:2|2:2|3:2,0:0:0:0:
272,112,192176,2,0,L|251:51,1,65,2|2,1:2|1:2,0:0:0:0:
176,24,192605,6,0,P|144:16|112:24,2,65,6|2|2,2:2|2:2|2:2,0:0:0:0:
144,96,193247,2,0,P|112:104|80:96,2,65,4|2|2,2:2|2:2|2:2,0:0:0:0:
