osu file format v14

[General]
AudioFilename: cool.mp3
AudioLeadIn: 0
PreviewTime: 75926
Countdown: 0
SampleSet: None
StackLeniency: 0
Mode: 0
LetterboxInBreaks: 0
WidescreenStoryboard: 1

[Editor]
Bookmarks: 28033,89747,103462,117176,130890,160462,163247,165176,178890
DistanceSpacing: 1
BeatDivisor: 2
GridSize: 4
TimelineZoom: 0.6999999

[Metadata]
Title:Girl Front
TitleUnicode:Girl Front
Artist:LOONA / ODD EYE CIRCLE
ArtistUnicode:이달의 소녀 오드아이써클
Creator:Marianna
Version:Hitsounds
Source:
Tags:LOOΠΔ girl of the month Blockberry Creative 블록베리 크리에이티브 김립 진솔 최리 Kim Lip JinSoul Choerry Mix&Match Peter dora- doraemonelf
BeatmapID:3378473
BeatmapSetID:676192

[Difficulty]
HPDrainRate:6
CircleSize:4
OverallDifficulty:9.2
ApproachRate:9.5
SliderMultiplier:3
SliderTickRate:1

[Events]
//Background and Video events
0,0,"bg.jpg",0,0
//Break Periods
2,69590,100794
2,131305,156080
2,156805,163365
//Storyboard Layer 0 (Background)
//Storyboard Layer 1 (Fail)
//Storyboard Layer 2 (Pass)
//Storyboard Layer 3 (Foreground)
//Storyboard Layer 4 (Overlay)
//Storyboard Sound Samples

[TimingPoints]
605,428.571428571429,4,2,1,40,1,0
2105,-100,4,2,2,40,0,0
2426,-100,4,2,1,40,0,0
3819,-100,4,2,2,50,0,0
4140,-100,4,2,1,50,0,0
4890,-100,4,2,2,50,0,0
5105,-100,4,2,1,50,0,0
5212,-100,4,2,2,50,0,0
5426,-100,4,2,1,50,0,0
5533,-100,4,2,2,60,0,0
5855,-100,4,2,1,60,0,0
5962,-100,4,2,2,60,0,0
6390,-100,4,2,1,60,0,0
6605,-100,4,2,2,60,0,0
6819,-100,4,2,1,60,0,0
6926,-100,4,2,2,60,0,0
7140,-100,4,2,1,60,0,0
7247,-100,4,2,2,60,0,0
7462,-100,4,2,2,70,0,0
7676,-100,4,2,1,70,0,0
7890,-100,4,2,2,70,0,0
8533,-100,4,2,1,70,0,0
8640,-100,4,2,2,70,0,0
8855,-100,4,2,1,70,0,0
8962,-100,4,2,2,70,0,0
9283,-100,4,2,1,70,0,0
9390,-100,4,2,2,70,0,0
9819,-100,4,2,3,70,0,0
10033,-100,4,2,2,70,0,0
10247,-100,4,2,1,70,0,0
10355,-100,4,2,2,70,0,0
10569,-100,4,2,1,70,0,0
10676,-100,4,2,2,80,0,0
10997,-100,4,2,1,80,0,0
11105,-100,4,2,2,80,0,0
11533,-100,4,2,3,80,0,0
11747,-100,4,2,2,80,0,0
11962,-100,4,2,1,80,0,0
12069,-100,4,2,2,80,0,0
12283,-100,4,2,1,80,0,0
12390,-100,4,2,2,80,0,0
12605,-100,4,2,1,80,0,0
13890,-100,4,2,2,65,0,0
14319,-100,4,2,4,65,0,0
15176,-100,4,2,1,65,0,0
16033,-100,4,2,2,65,0,0
17105,-100,4,2,1,65,0,0
17212,-100,4,2,2,65,0,0
17426,-100,4,2,1,65,0,0
17533,-100,4,2,2,65,0,0
19569,-100,4,2,1,65,0,0
19890,-100,4,2,2,65,0,0
20105,-100,4,2,1,65,0,0
20319,-100,4,2,2,65,0,0
20533,-100,4,2,1,65,0,0
20747,-100,4,2,2,65,0,0
20855,-100,4,2,1,65,0,0
21176,-100,4,2,2,65,0,0
22033,-100,4,2,1,65,0,0
22462,-100,4,2,2,65,0,0
22569,-100,4,2,1,65,0,0
22890,-100,4,2,2,65,0,0
23962,-100,4,2,1,65,0,0
24069,-100,4,2,2,65,0,0
24283,-100,4,2,1,65,0,0
24390,-100,4,2,2,65,0,0
25997,-100,4,2,1,65,0,0
26105,-100,4,2,2,65,0,0
26426,-100,4,2,1,65,0,0
26533,-100,4,2,2,65,0,0
27069,-100,4,2,1,65,0,0
27176,-100,4,2,2,65,0,0
27497,-100,4,2,1,65,0,0
27605,-100,4,2,2,65,0,0
28033,-100,4,2,5,70,0,0
28247,-100,4,2,1,70,0,0
28462,-100,4,2,2,70,0,0
28676,-100,4,2,1,70,0,0
28890,-100,4,2,2,70,0,0
29105,-100,4,2,1,70,0,0
29533,-100,4,2,6,70,0,0
30819,-100,4,2,1,70,0,0
31033,-100,4,2,2,70,0,0
31140,-100,4,2,1,70,0,0
31247,-100,4,2,2,70,0,0
32533,-100,4,2,1,70,0,0
32962,-100,4,2,2,70,0,0
33283,-100,4,2,1,70,0,0
33390,-100,4,2,2,70,0,0
34247,-100,4,2,1,70,0,0
34890,-100,4,2,2,70,0,0
35319,-100,4,2,1,70,0,0
35533,-100,4,2,2,70,0,0
35747,-100,4,2,1,70,0,0
36390,-100,4,2,2,70,0,0
37676,-100,4,2,1,70,0,0
37783,-100,4,2,2,70,0,0
38105,-100,4,2,1,70,0,0
38747,-100,4,2,2,70,0,0
39390,-100,4,2,1,70,0,0
39497,-100,4,2,2,70,0,0
39605,-100,4,2,7,70,0,0
39712,-100,4,2,1,70,0,0
39819,-100,4,2,2,70,0,0
40033,-100,4,2,1,80,0,0
40462,-100,4,2,8,80,0,0
40676,-100,4,2,9,80,0,0
40890,-100,4,2,8,80,0,0
41105,-100,4,2,9,80,0,0
41319,-100,4,2,10,80,0,0
41747,-100,4,2,11,85,0,0
41962,-100,4,2,12,85,0,0
42069,-100,4,2,13,85,0,0
42390,-100,4,2,8,85,0,0
42497,-100,4,2,1,85,0,0
42605,-100,4,2,8,85,0,0
42819,-100,4,2,3,85,0,0
43033,-100,4,2,1,85,0,0
43247,-100,4,2,8,85,0,0
43676,-100,4,2,3,85,0,0
43890,-100,4,2,1,85,0,0
44105,-100,4,2,8,85,0,0
44212,-100,4,2,1,85,0,0
44319,-100,4,2,10,85,0,0
44533,-100,4,2,14,85,0,0
44640,-100,4,2,1,85,0,0
44747,-100,4,2,8,85,0,0
44855,-100,4,2,1,85,0,0
44962,-100,4,2,8,85,0,0
45390,-100,4,2,12,85,0,0
45605,-100,4,2,1,85,0,0
45819,-100,4,2,8,85,0,0
45926,-100,4,2,1,85,0,0
46033,-100,4,2,8,85,0,0
46247,-100,4,2,3,85,0,0
46355,-100,4,2,15,85,0,0
46462,-100,4,2,1,85,0,0
46676,-100,4,2,16,85,0,0
46890,-100,4,2,3,85,0,0
47212,-100,4,2,2,85,0,0
47319,-100,4,2,1,85,0,0
47533,-100,4,2,8,85,0,0
47747,-100,4,2,10,85,0,0
47962,-100,4,2,14,85,0,0
48069,-100,4,2,1,85,0,0
48176,-100,4,2,10,85,0,0
48390,-100,4,2,8,85,0,0
48605,-100,4,2,1,85,0,0
48819,-100,4,2,3,85,0,0
49033,-100,4,2,8,85,0,0
49676,-100,4,2,3,85,0,0
49783,-100,4,2,10,85,0,0
49997,-100,4,2,1,85,0,0
50105,-100,4,2,14,85,0,0
50426,-100,4,2,3,85,0,0
50747,-100,4,2,8,85,0,0
51390,-100,4,2,3,85,0,0
51497,-100,4,2,17,85,0,0
51605,-100,4,2,1,85,0,0
51819,-100,4,2,14,85,0,0
52247,-100,4,2,3,85,0,0
52462,-100,4,2,8,85,0,0
53105,-100,4,2,3,85,0,0
53212,-100,4,2,10,85,0,0
53426,-100,4,2,1,85,0,0
53533,-100,4,2,14,85,0,0
53855,-100,4,2,3,85,0,0
54176,-100,4,2,8,85,0,0
54390,-100,4,2,18,85,0,0
54605,-100,4,2,8,85,0,0
54819,-100,4,2,18,85,0,0
54926,-100,4,2,1,85,0,0
55033,-100,4,2,10,85,0,0
55140,-100,4,2,1,85,0,0
55462,-100,4,2,11,85,0,0
55676,-100,4,2,12,85,0,0
55783,-100,4,2,13,85,0,0
56105,-100,4,2,3,85,0,0
56747,-100,4,2,8,85,0,0
56855,-100,4,2,3,85,0,0
57605,-100,4,2,1,85,0,0
57819,-100,4,2,8,85,0,0
57926,-100,4,2,1,85,0,0
58033,-100,4,2,10,85,0,0
58247,-100,4,2,14,85,0,0
58355,-100,4,2,1,85,0,0
58462,-100,4,2,10,85,0,0
58676,-100,4,2,8,85,0,0
59105,-100,4,2,18,85,0,0
59319,-100,4,2,8,85,0,0
59533,-100,4,2,18,85,0,0
59640,-100,4,2,1,85,0,0
59747,-100,4,2,8,85,0,0
59962,-100,4,2,18,85,0,0
60069,-100,4,2,1,85,0,0
60176,-100,4,2,8,85,0,0
60283,-100,4,2,1,85,0,0
60390,-100,4,2,16,85,0,0
60605,-100,4,2,3,85,0,0
61033,-100,4,2,1,85,0,0
61247,-100,4,2,8,85,0,0
61355,-100,4,2,1,85,0,0
61462,-100,4,2,10,85,0,0
61676,-100,4,2,14,85,0,0
61783,-100,4,2,1,85,0,0
61890,-100,4,2,10,85,0,0
61997,-100,4,2,1,85,0,0
62105,-100,4,2,8,85,0,0
62319,-100,4,2,11,85,0,0
62533,-100,4,2,8,85,0,0
62962,-100,4,2,15,85,0,0
63069,-100,4,2,1,85,0,0
63176,-100,4,2,8,85,0,0
63390,-100,4,2,14,85,0,0
63497,-100,4,2,1,85,0,0
63605,-100,4,2,8,85,0,0
63819,-100,4,2,15,85,0,0
64033,-100,4,2,8,85,0,0
64247,-100,4,2,3,85,0,0
64462,-100,4,2,1,85,0,0
64676,-100,4,2,15,85,0,0
64783,-100,4,2,1,85,0,0
64890,-100,4,2,8,85,0,0
65105,-100,4,2,14,85,0,0
65212,-100,4,2,1,85,0,0
65319,-100,4,2,8,85,0,0
65533,-100,4,2,15,85,0,0
65747,-100,4,2,8,85,0,0
65962,-100,4,2,3,85,0,0
66176,-100,4,2,1,85,0,0
66390,-100,4,2,15,85,0,0
66497,-100,4,2,1,85,0,0
66605,-100,4,2,8,85,0,0
66819,-100,4,2,14,85,0,0
66926,-100,4,2,1,85,0,0
67033,-100,4,2,8,85,0,0
67247,-100,4,2,15,85,0,0
67676,-100,4,2,3,85,0,0
67890,-100,4,2,8,85,0,0
68105,-100,4,2,18,85,0,0
68212,-100,4,2,1,85,0,0
68319,-100,4,2,8,85,0,0
68533,-100,4,2,18,85,0,0
68640,-100,4,2,1,85,0,0
68747,-100,4,2,10,85,0,0
68962,-100,4,2,1,85,0,0
69176,-100,4,2,19,70,0,0
69390,-100,4,2,20,70,0,0
69605,-100,4,2,21,70,0,0
69819,-100,4,2,2,70,0,0
70033,-100,4,2,21,70,0,0
70890,-100,4,2,2,70,0,0
71105,-100,4,2,21,70,0,0
71533,-100,4,2,2,70,0,0
71747,-100,4,2,21,70,0,0
72605,-100,4,2,2,70,0,0
72819,-100,4,2,21,70,0,0
73247,-100,4,2,2,70,0,0
73462,-100,4,2,21,70,0,0
74319,-100,4,2,7,70,0,0
74426,-100,4,2,1,70,0,0
74962,-100,4,2,2,70,0,0
76033,-100,4,2,2,60,0,0
76462,-100,4,2,1,60,0,0
77105,-100,4,2,2,60,0,0
77212,-100,4,2,1,60,0,0
77319,-100,4,2,2,60,0,0
77533,-100,4,2,1,60,0,0
77962,-100,4,2,2,60,0,0
79462,-100,4,2,1,60,0,0
79890,-100,4,2,2,60,0,0
80212,-100,4,2,1,60,0,0
80319,-100,4,2,2,60,0,0
80640,-100,4,2,1,60,0,0
80747,-100,4,2,2,60,0,0
80962,-100,4,2,1,60,0,0
81176,-100,4,2,2,60,0,0
81390,-100,4,2,1,60,0,0
81605,-100,4,2,2,60,0,0
81819,-100,4,2,1,60,0,0
82033,-100,4,2,2,60,0,0
82355,-100,4,2,1,60,0,0
82462,-100,4,2,2,60,0,0
82676,-100,4,2,22,60,0,0
82890,-100,4,2,2,70,0,0
84926,-100,4,2,1,70,0,0
85033,-100,4,2,2,70,0,0
85140,-100,4,2,1,70,0,0
85247,-100,4,2,2,70,0,0
85355,-100,4,2,1,70,0,0
85462,-100,4,2,2,70,0,0
85783,-100,4,2,1,70,0,0
85890,-100,4,2,6,70,0,0
86105,-100,4,2,1,70,0,0
86747,-100,4,2,6,70,0,0
89747,-100,4,2,5,70,0,0
90176,-100,4,2,6,70,0,0
97033,-100,4,2,13,70,0,0
98319,-100,4,2,4,70,0,0
101319,-100,4,2,7,70,0,0
101533,-100,4,2,2,70,0,0
101747,-100,4,2,1,80,0,0
102176,-100,4,2,8,80,0,0
102390,-100,4,2,9,80,0,0
102605,-100,4,2,8,80,0,0
102819,-100,4,2,9,80,0,0
103033,-100,4,2,10,80,0,0
103462,-100,4,2,11,85,0,0
103676,-100,4,2,12,85,0,0
103783,-100,4,2,13,85,0,0
104105,-100,4,2,8,85,0,0
104212,-100,4,2,1,85,0,0
104319,-100,4,2,8,85,0,0
104533,-100,4,2,3,85,0,0
104747,-100,4,2,1,85,0,0
104962,-100,4,2,8,85,0,0
105390,-100,4,2,3,85,0,0
105605,-100,4,2,1,85,0,0
105819,-100,4,2,8,85,0,0
105926,-100,4,2,1,85,0,0
106033,-100,4,2,10,85,0,0
106247,-100,4,2,14,85,0,0
106355,-100,4,2,1,85,0,0
106462,-100,4,2,8,85,0,0
106569,-100,4,2,1,85,0,0
106676,-100,4,2,8,85,0,0
107105,-100,4,2,12,85,0,0
107319,-100,4,2,1,85,0,0
107533,-100,4,2,8,85,0,0
107640,-100,4,2,1,85,0,0
107747,-100,4,2,8,85,0,0
107962,-100,4,2,3,85,0,0
108069,-100,4,2,15,85,0,0
108176,-100,4,2,1,85,0,0
108390,-100,4,2,16,85,0,0
108605,-100,4,2,3,85,0,0
108926,-100,4,2,2,85,0,0
109033,-100,4,2,1,85,0,0
109247,-100,4,2,8,85,0,0
109462,-100,4,2,10,85,0,0
109676,-100,4,2,14,85,0,0
109783,-100,4,2,1,85,0,0
109890,-100,4,2,10,85,0,0
110105,-100,4,2,8,85,0,0
110319,-100,4,2,1,85,0,0
110533,-100,4,2,3,85,0,0
110747,-100,4,2,8,85,0,0
111390,-100,4,2,3,85,0,0
111497,-100,4,2,10,85,0,0
111712,-100,4,2,1,85,0,0
111819,-100,4,2,14,85,0,0
112140,-100,4,2,3,85,0,0
112462,-100,4,2,8,85,0,0
113105,-100,4,2,3,85,0,0
113212,-100,4,2,17,85,0,0
113319,-100,4,2,1,85,0,0
113533,-100,4,2,14,85,0,0
113962,-100,4,2,3,85,0,0
114176,-100,4,2,8,85,0,0
114819,-100,4,2,3,85,0,0
114926,-100,4,2,10,85,0,0
115140,-100,4,2,1,85,0,0
115247,-100,4,2,14,85,0,0
115569,-100,4,2,23,85,0,0
115890,-100,4,2,8,85,0,0
116105,-100,4,2,18,85,0,0
116319,-100,4,2,8,85,0,0
116533,-100,4,2,18,85,0,0
116640,-100,4,2,1,85,0,0
116747,-100,4,2,10,85,0,0
116855,-100,4,2,1,85,0,0
117176,-100,4,2,11,85,0,0
117390,-100,4,2,12,85,0,0
117497,-100,4,2,13,85,0,0
117819,-100,4,2,3,85,0,0
118462,-100,4,2,8,85,0,0
118569,-100,4,2,3,85,0,0
119319,-100,4,2,1,85,0,0
119533,-100,4,2,8,85,0,0
119640,-100,4,2,1,85,0,0
119747,-100,4,2,10,85,0,0
119962,-100,4,2,14,85,0,0
120069,-100,4,2,1,85,0,0
120176,-100,4,2,10,85,0,0
120390,-100,4,2,8,85,0,0
120819,-100,4,2,18,85,0,0
121033,-100,4,2,8,85,0,0
121247,-100,4,2,18,85,0,0
121355,-100,4,2,1,85,0,0
121462,-100,4,2,8,85,0,0
121676,-100,4,2,18,85,0,0
121783,-100,4,2,1,85,0,0
121890,-100,4,2,8,85,0,0
121997,-100,4,2,1,85,0,0
122105,-100,4,2,16,85,0,0
122319,-100,4,2,3,85,0,0
122747,-100,4,2,1,85,0,0
122962,-100,4,2,8,85,0,0
123069,-100,4,2,1,85,0,0
123176,-100,4,2,10,85,0,0
123390,-100,4,2,14,85,0,0
123497,-100,4,2,1,85,0,0
123605,-100,4,2,10,85,0,0
123712,-100,4,2,1,85,0,0
123819,-100,4,2,8,85,0,0
124033,-100,4,2,11,85,0,0
124247,-100,4,2,8,85,0,0
124676,-100,4,2,15,85,0,0
124783,-100,4,2,1,85,0,0
124890,-100,4,2,8,85,0,0
125105,-100,4,2,14,85,0,0
125212,-100,4,2,1,85,0,0
125319,-100,4,2,8,85,0,0
125533,-100,4,2,15,85,0,0
125747,-100,4,2,8,85,0,0
125962,-100,4,2,3,85,0,0
126176,-100,4,2,1,85,0,0
126390,-100,4,2,15,85,0,0
126497,-100,4,2,1,85,0,0
126605,-100,4,2,8,85,0,0
126819,-100,4,2,14,85,0,0
126926,-100,4,2,1,85,0,0
127033,-100,4,2,8,85,0,0
127247,-100,4,2,15,85,0,0
127462,-100,4,2,8,85,0,0
127676,-100,4,2,3,85,0,0
127890,-100,4,2,1,85,0,0
128105,-100,4,2,15,85,0,0
128212,-100,4,2,1,85,0,0
128319,-100,4,2,8,85,0,0
128533,-100,4,2,14,85,0,0
128640,-100,4,2,1,85,0,0
128747,-100,4,2,8,85,0,0
128962,-100,4,2,15,85,0,0
129390,-100,4,2,3,85,0,0
129605,-100,4,2,8,85,0,0
129819,-100,4,2,18,85,0,0
129926,-100,4,2,1,85,0,0
130033,-100,4,2,8,85,0,0
130247,-100,4,2,18,85,0,0
130355,-100,4,2,1,85,0,0
130462,-100,4,2,10,85,0,0
130676,-100,4,2,1,85,0,0
130890,-100,4,2,19,70,0,0
131105,-100,4,2,20,70,0,0
131319,-100,4,2,21,70,0,0
131533,-100,4,2,2,70,0,0
131747,-100,4,2,21,70,0,0
132605,-100,4,2,2,70,0,0
132819,-100,4,2,21,70,0,0
133247,-100,4,2,2,70,0,0
133462,-100,4,2,21,70,0,0
134319,-100,4,2,2,70,0,0
134533,-100,4,2,21,70,0,0
134962,-100,4,2,2,70,0,0
135176,-100,4,2,21,70,0,0
136033,-100,4,2,2,70,0,0
136247,-100,4,2,21,70,0,0
136676,-100,4,2,2,70,0,0
136890,-100,4,2,21,70,0,0
137747,-100,4,2,21,50,0,0
138176,-100,4,2,2,50,0,0
138605,-100,4,2,24,50,0,0
139890,-100,4,2,2,50,0,0
140319,-100,4,2,24,50,0,0
144390,-100,4,2,2,50,0,0
145462,-100,4,2,24,50,0,0
146747,-100,4,2,2,50,0,0
147176,-100,4,2,1,50,0,0
149747,-100,4,2,24,50,0,0
151247,-100,4,2,1,50,0,0
151462,-100,4,2,3,50,0,0
156176,-100,4,2,2,50,0,0
156605,-100,4,2,25,50,0,0
157676,-100,4,2,6,50,0,0
158212,-100,4,2,1,50,0,0
158319,-100,4,2,1,60,0,0
159819,-100,4,2,2,60,0,0
160140,-100,4,2,1,60,0,0
161533,-100,4,2,2,60,0,0
161855,-100,4,2,1,60,0,0
162605,-100,4,2,2,60,0,0
162819,-100,4,2,1,60,0,0
162926,-100,4,2,2,60,0,0
163140,-100,4,2,1,60,0,0
163247,-100,4,2,2,60,0,0
163890,-100,4,2,8,85,0,0
164105,-100,4,2,9,85,0,0
164319,-100,4,2,8,85,0,0
164533,-100,4,2,9,85,0,0
164747,-100,4,2,10,85,0,0
165176,-100,4,2,11,90,0,0
165390,-100,4,2,12,90,0,0
165497,-100,4,2,13,90,0,0
165819,-100,4,2,8,90,0,0
165926,-100,4,2,1,90,0,0
166033,-100,4,2,8,90,0,0
166247,-100,4,2,3,90,0,0
166462,-100,4,2,1,90,0,0
166676,-100,4,2,8,90,0,0
167105,-100,4,2,3,90,0,0
167319,-100,4,2,1,90,0,0
167533,-100,4,2,8,90,0,0
167640,-100,4,2,1,90,0,0
167747,-100,4,2,10,90,0,0
167962,-100,4,2,14,90,0,0
168069,-100,4,2,1,90,0,0
168176,-100,4,2,8,90,0,0
168283,-100,4,2,1,90,0,0
168390,-100,4,2,8,90,0,0
168819,-100,4,2,12,90,0,0
169033,-100,4,2,1,90,0,0
169247,-100,4,2,8,90,0,0
169355,-100,4,2,1,90,0,0
169462,-100,4,2,8,90,0,0
169676,-100,4,2,3,90,0,0
169783,-100,4,2,15,90,0,0
169890,-100,4,2,1,90,0,0
170105,-100,4,2,16,90,0,0
170319,-100,4,2,3,90,0,0
170747,-100,4,2,1,90,0,0
170962,-100,4,2,8,90,0,0
171176,-100,4,2,10,90,0,0
171390,-100,4,2,14,90,0,0
171497,-100,4,2,1,90,0,0
171605,-100,4,2,10,90,0,0
171819,-100,4,2,8,90,0,0
172033,-100,4,2,1,90,0,0
172247,-100,4,2,3,90,0,0
172462,-100,4,2,8,90,0,0
173105,-100,4,2,3,90,0,0
173212,-100,4,2,10,90,0,0
173426,-100,4,2,1,90,0,0
173533,-100,4,2,14,90,0,0
173855,-100,4,2,3,90,0,0
174176,-100,4,2,8,90,0,0
174819,-100,4,2,3,90,0,0
174926,-100,4,2,17,90,0,0
175033,-100,4,2,1,90,0,0
175247,-100,4,2,14,90,0,0
175676,-100,4,2,3,90,0,0
175890,-100,4,2,8,90,0,0
176533,-100,4,2,3,90,0,0
176640,-100,4,2,10,90,0,0
176855,-100,4,2,1,90,0,0
176962,-100,4,2,14,90,0,0
177283,-100,4,2,23,90,0,0
177605,-100,4,2,8,90,0,0
177819,-100,4,2,18,90,0,0
178033,-100,4,2,8,90,0,0
178247,-100,4,2,18,90,0,0
178355,-100,4,2,1,90,0,0
178462,-100,4,2,10,90,0,0
178569,-100,4,2,1,90,0,0
178890,-100,4,2,11,90,0,0
179105,-100,4,2,12,90,0,0
179212,-100,4,2,13,90,0,0
179533,-100,4,2,3,90,0,0
180176,-100,4,2,8,90,0,0
180283,-100,4,2,3,90,0,0
181033,-100,4,2,1,90,0,0
181247,-100,4,2,8,90,0,0
181355,-100,4,2,1,90,0,0
181462,-100,4,2,10,90,0,0
181676,-100,4,2,14,90,0,0
181783,-100,4,2,1,90,0,0
181890,-100,4,2,10,90,0,0
182105,-100,4,2,8,90,0,0
182533,-100,4,2,18,90,0,0
182747,-100,4,2,8,90,0,0
182962,-100,4,2,18,90,0,0
183069,-100,4,2,1,90,0,0
183176,-100,4,2,8,90,0,0
183390,-100,4,2,18,90,0,0
183497,-100,4,2,1,90,0,0
183605,-100,4,2,8,90,0,0
183712,-100,4,2,1,90,0,0
183819,-100,4,2,16,90,0,0
184033,-100,4,2,3,90,0,0
184462,-100,4,2,1,90,0,0
184676,-100,4,2,8,90,0,0
184783,-100,4,2,1,90,0,0
184890,-100,4,2,10,90,0,0
185105,-100,4,2,14,90,0,0
185212,-100,4,2,1,90,0,0
185319,-100,4,2,10,90,0,0
185426,-100,4,2,1,90,0,0
185533,-100,4,2,8,90,0,0
185747,-100,4,2,11,90,0,0
185962,-100,4,2,8,90,0,0
186390,-100,4,2,15,90,0,0
186497,-100,4,2,1,90,0,0
186605,-100,4,2,8,90,0,0
186819,-100,4,2,14,90,0,0
186926,-100,4,2,1,90,0,0
187033,-100,4,2,8,90,0,0
187247,-100,4,2,15,90,0,0
187462,-100,4,2,8,90,0,0
187676,-100,4,2,3,90,0,0
187890,-100,4,2,1,90,0,0
188105,-100,4,2,15,90,0,0
188212,-100,4,2,1,90,0,0
188319,-100,4,2,8,90,0,0
188533,-100,4,2,14,90,0,0
188640,-100,4,2,1,90,0,0
188747,-100,4,2,8,90,0,0
188962,-100,4,2,15,90,0,0
189176,-100,4,2,8,90,0,0
189390,-100,4,2,3,90,0,0
189605,-100,4,2,1,90,0,0
189819,-100,4,2,15,90,0,0
189926,-100,4,2,1,90,0,0
190033,-100,4,2,8,90,0,0
190247,-100,4,2,14,90,0,0
190355,-100,4,2,1,90,0,0
190462,-100,4,2,8,90,0,0
190676,-100,4,2,15,90,0,0
191105,-100,4,2,3,90,0,0
191319,-100,4,2,8,90,0,0
191533,-100,4,2,18,90,0,0
191640,-100,4,2,1,90,0,0
191747,-100,4,2,8,90,0,0
191962,-100,4,2,18,90,0,0
192069,-100,4,2,1,90,0,0
192176,-100,4,2,10,90,0,0
192390,-100,4,2,1,90,0,0
192605,-100,4,2,26,60,0,0
192819,-100,4,2,20,60,0,0
193033,-100,4,2,21,60,0,0
193247,-100,4,2,2,60,0,0
193462,-100,4,2,21,60,0,0

[Colours]
Combo1 : 227,51,64
Combo2 : 61,41,231
Combo3 : 183,40,180

[HitObjects]
256,192,605,5,6,2:2:0:0:
256,192,819,5,2,2:2:0:0:
256,192,926,5,2,2:2:0:0:
256,192,1033,5,2,2:2:0:0:
256,192,1247,5,2,2:2:0:0:
256,192,1462,5,2,2:2:0:0:
256,192,1676,5,2,2:2:0:0:
256,192,1783,5,2,2:2:0:0:
256,192,1997,5,2,2:2:0:0:
256,192,2105,5,2,2:2:0:0:
256,192,2426,5,2,2:2:0:0:
256,192,2533,5,2,2:2:0:0:
256,192,2747,5,2,2:2:0:0:
256,192,2962,5,2,2:2:0:0:
256,192,3069,5,2,2:2:0:0:
256,192,3176,5,2,2:2:0:0:
256,192,3390,5,2,2:2:0:0:
256,192,3497,5,2,2:2:0:0:
256,192,3712,5,2,2:2:0:0:
256,192,3819,5,2,2:2:0:0:
256,192,4140,5,2,2:2:0:0:
256,192,4247,5,2,2:2:0:0:
256,192,4462,5,2,2:2:0:0:
256,192,4676,5,2,2:2:0:0:
256,192,4783,5,2,2:2:0:0:
256,192,4890,5,2,2:2:0:0:
256,192,5105,5,2,2:2:0:0:
256,192,5212,5,2,2:2:0:0:
256,192,5426,5,2,2:2:0:0:
256,192,5533,5,2,2:2:0:0:
256,192,5855,5,2,2:2:0:0:
256,192,5962,5,2,2:2:0:0:
256,192,6176,5,2,2:2:0:0:
256,192,6390,5,2,2:2:0:0:
256,192,6497,5,2,2:2:0:0:
256,192,6605,5,2,2:2:0:0:
256,192,6819,5,2,2:2:0:0:
256,192,6926,5,2,2:2:0:0:
256,192,7140,5,2,2:2:0:0:
256,192,7247,5,2,2:2:0:0:
256,192,7462,5,6,2:2:0:0:
256,192,7676,5,2,2:2:0:0:
256,192,7783,5,2,2:2:0:0:
256,192,7890,5,2,2:2:0:0:
256,192,8105,5,6,2:2:0:0:
256,192,8319,5,2,2:2:0:0:
256,192,8533,5,2,2:2:0:0:
256,192,8640,5,2,2:2:0:0:
256,192,8855,5,2,2:2:0:0:
256,192,8962,5,2,2:2:0:0:
256,192,9176,5,4,2:2:0:0:
256,192,9283,5,2,2:2:0:0:
256,192,9390,5,2,2:2:0:0:
256,192,9605,5,2,2:2:0:0:
256,192,9819,5,6,2:2:0:0:
256,192,9926,5,2,2:2:0:0:
256,192,10033,5,2,2:2:0:0:
256,192,10247,5,2,2:2:0:0:
256,192,10355,5,2,2:2:0:0:
256,192,10569,5,2,2:2:0:0:
256,192,10676,5,2,2:2:0:0:
256,192,10890,5,4,2:2:0:0:
256,192,10997,5,2,2:2:0:0:
256,192,11105,5,2,2:2:0:0:
256,192,11319,5,2,2:2:0:0:
256,192,11533,5,6,2:2:0:0:
256,192,11640,5,2,2:2:0:0:
256,192,11747,5,2,2:2:0:0:
256,192,11962,5,2,2:2:0:0:
256,192,12069,5,2,2:2:0:0:
256,192,12283,5,2,2:2:0:0:
256,192,12390,5,2,2:2:0:0:
256,192,12605,5,8,2:3:0:0:
256,192,12926,5,4,2:3:0:0:
256,192,13033,5,2,2:2:0:0:
256,192,13247,5,10,2:3:0:0:
256,192,13462,5,6,2:3:0:0:
256,192,13676,5,6,2:3:0:0:
256,192,13890,5,10,2:2:0:0:
256,192,14105,5,8,2:2:0:0:
256,192,14319,5,6,3:2:0:0:
256,192,14747,5,2,1:2:0:0:
256,192,14962,5,0,3:3:0:0:
256,192,15176,5,2,2:2:0:0:
256,192,15283,5,2,2:2:0:0:
256,192,15390,5,2,2:2:0:0:
256,192,15497,5,2,2:2:0:0:
256,192,15605,5,2,1:2:0:0:
256,192,15712,5,2,2:2:0:0:
256,192,15819,5,2,2:2:0:0:
256,192,16033,5,2,3:2:0:0:
256,192,16247,5,2,2:2:0:0:
256,192,16462,5,2,1:2:0:0:
256,192,16676,5,2,3:2:0:0:
256,192,16890,5,2,2:2:0:0:
256,192,17105,5,2,2:2:0:0:
256,192,17212,5,2,2:2:0:0:
256,192,17319,5,0,1:1:0:0:
256,192,17426,5,2,2:2:0:0:
256,192,17533,5,2,2:2:0:0:
256,192,17747,5,0,3:3:0:0:
256,192,18176,5,0,1:1:0:0:
256,192,18283,5,2,2:2:0:0:
256,192,18390,5,2,3:2:0:0:
256,192,18497,5,2,2:2:0:0:
256,192,18605,5,2,2:2:0:0:
256,192,18819,5,2,2:2:0:0:
256,192,18926,5,2,2:2:0:0:
256,192,19033,5,0,1:1:0:0:
256,192,19140,5,2,2:2:0:0:
256,192,19247,5,2,2:2:0:0:
256,192,19462,5,0,3:3:0:0:
256,192,19569,5,2,2:2:0:0:
256,192,19676,5,2,2:2:0:0:
256,192,19890,5,2,1:2:0:0:
256,192,20105,5,2,3:2:0:0:
256,192,20212,5,2,2:2:0:0:
256,192,20319,5,2,2:2:0:0:
256,192,20533,5,2,3:2:0:0:
256,192,20640,5,2,2:2:0:0:
256,192,20747,5,2,1:2:0:0:
256,192,20855,5,2,2:2:0:0:
256,192,20962,5,2,2:2:0:0:
256,192,21176,5,2,3:2:0:0:
256,192,21605,5,2,1:2:0:0:
256,192,21819,5,0,3:3:0:0:
256,192,22033,5,2,2:2:0:0:
256,192,22140,5,2,2:2:0:0:
256,192,22247,5,2,2:2:0:0:
256,192,22355,5,2,2:2:0:0:
256,192,22462,5,2,1:2:0:0:
256,192,22569,5,2,2:2:0:0:
256,192,22676,5,2,2:2:0:0:
256,192,22890,5,2,3:2:0:0:
256,192,23319,5,0,1:1:0:0:
256,192,23533,5,0,3:3:0:0:
256,192,23747,5,2,2:2:0:0:
256,192,23962,5,2,2:2:0:0:
256,192,24069,5,2,2:2:0:0:
256,192,24176,5,0,1:1:0:0:
256,192,24283,5,2,2:2:0:0:
256,192,24390,5,2,2:2:0:0:
256,192,24605,5,0,3:3:0:0:
256,192,25033,5,2,1:2:0:0:
256,192,25140,5,2,2:2:0:0:
256,192,25247,5,2,3:2:0:0:
256,192,25355,5,2,2:2:0:0:
256,192,25462,5,2,2:2:0:0:
256,192,25676,5,2,2:2:0:0:
256,192,25783,5,2,2:2:0:0:
256,192,25890,5,0,1:1:0:0:
256,192,25997,5,2,2:2:0:0:
256,192,26105,5,2,2:2:0:0:
256,192,26319,5,0,3:3:0:0:
256,192,26426,5,2,2:2:0:0:
256,192,26533,5,2,2:2:0:0:
256,192,26747,5,2,1:2:0:0:
256,192,26962,5,2,3:2:0:0:
256,192,27069,5,2,2:2:0:0:
256,192,27176,5,2,2:2:0:0:
256,192,27390,5,2,3:2:0:0:
256,192,27497,5,2,2:2:0:0:
256,192,27605,5,2,1:2:0:0:
256,192,27819,5,2,2:2:0:0:
256,192,28033,5,6,3:2:0:0:
256,192,28247,5,2,2:2:0:0:
256,192,28355,5,2,2:2:0:0:
256,192,28462,5,2,1:2:0:0:
256,192,28676,5,2,3:2:0:0:
256,192,28783,5,2,2:2:0:0:
256,192,28890,5,2,2:2:0:0:
256,192,29105,5,2,2:2:0:0:
256,192,29212,5,2,2:2:0:0:
256,192,29319,5,0,1:1:0:0:
256,192,29426,5,2,2:2:0:0:
256,192,29533,5,2,2:2:0:0:
256,192,29747,5,0,3:3:0:0:
256,192,29962,5,2,2:2:0:0:
256,192,30176,5,2,1:2:0:0:
256,192,30390,5,0,3:3:0:0:
256,192,30605,5,6,2:2:0:0:
256,192,30819,5,10,2:2:0:0:
256,192,30926,5,2,2:2:0:0:
256,192,31033,5,10,1:2:0:0:
256,192,31140,5,2,2:2:0:0:
256,192,31247,5,2,2:2:0:0:
256,192,31462,5,2,3:2:0:0:
256,192,31676,5,2,2:2:0:0:
256,192,31890,5,2,1:2:0:0:
256,192,32105,5,0,3:3:0:0:
256,192,32319,5,2,2:2:0:0:
256,192,32533,5,2,2:2:0:0:
256,192,32640,5,2,2:2:0:0:
256,192,32747,5,0,1:1:0:0:
256,192,32855,5,2,2:2:0:0:
256,192,32962,5,2,2:2:0:0:
256,192,33176,5,0,3:3:0:0:
256,192,33283,5,2,2:2:0:0:
256,192,33390,5,2,2:2:0:0:
256,192,33605,5,2,1:2:0:0:
256,192,33819,5,2,3:2:0:0:
256,192,34033,5,2,2:2:0:0:
256,192,34247,5,10,3:2:0:0:
256,192,34355,5,2,2:2:0:0:
256,192,34462,5,8,1:2:0:0:
256,192,34676,5,2,2:2:0:0:
256,192,34890,5,2,3:2:0:0:
256,192,35319,5,2,1:2:0:0:
256,192,35533,5,2,3:2:0:0:
256,192,35747,5,2,2:2:0:0:
256,192,35962,5,2,2:2:0:0:
256,192,36069,5,2,2:2:0:0:
256,192,36176,5,2,1:2:0:0:
256,192,36390,5,2,2:2:0:0:
256,192,36605,5,2,3:2:0:0:
256,192,36819,5,2,2:2:0:0:
256,192,37033,5,2,1:2:0:0:
256,192,37247,5,2,3:2:0:0:
256,192,37462,5,2,2:2:0:0:
256,192,37676,5,10,2:2:0:0:
256,192,37783,5,2,2:2:0:0:
256,192,37890,5,8,1:2:0:0:
256,192,38105,5,2,2:2:0:0:
256,192,38319,5,2,3:2:0:0:
256,192,38747,5,2,1:2:0:0:
256,192,38962,5,0,3:3:0:0:
256,192,39176,5,2,2:2:0:0:
256,192,39390,5,2,2:2:0:0:
256,192,39497,5,2,2:2:0:0:
256,192,39605,5,2,1:2:0:0:
256,192,39712,5,2,2:2:0:0:
256,192,39819,5,2,2:2:0:0:
256,192,40033,5,8,2:3:0:0:
256,192,40355,5,4,2:3:0:0:
256,192,40462,5,2,2:2:0:0:
256,192,40676,5,10,2:2:0:0:
256,192,40890,5,6,2:2:0:0:
256,192,41105,5,6,2:2:0:0:
256,192,41319,5,10,2:2:0:0:
256,192,41533,5,8,2:2:0:0:
256,192,41747,5,6,3:2:0:0:
256,192,41962,5,10,2:2:0:0:
256,192,42069,5,2,2:2:0:0:
256,192,42176,5,6,1:2:0:0:
256,192,42390,5,10,3:2:0:0:
256,192,42497,5,2,2:2:0:0:
256,192,42605,5,2,2:2:0:0:
256,192,42819,5,10,2:2:0:0:
256,192,42926,5,2,2:2:0:0:
256,192,43033,5,0,1:1:0:0:
256,192,43140,5,2,2:2:0:0:
256,192,43247,5,10,2:2:0:0:
256,192,43462,5,2,3:2:0:0:
256,192,43676,5,10,2:2:0:0:
256,192,43890,5,2,1:2:0:0:
256,192,44105,5,10,3:2:0:0:
256,192,44212,5,2,2:2:0:0:
256,192,44319,5,2,2:2:0:0:
256,192,44533,5,10,2:2:0:0:
256,192,44640,5,2,2:2:0:0:
256,192,44747,5,2,1:2:0:0:
256,192,44855,5,2,2:2:0:0:
256,192,44962,5,10,2:2:0:0:
256,192,45176,5,2,3:2:0:0:
256,192,45390,5,10,2:2:0:0:
256,192,45605,5,2,1:2:0:0:
256,192,45819,5,10,3:2:0:0:
256,192,45926,5,2,2:2:0:0:
256,192,46033,5,2,2:2:0:0:
256,192,46247,5,10,2:2:0:0:
256,192,46355,5,2,2:2:0:0:
256,192,46462,5,0,1:1:0:0:
256,192,46569,5,2,2:2:0:0:
256,192,46676,5,10,2:2:0:0:
256,192,46890,5,0,3:3:0:0:
256,192,47105,5,10,2:2:0:0:
256,192,47212,5,2,2:2:0:0:
256,192,47319,5,2,1:2:0:0:
256,192,47533,5,10,3:2:0:0:
256,192,47747,5,2,2:2:0:0:
256,192,47962,5,10,3:2:0:0:
256,192,48069,5,2,2:2:0:0:
256,192,48176,5,2,1:2:0:0:
256,192,48390,5,10,2:2:0:0:
256,192,48605,5,4,3:2:0:0:
256,192,48819,5,10,2:2:0:0:
256,192,48926,5,2,2:2:0:0:
256,192,49033,5,2,1:2:0:0:
256,192,49247,5,10,3:2:0:0:
256,192,49462,5,2,2:2:0:0:
256,192,49676,5,10,2:2:0:0:
256,192,49783,5,2,2:2:0:0:
256,192,49890,5,0,1:1:0:0:
256,192,49997,5,2,2:2:0:0:
256,192,50105,5,10,2:2:0:0:
256,192,50319,5,0,3:3:0:0:
256,192,50426,5,2,2:2:0:0:
256,192,50533,5,10,2:2:0:0:
256,192,50640,5,2,2:2:0:0:
256,192,50747,5,2,1:2:0:0:
256,192,50962,5,10,3:2:0:0:
256,192,51176,5,2,2:2:0:0:
256,192,51390,5,10,2:2:0:0:
256,192,51497,5,6,2:2:0:0:
256,192,51605,5,0,1:1:0:0:
256,192,51712,5,2,2:2:0:0:
256,192,51819,5,10,2:2:0:0:
256,192,52033,5,0,3:3:0:0:
256,192,52247,5,10,2:2:0:0:
256,192,52355,5,2,2:2:0:0:
256,192,52462,5,2,1:2:0:0:
256,192,52676,5,10,3:2:0:0:
256,192,52890,5,2,2:2:0:0:
256,192,53105,5,10,2:2:0:0:
256,192,53212,5,2,2:2:0:0:
256,192,53319,5,0,1:1:0:0:
256,192,53426,5,2,2:2:0:0:
256,192,53533,5,10,2:2:0:0:
256,192,53747,5,0,3:3:0:0:
256,192,53855,5,2,2:2:0:0:
256,192,53962,5,10,2:2:0:0:
256,192,54069,5,2,2:2:0:0:
256,192,54176,5,2,1:2:0:0:
256,192,54390,5,10,3:2:0:0:
256,192,54605,5,2,2:2:0:0:
256,192,54819,5,10,3:2:0:0:
256,192,54926,5,2,2:2:0:0:
256,192,55033,5,2,1:2:0:0:
256,192,55140,5,2,2:2:0:0:
256,192,55247,5,0,1:1:0:0:
256,192,55355,5,0,1:1:0:0:
256,192,55462,5,6,3:2:0:0:
256,192,55676,5,10,2:2:0:0:
256,192,55783,5,2,2:2:0:0:
256,192,55890,5,6,1:2:0:0:
256,192,56105,5,10,3:2:0:0:
256,192,56212,5,2,2:2:0:0:
256,192,56319,5,2,2:2:0:0:
256,192,56533,5,10,2:2:0:0:
256,192,56640,5,2,2:2:0:0:
256,192,56747,5,2,1:2:0:0:
256,192,56855,5,2,2:2:0:0:
256,192,56962,5,10,2:2:0:0:
256,192,57176,5,0,3:3:0:0:
256,192,57390,5,10,2:2:0:0:
256,192,57605,5,2,1:2:0:0:
256,192,57819,5,10,3:2:0:0:
256,192,57926,5,2,2:2:0:0:
256,192,58033,5,2,2:2:0:0:
256,192,58247,5,10,2:2:0:0:
256,192,58355,5,2,2:2:0:0:
256,192,58462,5,2,1:2:0:0:
256,192,58676,5,10,2:2:0:0:
256,192,58890,5,2,3:2:0:0:
256,192,59105,5,10,2:2:0:0:
256,192,59319,5,2,1:2:0:0:
256,192,59533,5,10,3:2:0:0:
256,192,59640,5,2,2:2:0:0:
256,192,59747,5,2,2:2:0:0:
256,192,59962,5,10,2:2:0:0:
256,192,60069,5,2,2:2:0:0:
256,192,60176,5,2,1:2:0:0:
256,192,60283,5,2,2:2:0:0:
256,192,60390,5,10,2:2:0:0:
256,192,60605,5,0,3:3:0:0:
256,192,60819,5,10,2:2:0:0:
256,192,61033,5,2,1:2:0:0:
256,192,61247,5,10,3:2:0:0:
256,192,61355,5,2,2:2:0:0:
256,192,61462,5,2,2:2:0:0:
256,192,61676,5,10,3:2:0:0:
256,192,61783,5,2,2:2:0:0:
256,192,61890,5,2,1:2:0:0:
256,192,61997,5,2,2:2:0:0:
256,192,62105,5,10,2:2:0:0:
256,192,62319,5,6,3:2:0:0:
256,192,62533,5,8,2:2:0:0:
256,192,62747,5,0,1:1:0:0:
256,192,62962,5,10,3:2:0:0:
256,192,63069,5,2,2:2:0:0:
256,192,63176,5,2,2:2:0:0:
256,192,63390,5,10,2:2:0:0:
256,192,63497,5,2,2:2:0:0:
256,192,63605,5,2,1:2:0:0:
256,192,63819,5,10,2:2:0:0:
256,192,64033,5,2,3:2:0:0:
256,192,64247,5,10,2:2:0:0:
256,192,64462,5,2,1:2:0:0:
256,192,64676,5,10,3:2:0:0:
256,192,64783,5,2,2:2:0:0:
256,192,64890,5,2,2:2:0:0:
256,192,65105,5,10,2:2:0:0:
256,192,65212,5,2,2:2:0:0:
256,192,65319,5,2,1:2:0:0:
256,192,65533,5,10,2:2:0:0:
256,192,65747,5,2,3:2:0:0:
256,192,65962,5,10,2:2:0:0:
256,192,66176,5,2,1:2:0:0:
256,192,66390,5,10,3:2:0:0:
256,192,66497,5,2,2:2:0:0:
256,192,66605,5,2,2:2:0:0:
256,192,66819,5,10,2:2:0:0:
256,192,66926,5,2,2:2:0:0:
256,192,67033,5,2,1:2:0:0:
256,192,67247,5,10,2:2:0:0:
256,192,67462,5,0,3:3:0:0:
256,192,67676,5,10,2:2:0:0:
256,192,67890,5,2,1:2:0:0:
256,192,68105,5,10,3:2:0:0:
256,192,68212,5,2,2:2:0:0:
256,192,68319,5,2,2:2:0:0:
256,192,68533,5,10,3:2:0:0:
256,192,68640,5,2,2:2:0:0:
256,192,68747,5,2,1:2:0:0:
256,192,68962,5,2,1:2:0:0:
256,192,69069,5,0,1:1:0:0:
256,192,69176,5,6,3:2:0:0:
256,192,69390,5,2,2:2:0:0:
256,192,69605,5,2,2:2:0:0:
256,192,69819,5,4,3:2:0:0:
256,192,70033,5,2,3:2:0:0:
256,192,70247,5,2,2:2:0:0:
256,192,70462,5,0,3:3:0:0:
256,192,70890,5,4,2:2:0:0:
256,192,71105,5,2,3:2:0:0:
256,192,71319,5,2,3:2:0:0:
256,192,71533,5,4,2:2:0:0:
256,192,71747,5,2,3:2:0:0:
256,192,71962,5,2,2:2:0:0:
256,192,72176,5,0,3:3:0:0:
256,192,72605,5,4,3:2:0:0:
256,192,72819,5,2,2:2:0:0:
256,192,73033,5,2,2:2:0:0:
256,192,73247,5,4,3:2:0:0:
256,192,73462,5,2,3:2:0:0:
256,192,73676,5,2,2:2:0:0:
256,192,73890,5,0,3:3:0:0:
256,192,74319,5,12,2:2:0:0:
256,192,74426,5,4,2:3:0:0:
256,192,74533,5,4,2:3:0:0:
256,192,74640,5,8,2:3:0:0:
256,192,74747,5,4,2:3:0:0:
256,192,74962,5,4,2:2:0:0:
256,192,75069,5,4,2:3:0:0:
256,192,75122,5,4,2:3:0:0:
256,192,75176,5,4,2:3:0:0:
256,192,75283,5,4,2:3:0:0:
256,192,75390,5,4,2:3:0:0:
256,192,75497,5,4,2:3:0:0:
256,192,75605,5,4,2:3:0:0:
256,192,75712,5,4,2:3:0:0:
256,192,75819,5,4,2:3:0:0:
256,192,75926,5,4,2:3:0:0:
256,192,76033,5,2,2:2:0:0:
256,192,76462,5,2,2:2:0:0:
256,192,76676,5,2,2:2:0:0:
256,192,76890,5,2,2:2:0:0:
256,192,77105,5,2,2:2:0:0:
256,192,77212,5,2,2:2:0:0:
256,192,77319,5,2,2:2:0:0:
256,192,77533,5,2,2:2:0:0:
256,192,77962,5,6,3:3:0:0:
256,192,78069,5,4,3:3:0:0:
256,192,78176,5,6,3:3:0:0:
256,192,78283,5,4,3:3:0:0:
256,192,78390,5,6,3:3:0:0:
256,192,78497,5,4,3:3:0:0:
256,192,78605,5,6,3:3:0:0:
256,192,78926,5,6,3:3:0:0:
256,192,79247,5,6,3:3:0:0:
256,192,79462,5,2,3:2:0:0:
256,192,79890,5,2,3:2:0:0:
256,192,80105,5,2,2:2:0:0:
256,192,80212,5,2,2:2:0:0:
256,192,80319,5,2,3:2:0:0:
256,192,80533,5,2,2:2:0:0:
256,192,80640,5,2,2:2:0:0:
256,192,80747,5,2,3:2:0:0:
256,192,80962,5,2,2:2:0:0:
256,192,81176,5,2,3:2:0:0:
256,192,81283,5,2,2:2:0:0:
256,192,81390,5,2,2:2:0:0:
256,192,81605,5,2,3:2:0:0:
256,192,81712,5,2,2:2:0:0:
256,192,81819,5,2,2:2:0:0:
256,192,82033,5,2,3:2:0:0:
256,192,82355,5,10,2:2:0:0:
256,192,82462,5,2,3:2:0:0:
256,192,82676,5,14,2:2:0:0:
256,192,82890,5,2,3:2:0:0:
256,192,83212,5,2,2:2:0:0:
256,192,83319,5,2,3:2:0:0:
256,192,83426,5,2,2:2:0:0:
256,192,83533,5,2,2:2:0:0:
256,192,83640,5,2,2:2:0:0:
256,192,83747,5,2,3:2:0:0:
256,192,83962,5,2,2:2:0:0:
256,192,84069,5,2,2:2:0:0:
256,192,84176,5,0,3:3:0:0:
256,192,84283,5,2,2:2:0:0:
256,192,84390,5,2,2:2:0:0:
256,192,84605,5,2,3:2:0:0:
256,192,84819,5,2,2:2:0:0:
256,192,84926,5,2,2:2:0:0:
256,192,85033,5,2,3:2:0:0:
256,192,85140,5,2,2:2:0:0:
256,192,85247,5,2,2:2:0:0:
256,192,85355,5,2,2:2:0:0:
256,192,85462,5,2,3:2:0:0:
256,192,85676,5,2,2:2:0:0:
256,192,85783,5,2,2:2:0:0:
256,192,85890,5,6,3:2:0:0:
256,192,86105,5,2,2:2:0:0:
256,192,86319,5,2,3:2:0:0:
256,192,86426,5,2,2:2:0:0:
256,192,86533,5,2,2:2:0:0:
256,192,86747,5,2,3:2:0:0:
256,192,86855,5,2,2:2:0:0:
256,192,86962,5,2,2:2:0:0:
256,192,87069,5,2,2:2:0:0:
256,192,87176,5,2,3:2:0:0:
256,192,87390,5,2,2:2:0:0:
256,192,87497,5,2,2:2:0:0:
256,192,87605,5,0,3:3:0:0:
256,192,87712,5,2,2:2:0:0:
256,192,87819,5,2,2:2:0:0:
256,192,88033,5,4,3:2:0:0:
256,192,88247,5,2,2:2:0:0:
256,192,88462,5,2,3:2:0:0:
256,192,88676,5,2,2:2:0:0:
256,192,88890,5,2,3:2:0:0:
256,192,89105,5,2,2:2:0:0:
256,192,89212,5,0,3:3:0:0:
256,192,89319,5,2,2:2:0:0:
256,192,89533,5,2,3:2:0:0:
256,192,89747,5,14,3:2:0:0:
256,192,90176,5,10,2:2:0:0:
256,192,90605,5,10,1:2:0:0:
256,192,91033,5,8,2:2:0:0:
256,192,91247,5,2,2:2:0:0:
256,192,91462,5,8,3:2:0:0:
256,192,91676,5,2,2:2:0:0:
256,192,91783,5,0,3:3:0:0:
256,192,91890,5,10,2:2:0:0:
256,192,92105,5,0,3:3:0:0:
256,192,92319,5,14,1:2:0:0:
256,192,92747,5,10,2:2:0:0:
256,192,92962,5,10,2:2:0:0:
256,192,93069,5,8,2:2:0:0:
256,192,93176,5,10,3:2:0:0:
256,192,93390,5,2,2:2:0:0:
256,192,93605,5,10,2:2:0:0:
256,192,94033,5,10,1:2:0:0:
256,192,94462,5,8,2:2:0:0:
256,192,94676,5,2,2:2:0:0:
256,192,94890,5,8,3:2:0:0:
256,192,95105,5,2,2:2:0:0:
256,192,95212,5,0,3:3:0:0:
256,192,95319,5,10,2:2:0:0:
256,192,95533,5,2,3:2:0:0:
256,192,95747,5,10,1:2:0:0:
256,192,96176,5,10,2:2:0:0:
256,192,96605,5,10,3:2:0:0:
256,192,97033,5,10,2:2:0:0:
256,192,97247,5,2,2:2:0:0:
256,192,97462,5,8,1:2:0:0:
256,192,97890,5,10,2:2:0:0:
256,192,98105,5,2,2:2:0:0:
256,192,98319,5,10,3:2:0:0:
256,192,98533,5,2,2:2:0:0:
256,192,98640,5,0,3:3:0:0:
256,192,98747,5,10,2:2:0:0:
256,192,98962,5,2,3:2:0:0:
256,192,99176,5,10,1:2:0:0:
256,192,99497,5,2,2:2:0:0:
256,192,99605,5,8,2:2:0:0:
256,192,99819,5,10,2:2:0:0:
256,192,99926,5,8,2:2:0:0:
256,192,100033,5,10,3:2:0:0:
256,192,100462,5,2,2:2:0:0:
256,192,100890,5,2,1:2:0:0:
256,192,101212,5,2,2:2:0:0:
256,192,101319,5,2,2:2:0:0:
256,192,101533,5,2,2:2:0:0:
256,192,101747,5,8,2:3:0:0:
256,192,102069,5,4,2:3:0:0:
256,192,102176,5,2,2:2:0:0:
256,192,102390,5,10,2:2:0:0:
256,192,102605,5,6,2:2:0:0:
256,192,102819,5,6,2:2:0:0:
256,192,103033,5,10,2:2:0:0:
256,192,103247,5,8,2:2:0:0:
256,192,103462,5,6,3:2:0:0:
256,192,103676,5,10,2:2:0:0:
256,192,103783,5,2,2:2:0:0:
256,192,103890,5,6,1:2:0:0:
256,192,104105,5,10,3:2:0:0:
256,192,104212,5,2,2:2:0:0:
256,192,104319,5,2,2:2:0:0:
256,192,104533,5,10,2:2:0:0:
256,192,104640,5,2,2:2:0:0:
256,192,104747,5,0,1:1:0:0:
256,192,104855,5,2,2:2:0:0:
256,192,104962,5,10,2:2:0:0:
256,192,105176,5,2,3:2:0:0:
256,192,105390,5,10,2:2:0:0:
256,192,105605,5,2,1:2:0:0:
256,192,105819,5,10,3:2:0:0:
256,192,105926,5,2,2:2:0:0:
256,192,106033,5,2,2:2:0:0:
256,192,106247,5,10,2:2:0:0:
256,192,106355,5,2,2:2:0:0:
256,192,106462,5,2,1:2:0:0:
256,192,106569,5,2,2:2:0:0:
256,192,106676,5,10,2:2:0:0:
256,192,106890,5,2,3:2:0:0:
256,192,107105,5,10,2:2:0:0:
256,192,107319,5,2,1:2:0:0:
256,192,107533,5,10,3:2:0:0:
256,192,107640,5,2,2:2:0:0:
256,192,107747,5,2,2:2:0:0:
256,192,107962,5,10,2:2:0:0:
256,192,108069,5,2,2:2:0:0:
256,192,108176,5,0,1:1:0:0:
256,192,108283,5,2,2:2:0:0:
256,192,108390,5,10,2:2:0:0:
256,192,108605,5,0,3:3:0:0:
256,192,108819,5,10,2:2:0:0:
256,192,108926,5,2,2:2:0:0:
256,192,109033,5,2,1:2:0:0:
256,192,109247,5,10,3:2:0:0:
256,192,109462,5,2,2:2:0:0:
256,192,109676,5,10,3:2:0:0:
256,192,109783,5,2,2:2:0:0:
256,192,109890,5,2,1:2:0:0:
256,192,110105,5,10,2:2:0:0:
256,192,110319,5,4,3:2:0:0:
256,192,110533,5,10,2:2:0:0:
256,192,110640,5,2,2:2:0:0:
256,192,110747,5,2,1:2:0:0:
256,192,110962,5,10,3:2:0:0:
256,192,111176,5,2,2:2:0:0:
256,192,111390,5,10,2:2:0:0:
256,192,111497,5,2,2:2:0:0:
256,192,111605,5,0,1:1:0:0:
256,192,111712,5,2,2:2:0:0:
256,192,111819,5,10,2:2:0:0:
256,192,112033,5,0,3:3:0:0:
256,192,112140,5,2,2:2:0:0:
256,192,112247,5,10,2:2:0:0:
256,192,112355,5,2,2:2:0:0:
256,192,112462,5,2,1:2:0:0:
256,192,112676,5,10,3:2:0:0:
256,192,112890,5,2,2:2:0:0:
256,192,113105,5,10,2:2:0:0:
256,192,113212,5,6,2:2:0:0:
256,192,113319,5,0,1:1:0:0:
256,192,113426,5,2,2:2:0:0:
256,192,113533,5,10,2:2:0:0:
256,192,113747,5,0,3:3:0:0:
256,192,113962,5,10,2:2:0:0:
256,192,114069,5,2,2:2:0:0:
256,192,114176,5,2,1:2:0:0:
256,192,114390,5,10,3:2:0:0:
256,192,114605,5,2,2:2:0:0:
256,192,114819,5,10,2:2:0:0:
256,192,114926,5,2,2:2:0:0:
256,192,115033,5,0,1:1:0:0:
256,192,115140,5,2,2:2:0:0:
256,192,115247,5,10,2:2:0:0:
256,192,115462,5,0,3:3:0:0:
256,192,115569,5,2,2:2:0:0:
256,192,115676,5,14,2:2:0:0:
256,192,115783,5,2,2:2:0:0:
256,192,115890,5,2,1:2:0:0:
256,192,116105,5,10,3:2:0:0:
256,192,116319,5,2,2:2:0:0:
256,192,116533,5,10,3:2:0:0:
256,192,116640,5,2,2:2:0:0:
256,192,116747,5,2,1:2:0:0:
256,192,116855,5,2,2:2:0:0:
256,192,116962,5,0,1:1:0:0:
256,192,117069,5,0,1:1:0:0:
256,192,117176,5,6,3:2:0:0:
256,192,117390,5,10,2:2:0:0:
256,192,117497,5,2,2:2:0:0:
256,192,117605,5,6,1:2:0:0:
256,192,117819,5,10,3:2:0:0:
256,192,117926,5,2,2:2:0:0:
256,192,118033,5,2,2:2:0:0:
256,192,118247,5,10,2:2:0:0:
256,192,118355,5,2,2:2:0:0:
256,192,118462,5,2,1:2:0:0:
256,192,118569,5,2,2:2:0:0:
256,192,118676,5,10,2:2:0:0:
256,192,118890,5,0,3:3:0:0:
256,192,119105,5,10,2:2:0:0:
256,192,119319,5,2,1:2:0:0:
256,192,119533,5,10,3:2:0:0:
256,192,119640,5,2,2:2:0:0:
256,192,119747,5,2,2:2:0:0:
256,192,119962,5,10,2:2:0:0:
256,192,120069,5,2,2:2:0:0:
256,192,120176,5,2,1:2:0:0:
256,192,120390,5,10,2:2:0:0:
256,192,120605,5,2,3:2:0:0:
256,192,120819,5,10,2:2:0:0:
256,192,121033,5,2,1:2:0:0:
256,192,121247,5,10,3:2:0:0:
256,192,121355,5,2,2:2:0:0:
256,192,121462,5,2,2:2:0:0:
256,192,121676,5,10,2:2:0:0:
256,192,121783,5,2,2:2:0:0:
256,192,121890,5,2,1:2:0:0:
256,192,121997,5,2,2:2:0:0:
256,192,122105,5,10,2:2:0:0:
256,192,122319,5,0,3:3:0:0:
256,192,122533,5,10,2:2:0:0:
256,192,122747,5,2,1:2:0:0:
256,192,122962,5,10,3:2:0:0:
256,192,123069,5,2,2:2:0:0:
256,192,123176,5,2,2:2:0:0:
256,192,123390,5,10,3:2:0:0:
256,192,123497,5,2,2:2:0:0:
256,192,123605,5,2,1:2:0:0:
256,192,123712,5,2,2:2:0:0:
256,192,123819,5,10,2:2:0:0:
256,192,124033,5,6,3:2:0:0:
256,192,124247,5,8,2:2:0:0:
256,192,124462,5,0,1:1:0:0:
256,192,124676,5,10,3:2:0:0:
256,192,124783,5,2,2:2:0:0:
256,192,124890,5,2,2:2:0:0:
256,192,125105,5,10,2:2:0:0:
256,192,125212,5,2,2:2:0:0:
256,192,125319,5,2,1:2:0:0:
256,192,125533,5,10,2:2:0:0:
256,192,125747,5,2,3:2:0:0:
256,192,125962,5,10,2:2:0:0:
256,192,126176,5,2,1:2:0:0:
256,192,126390,5,10,3:2:0:0:
256,192,126497,5,2,2:2:0:0:
256,192,126605,5,2,2:2:0:0:
256,192,126819,5,10,2:2:0:0:
256,192,126926,5,2,2:2:0:0:
256,192,127033,5,2,1:2:0:0:
256,192,127247,5,10,2:2:0:0:
256,192,127462,5,2,3:2:0:0:
256,192,127676,5,10,2:2:0:0:
256,192,127890,5,2,1:2:0:0:
256,192,128105,5,10,3:2:0:0:
256,192,128212,5,2,2:2:0:0:
256,192,128319,5,2,2:2:0:0:
256,192,128533,5,10,2:2:0:0:
256,192,128640,5,2,2:2:0:0:
256,192,128747,5,2,1:2:0:0:
256,192,128962,5,10,2:2:0:0:
256,192,129176,5,0,3:3:0:0:
256,192,129390,5,10,2:2:0:0:
256,192,129605,5,2,1:2:0:0:
256,192,129819,5,10,3:2:0:0:
256,192,129926,5,2,2:2:0:0:
256,192,130033,5,2,2:2:0:0:
256,192,130247,5,10,3:2:0:0:
256,192,130355,5,2,2:2:0:0:
256,192,130462,5,2,1:2:0:0:
256,192,130676,5,2,1:2:0:0:
256,192,130783,5,0,1:1:0:0:
256,192,130890,5,6,3:2:0:0:
256,192,131105,5,2,2:2:0:0:
256,192,131319,5,2,2:2:0:0:
256,192,131533,5,4,3:2:0:0:
256,192,131747,5,2,3:2:0:0:
256,192,131962,5,2,2:2:0:0:
256,192,132176,5,0,3:3:0:0:
256,192,132605,5,4,2:2:0:0:
256,192,132819,5,2,3:2:0:0:
256,192,133033,5,2,3:2:0:0:
256,192,133247,5,4,2:2:0:0:
256,192,133462,5,2,3:2:0:0:
256,192,133676,5,2,2:2:0:0:
256,192,133890,5,0,3:3:0:0:
256,192,134319,5,4,3:2:0:0:
256,192,134533,5,2,2:2:0:0:
256,192,134747,5,2,2:2:0:0:
256,192,134962,5,4,3:2:0:0:
256,192,135176,5,2,3:2:0:0:
256,192,135390,5,2,2:2:0:0:
256,192,135605,5,0,3:3:0:0:
256,192,136033,5,4,2:2:0:0:
256,192,136247,5,2,3:2:0:0:
256,192,136462,5,2,3:2:0:0:
256,192,136676,5,4,2:2:0:0:
256,192,136890,5,2,3:2:0:0:
256,192,137105,5,2,2:2:0:0:
256,192,137319,5,0,3:3:0:0:
256,192,137747,5,0,3:3:0:0:
256,192,138176,5,2,2:2:0:0:
256,192,138605,5,2,2:2:0:0:
256,192,139033,5,2,2:2:0:0:
256,192,139462,5,6,2:2:0:0:
256,192,139890,5,2,2:2:0:0:
256,192,140319,5,2,2:2:0:0:
256,192,140747,5,2,2:2:0:0:
256,192,140962,5,2,2:2:0:0:
256,192,141176,5,2,2:2:0:0:
256,192,142676,5,2,2:2:0:0:
256,192,142890,5,6,2:2:0:0:
256,192,143105,5,2,2:2:0:0:
256,192,143319,5,2,2:2:0:0:
256,192,143533,5,2,2:2:0:0:
256,192,143747,5,2,2:2:0:0:
256,192,143962,5,2,2:2:0:0:
256,192,144390,5,4,2:3:0:0:
256,192,144605,5,4,2:3:0:0:
256,192,145033,5,2,2:2:0:0:
256,192,145462,5,2,2:2:0:0:
256,192,145890,5,2,2:2:0:0:
256,192,146319,5,6,2:2:0:0:
256,192,146747,5,2,2:2:0:0:
256,192,147176,5,2,2:2:0:0:
256,192,147605,5,2,2:2:0:0:
256,192,148033,5,6,2:3:0:0:
256,192,149426,5,2,2:2:0:0:
256,192,149747,5,6,2:2:0:0:
256,192,151247,5,4,2:3:0:0:
256,192,151462,5,6,2:3:0:0:
256,192,153069,5,2,2:2:0:0:
256,192,153283,5,2,2:2:0:0:
256,192,153497,5,2,2:2:0:0:
256,192,153712,5,2,2:2:0:0:
256,192,153926,5,2,2:2:0:0:
256,192,154140,5,2,2:2:0:0:
256,192,154355,5,2,2:2:0:0:
256,192,154569,5,2,2:2:0:0:
256,192,154783,5,2,2:2:0:0:
256,192,154890,5,2,2:2:0:0:
256,192,154997,5,2,2:2:0:0:
256,192,156176,5,2,2:2:0:0:
256,192,156605,5,6,2:2:0:0:
256,192,157676,5,2,2:2:0:0:
256,192,157890,5,4,2:2:0:0:
256,192,158212,5,2,2:2:0:0:
256,192,158319,5,2,2:2:0:0:
256,192,158533,5,2,2:2:0:0:
256,192,158640,5,2,2:2:0:0:
256,192,158747,5,2,2:2:0:0:
256,192,158962,5,2,2:2:0:0:
256,192,159176,5,2,2:2:0:0:
256,192,159390,5,2,2:2:0:0:
256,192,159497,5,2,2:2:0:0:
256,192,159712,5,2,2:2:0:0:
256,192,159819,5,2,2:2:0:0:
256,192,160140,5,2,2:2:0:0:
256,192,160247,5,2,2:2:0:0:
256,192,160462,5,2,2:2:0:0:
256,192,160676,5,2,2:2:0:0:
256,192,160783,5,2,2:2:0:0:
256,192,160890,5,2,2:2:0:0:
256,192,161105,5,2,2:2:0:0:
256,192,161212,5,2,2:2:0:0:
256,192,161426,5,2,2:2:0:0:
256,192,161533,5,2,2:2:0:0:
256,192,161855,5,2,2:2:0:0:
256,192,161962,5,2,2:2:0:0:
256,192,162176,5,2,2:2:0:0:
256,192,162390,5,2,2:2:0:0:
256,192,162497,5,2,2:2:0:0:
256,192,162605,5,2,2:2:0:0:
256,192,162819,5,2,2:2:0:0:
256,192,162926,5,2,2:2:0:0:
256,192,163140,5,2,2:2:0:0:
256,192,163247,5,2,2:2:0:0:
256,192,163890,5,2,2:2:0:0:
256,192,164105,5,2,2:2:0:0:
256,192,164319,5,2,2:2:0:0:
256,192,164533,5,2,2:2:0:0:
256,192,164747,5,6,2:2:0:0:
256,192,165176,5,6,3:2:0:0:
256,192,165390,5,10,2:2:0:0:
256,192,165497,5,2,2:2:0:0:
256,192,165605,5,6,1:2:0:0:
256,192,165819,5,10,3:2:0:0:
256,192,165926,5,2,2:2:0:0:
256,192,166033,5,2,2:2:0:0:
256,192,166247,5,10,2:2:0:0:
256,192,166355,5,2,2:2:0:0:
256,192,166462,5,0,1:1:0:0:
256,192,166569,5,2,2:2:0:0:
256,192,166676,5,10,2:2:0:0:
256,192,166890,5,2,3:2:0:0:
256,192,167105,5,10,2:2:0:0:
256,192,167319,5,2,1:2:0:0:
256,192,167533,5,10,3:2:0:0:
256,192,167640,5,2,2:2:0:0:
256,192,167747,5,2,2:2:0:0:
256,192,167962,5,10,2:2:0:0:
256,192,168069,5,2,2:2:0:0:
256,192,168176,5,2,1:2:0:0:
256,192,168283,5,2,2:2:0:0:
256,192,168390,5,10,2:2:0:0:
256,192,168605,5,2,3:2:0:0:
256,192,168819,5,10,2:2:0:0:
256,192,169033,5,2,1:2:0:0:
256,192,169247,5,10,3:2:0:0:
256,192,169355,5,2,2:2:0:0:
256,192,169462,5,2,2:2:0:0:
256,192,169676,5,10,2:2:0:0:
256,192,169783,5,2,2:2:0:0:
256,192,169890,5,0,1:1:0:0:
256,192,169997,5,2,2:2:0:0:
256,192,170105,5,10,2:2:0:0:
256,192,170319,5,0,3:3:0:0:
256,192,170533,5,10,2:2:0:0:
256,192,170747,5,2,1:2:0:0:
256,192,170962,5,10,3:2:0:0:
256,192,171176,5,2,2:2:0:0:
256,192,171390,5,10,3:2:0:0:
256,192,171497,5,2,2:2:0:0:
256,192,171605,5,2,1:2:0:0:
256,192,171819,5,10,2:2:0:0:
256,192,172033,5,4,3:2:0:0:
256,192,172247,5,10,2:2:0:0:
256,192,172355,5,2,2:2:0:0:
256,192,172462,5,2,1:2:0:0:
256,192,172676,5,10,3:2:0:0:
256,192,172890,5,2,2:2:0:0:
256,192,173105,5,10,2:2:0:0:
256,192,173212,5,2,2:2:0:0:
256,192,173319,5,0,1:1:0:0:
256,192,173426,5,2,2:2:0:0:
256,192,173533,5,10,2:2:0:0:
256,192,173747,5,0,3:3:0:0:
256,192,173855,5,2,2:2:0:0:
256,192,173962,5,10,2:2:0:0:
256,192,174069,5,2,2:2:0:0:
256,192,174176,5,2,1:2:0:0:
256,192,174390,5,10,3:2:0:0:
256,192,174605,5,2,2:2:0:0:
256,192,174819,5,10,2:2:0:0:
256,192,174926,5,6,2:2:0:0:
256,192,175033,5,0,1:1:0:0:
256,192,175140,5,2,2:2:0:0:
256,192,175247,5,10,2:2:0:0:
256,192,175462,5,0,3:3:0:0:
256,192,175676,5,10,2:2:0:0:
256,192,175783,5,2,2:2:0:0:
256,192,175890,5,2,1:2:0:0:
256,192,176105,5,10,3:2:0:0:
256,192,176319,5,2,2:2:0:0:
256,192,176533,5,10,2:2:0:0:
256,192,176640,5,2,2:2:0:0:
256,192,176747,5,0,1:1:0:0:
256,192,176855,5,2,2:2:0:0:
256,192,176962,5,10,2:2:0:0:
256,192,177176,5,0,3:3:0:0:
256,192,177283,5,2,2:2:0:0:
256,192,177390,5,14,2:2:0:0:
256,192,177497,5,2,2:2:0:0:
256,192,177605,5,2,1:2:0:0:
256,192,177819,5,10,3:2:0:0:
256,192,178033,5,2,2:2:0:0:
256,192,178247,5,10,3:2:0:0:
256,192,178355,5,2,2:2:0:0:
256,192,178462,5,2,1:2:0:0:
256,192,178569,5,2,2:2:0:0:
256,192,178676,5,0,1:1:0:0:
256,192,178783,5,0,1:1:0:0:
256,192,178890,5,6,3:2:0:0:
256,192,179105,5,10,2:2:0:0:
256,192,179212,5,2,2:2:0:0:
256,192,179319,5,6,1:2:0:0:
256,192,179533,5,10,3:2:0:0:
256,192,179640,5,2,2:2:0:0:
256,192,179747,5,2,2:2:0:0:
256,192,179962,5,10,2:2:0:0:
256,192,180069,5,2,2:2:0:0:
256,192,180176,5,2,1:2:0:0:
256,192,180283,5,2,2:2:0:0:
256,192,180390,5,10,2:2:0:0:
256,192,180605,5,0,3:3:0:0:
256,192,180819,5,10,2:2:0:0:
256,192,181033,5,2,1:2:0:0:
256,192,181247,5,10,3:2:0:0:
256,192,181355,5,2,2:2:0:0:
256,192,181462,5,2,2:2:0:0:
256,192,181676,5,10,2:2:0:0:
256,192,181783,5,2,2:2:0:0:
256,192,181890,5,2,1:2:0:0:
256,192,182105,5,10,2:2:0:0:
256,192,182319,5,2,3:2:0:0:
256,192,182533,5,10,2:2:0:0:
256,192,182747,5,2,1:2:0:0:
256,192,182962,5,10,3:2:0:0:
256,192,183069,5,2,2:2:0:0:
256,192,183176,5,2,2:2:0:0:
256,192,183390,5,10,2:2:0:0:
256,192,183497,5,2,2:2:0:0:
256,192,183605,5,2,1:2:0:0:
256,192,183712,5,2,2:2:0:0:
256,192,183819,5,10,2:2:0:0:
256,192,184033,5,0,3:3:0:0:
256,192,184247,5,10,2:2:0:0:
256,192,184462,5,2,1:2:0:0:
256,192,184676,5,10,3:2:0:0:
256,192,184783,5,2,2:2:0:0:
256,192,184890,5,2,2:2:0:0:
256,192,185105,5,10,3:2:0:0:
256,192,185212,5,2,2:2:0:0:
256,192,185319,5,2,1:2:0:0:
256,192,185426,5,2,2:2:0:0:
256,192,185533,5,10,2:2:0:0:
256,192,185747,5,6,3:2:0:0:
256,192,185962,5,8,2:2:0:0:
256,192,186176,5,0,1:1:0:0:
256,192,186390,5,10,3:2:0:0:
256,192,186497,5,2,2:2:0:0:
256,192,186605,5,2,2:2:0:0:
256,192,186819,5,14,2:2:0:0:
256,192,186926,5,2,2:2:0:0:
256,192,187033,5,2,1:2:0:0:
256,192,187247,5,10,2:2:0:0:
256,192,187462,5,2,3:2:0:0:
256,192,187676,5,10,2:2:0:0:
256,192,187890,5,2,1:2:0:0:
256,192,188105,5,10,3:2:0:0:
256,192,188212,5,2,2:2:0:0:
256,192,188319,5,2,2:2:0:0:
256,192,188533,5,14,2:2:0:0:
256,192,188640,5,2,2:2:0:0:
256,192,188747,5,2,1:2:0:0:
256,192,188962,5,10,2:2:0:0:
256,192,189176,5,2,3:2:0:0:
256,192,189390,5,10,2:2:0:0:
256,192,189605,5,2,1:2:0:0:
256,192,189819,5,10,3:2:0:0:
256,192,189926,5,2,2:2:0:0:
256,192,190033,5,2,2:2:0:0:
256,192,190247,5,14,2:2:0:0:
256,192,190355,5,2,2:2:0:0:
256,192,190462,5,2,1:2:0:0:
256,192,190676,5,10,2:2:0:0:
256,192,190890,5,0,3:3:0:0:
256,192,191105,5,10,2:2:0:0:
256,192,191319,5,2,1:2:0:0:
256,192,191533,5,10,3:2:0:0:
256,192,191640,5,2,2:2:0:0:
256,192,191747,5,2,2:2:0:0:
256,192,191962,5,10,3:2:0:0:
256,192,192069,5,2,2:2:0:0:
256,192,192176,5,2,1:2:0:0:
256,192,192390,5,2,1:2:0:0:
256,192,192497,5,0,1:1:0:0:
256,192,192605,5,6,2:2:0:0:
256,192,192819,5,2,2:2:0:0:
256,192,193033,5,2,2:2:0:0:
256,192,193247,5,4,2:2:0:0:
256,192,193462,5,2,2:2:0:0:
256,192,193676,5,2,2:2:0:0:
