osu file format v14

[General]
AudioFilename: audio.mp3
AudioLeadIn: 0
PreviewTime: 109300
Countdown: 0
SampleSet: Normal
StackLeniency: 0.7
Mode: 1
LetterboxInBreaks: 0
WidescreenStoryboard: 1

[Editor]
Bookmarks: 69832
DistanceSpacing: 1
BeatDivisor: 4
GridSize: 4
TimelineZoom: 0.9

[Metadata]
Title:spiral
TitleUnicode:spiral
Artist:LONGMAN
ArtistUnicode:LONGMAN
Creator:iloveyou4ever
Version:Muzukashii
Source:無職転生 Ⅱ ~異世界行ったら本気だす~
Tags:mushoku tensei ii: ~isekai ittara honki dasu~ jobless reincarnation: i will seriously try if i go to another world season 2 two s2 anime opening theme op japanese j-pop jpop pop j-rock jrock rock
BeatmapID:4216316
BeatmapSetID:2023932

[Difficulty]
HPDrainRate:6
CircleSize:5
OverallDifficulty:4.5
ApproachRate:0
SliderMultiplier:1.4
SliderTickRate:1

[Events]
//Background and Video events
0,0,"BG.jpg",0,-10
//Break Periods
2,173480,185497
//Storyboard Layer 0 (Background)
//Storyboard Layer 1 (Fail)
//Storyboard Layer 2 (Pass)
//Storyboard Layer 3 (Foreground)
//Storyboard Layer 4 (Overlay)
//Storyboard Sound Samples

[TimingPoints]
414,491.803278688525,4,1,0,30,1,0
414,-108.108108108108,4,1,0,30,0,0
7050,-106.609808102345,4,1,0,40,0,0
7296,-105.15247108307,4,1,0,40,0,0
7788,-102.669404517454,4,1,0,45,0,0
8033,-101.317122593718,4,1,0,45,0,0
8279,-100,4,1,0,50,0,0
23276,-98.135426889107,4,1,0,50,0,0
23522,-96.3391136801541,4,1,0,60,0,0
23645,-95.4653937947494,4,1,0,60,0,0
23768,-94.6073793755913,4,1,0,60,0,0
24014,-93.0232558139535,4,1,0,70,0,0
37791,491.803278688525,4,1,0,70,1,0
37791,-93.0232558139535,4,1,0,70,0,0
38279,-92.2509225092251,4,1,0,70,0,0
38525,-91.2737946588313,4,1,0,70,0,0
38771,-90.317149460007,4,1,0,70,0,0
39017,-89.3803495538616,4,1,0,70,0,0
39263,-88.4627837536425,4,1,0,70,0,0
39509,-87.5638657149898,4,1,0,70,0,0
39755,-86.6830326864478,4,1,0,70,0,0
40001,-85.8197443346405,4,1,0,70,0,0
40247,-84.973481638955,4,1,0,70,0,0
40369,-84.5599512516523,4,1,0,70,0,0
40492,-84.1470859580106,4,1,0,70,0,0
40738,-83.3333333333333,4,1,0,70,0,0
41230,-90.9090909090909,4,1,0,70,0,0
41725,491.803278688525,4,1,0,80,1,1
41725,-83.3333333333333,4,1,0,80,0,1
73200,-83.3333333333333,4,1,0,80,0,0
75165,-88.4955752212389,4,1,0,70,0,0
75653,-90.9090909090909,4,1,0,70,0,0
75899,-92.5925925925926,4,1,0,70,0,0
76391,-95.2380952380952,4,1,0,70,0,0
76637,-97.0873786407767,4,1,0,70,0,0
77134,491.803278688525,4,1,0,60,1,0
77134,-100,4,1,0,60,0,0
92870,-96.3855421686747,4,1,0,70,0,0
100738,-93.0232558139535,4,1,0,70,0,0
106642,491.803278688525,4,1,0,70,1,0
106642,-93.0232558139535,4,1,0,70,0,0
107130,-92.2934933087217,4,1,0,70,0,0
107376,-91.5923300191767,4,1,0,70,0,0
107622,-90.901740024412,4,1,0,70,0,0
107868,-90.2214859518481,4,1,0,70,0,0
108114,-89.5513374815439,4,1,0,70,0,0
108360,-88.8910710861986,4,1,0,70,0,0
108606,-88.2404697825729,4,1,0,70,0,0
108729,-87.9187274635641,4,1,0,70,0,0
108852,-87.5993228937461,4,1,0,70,0,0
109098,-86.9674258216631,4,1,0,70,0,0
109220,-86.6574155739908,4,1,0,70,0,0
109343,-86.3470936639199,4,1,0,70,0,0
109589,-85.7330700428433,4,1,0,70,0,0
109835,-85.1277175386753,4,1,0,70,0,0
110081,-84.530853761623,4,1,0,70,0,0
110576,491.803278688525,4,1,0,80,1,1
110576,-83.3333333333333,4,1,0,80,0,1
142051,-83.3333333333333,4,1,0,80,0,0
142297,-90.9090909090909,4,1,0,80,0,0
156556,-90.0900900900901,4,1,0,80,0,0
156679,-89.3655049151028,4,1,0,80,0,0
156802,-88.6524822695036,4,1,0,80,0,0
156925,-87.9507475813544,4,1,0,80,0,0
157048,-87.260034904014,4,1,0,80,0,0
157294,-85.9106529209622,4,1,0,80,0,0
157417,-85.2514919011083,4,1,0,80,0,0
157540,-84.6023688663283,4,1,0,80,0,0
157663,-83.9630562552477,4,1,0,80,0,0
157789,-83.3333333333333,4,1,0,80,0,1
172048,-83.3333333333333,4,1,0,80,0,1
172294,-83.3333333333333,4,1,0,80,0,1
172540,-83.3333333333333,4,1,0,80,0,1
172663,-83.3333333333333,4,1,0,80,0,1
172786,-83.3333333333333,4,1,0,80,0,1
172909,-83.3333333333333,4,1,0,80,0,1
173032,-83.3333333333333,4,1,0,80,0,1
173154,-83.3333333333333,4,1,0,80,0,1
173277,-83.3333333333333,4,1,0,80,0,1
173403,-83.3333333333333,4,1,0,80,0,0
174018,-83.3333333333333,4,1,0,50,0,0
175494,-85.7147755130029,4,1,0,50,0,0
177461,-92.307692591716,4,1,0,50,0,0
179428,-100,4,1,0,50,0,0
185330,-111.111111111111,4,1,0,50,0,0
187297,491.803278688525,4,1,0,70,1,0
187297,-93.0232558139535,4,1,0,70,0,0
187540,-91.9535931642469,4,1,0,70,0,0
187786,-90.9082506908694,4,1,0,70,0,0
188032,-89.8864082904585,4,1,0,70,0,0
188277,-88.8912988468351,4,1,0,70,0,0
188523,-87.9140523051072,4,1,0,70,0,0
188769,-86.9580592686894,4,1,0,70,0,0
188892,-86.487817316908,4,1,0,70,0,0
189015,-86.0226338528275,4,1,0,70,0,0
189264,491.803278688525,4,1,0,70,1,0
189264,-85.1071193714741,4,1,0,70,0,0
189384,-84.6566311205212,4,1,0,70,0,0
189507,-84.2108867998836,4,1,0,70,0,0
189755,-83.3333333333333,4,1,0,80,0,1
205001,-83.3333333333333,4,1,0,90,0,1
220739,-83.3333333333333,4,1,0,90,0,0
220985,-83.3333333333333,4,1,0,80,0,0
221231,-83.3333333333333,4,1,0,77,0,0
221477,-83.3333333333333,4,1,0,74,0,0
221723,-83.3333333333333,4,1,0,72,0,0
221969,-83.3333333333333,4,1,0,69,0,0
222215,-83.3333333333333,4,1,0,66,0,0
222461,-83.3333333333333,4,1,0,63,0,0
222707,-88.2353200692118,4,1,0,61,0,0
222953,-88.2353200692118,4,1,0,58,0,0
223198,-88.2353200692118,4,1,0,55,0,0
223444,-88.2353200692118,4,1,0,52,0,0
223690,-88.2353200692118,4,1,0,50,0,0
223936,-88.2353200692118,4,1,0,47,0,0
224182,-88.2353200692118,4,1,0,44,0,0
224428,-88.2353200692118,4,1,0,41,0,0
224674,-93.7505859411621,4,1,0,39,0,0
224920,-93.7505859411621,4,1,0,36,0,0
225166,-93.7505859411621,4,1,0,33,0,0
225412,-93.7505859411621,4,1,0,30,0,0
225657,-93.7505859411621,4,1,0,28,0,0
225903,-93.7505859411621,4,1,0,25,0,0
226149,-93.7505859411621,4,1,0,22,0,0
226395,-93.7505859411621,4,1,0,19,0,0
226641,-100,4,1,0,17,0,0
226887,-100,4,1,0,14,0,0
227133,-100,4,1,0,11,0,0
227379,-100,4,1,0,8,0,0
227625,-100,4,1,0,6,0,0
227871,-100,4,1,0,5,0,0
228116,-100,4,1,0,5,0,0

[HitObjects]
461,172,414,5,0,0:0:0:0:
494,176,1151,1,8,0:0:0:0:
423,177,1889,1,0,0:0:0:0:
402,174,3364,1,8,0:0:0:0:
445,193,4348,1,0,0:0:0:0:
476,184,5086,1,0,0:0:0:0:
476,184,5823,1,8,0:0:0:0:
476,184,7053,1,0,0:0:0:0:
491,165,7299,1,8,0:0:0:0:
438,210,7791,1,8,0:0:0:0:
491,165,8036,1,8,0:0:0:0:
438,210,8282,1,0,0:0:0:0:
496,248,8528,1,0,0:0:0:0:
413,134,9020,1,0,0:0:0:0:
450,166,9512,1,8,0:0:0:0:
476,303,10004,1,0,0:0:0:0:
491,197,10987,1,0,0:0:0:0:
432,159,11233,1,8,0:0:0:0:
432,159,11725,1,8,0:0:0:0:
432,159,11971,1,8,0:0:0:0:
432,159,12217,1,8,0:0:0:0:
436,228,12463,1,0,0:0:0:0:
399,93,12954,1,0,0:0:0:0:
476,209,13446,1,8,0:0:0:0:
445,181,13938,1,8,0:0:0:0:
445,181,14922,1,0,0:0:0:0:
465,99,15168,1,8,0:0:0:0:
387,215,15659,1,8,0:0:0:0:
426,157,15905,1,8,0:0:0:0:
403,223,16151,1,0,0:0:0:0:
468,184,17381,1,8,0:0:0:0:
468,184,17627,1,0,0:0:0:0:
468,184,17873,1,8,0:0:0:0:
394,190,18610,1,8,0:0:0:0:
346,189,18856,1,0,0:0:0:0:
496,200,19348,1,0,0:0:0:0:
436,72,19840,1,8,0:0:0:0:
484,216,21807,1,0,0:0:0:0:
423,250,22053,1,0,0:0:0:0:
328,168,22422,1,0,0:0:0:0:
399,183,22791,1,8,0:0:0:0:
484,181,23282,1,0,0:0:0:0:
484,181,23528,1,8,0:0:0:0:
484,181,23651,1,8,0:0:0:0:
426,181,23774,1,8,0:0:0:0:
471,244,24020,1,4,0:0:0:0:
502,208,24512,1,8,0:0:0:0:
461,142,24758,1,0,0:0:0:0:
485,171,24881,1,0,0:0:0:0:
448,168,25004,1,0,0:0:0:0:
426,181,25250,1,0,0:0:0:0:
366,229,25495,1,8,0:0:0:0:
447,180,25741,1,8,0:0:0:0:
369,181,25987,1,0,0:0:0:0:
468,192,26479,1,0,0:0:0:0:
466,170,26725,1,8,0:0:0:0:
466,170,26971,1,8,0:0:0:0:
428,163,27217,1,0,0:0:0:0:
498,194,27463,1,8,0:0:0:0:
498,194,27709,1,8,0:0:0:0:
466,170,27954,1,0,0:0:0:0:
390,186,28446,1,8,0:0:0:0:
466,170,28692,1,0,0:0:0:0:
390,186,28815,1,0,0:0:0:0:
390,186,28938,1,0,0:0:0:0:
466,170,29184,1,0,0:0:0:0:
466,178,29430,1,8,0:0:0:0:
444,204,29676,1,8,0:0:0:0:
464,173,29922,1,0,0:0:0:0:
310,179,30414,1,0,0:0:0:0:
396,226,30659,1,8,0:0:0:0:
464,173,30905,1,8,0:0:0:0:
440,196,31151,1,8,0:0:0:0:
440,196,31397,1,0,0:0:0:0:
364,212,31643,1,8,0:0:0:0:
434,181,31889,1,4,0:0:0:0:
444,201,32381,1,8,0:0:0:0:
444,201,32627,1,0,0:0:0:0:
444,201,32750,1,0,0:0:0:0:
499,208,32873,1,0,0:0:0:0:
499,208,33118,1,0,0:0:0:0:
472,135,33364,1,8,0:0:0:0:
436,164,33610,1,8,0:0:0:0:
423,194,33856,1,0,0:0:0:0:
377,188,34102,1,8,0:0:0:0:
436,164,34594,1,8,0:0:0:0:
468,172,34840,1,8,0:0:0:0:
444,204,35086,1,0,0:0:0:0:
436,164,35332,1,8,0:0:0:0:
360,156,35577,1,8,0:0:0:0:
468,172,35823,1,0,0:0:0:0:
420,196,36315,1,0,0:0:0:0:
490,168,36561,1,8,0:0:0:0:
468,172,36684,1,8,0:0:0:0:
468,172,36807,1,8,0:0:0:0:
420,196,37053,1,8,0:0:0:0:
484,200,37299,1,0,0:0:0:0:
392,180,37791,1,4,0:0:0:0:
484,200,38282,1,0,0:0:0:0:
507,275,38528,1,0,0:0:0:0:
408,188,38774,1,8,0:0:0:0:
444,172,39020,1,8,0:0:0:0:
444,172,39266,1,0,0:0:0:0:
480,180,39512,1,0,0:0:0:0:
500,184,39758,1,8,0:0:0:0:
480,180,40004,1,8,0:0:0:0:
444,172,40250,1,0,0:0:0:0:
444,172,40372,1,0,0:0:0:0:
424,188,40495,1,0,0:0:0:0:
456,164,40741,1,8,0:0:0:0:
312,192,41233,1,0,0:0:0:0:
332,256,41725,1,4,0:0:0:0:
454,196,42216,1,8,0:0:0:0:
479,203,42462,1,0,0:0:0:0:
443,225,42585,1,0,0:0:0:0:
479,203,42708,1,0,0:0:0:0:
469,119,42954,1,8,0:0:0:0:
452,201,43200,1,0,0:0:0:0:
444,160,43446,1,8,0:0:0:0:
428,180,43692,1,8,0:0:0:0:
344,173,43938,1,0,0:0:0:0:
376,156,44429,1,0,0:0:0:0:
444,160,44675,1,8,0:0:0:0:
444,160,44921,1,0,0:0:0:0:
464,172,45167,1,8,0:0:0:0:
428,180,45413,1,8,0:0:0:0:
376,164,45659,1,0,0:0:0:0:
464,172,46151,1,0,0:0:0:0:
380,184,46397,1,8,0:0:0:0:
380,184,46520,1,8,0:0:0:0:
380,184,46643,1,8,0:0:0:0:
463,186,46888,1,0,0:0:0:0:
464,172,47134,1,8,0:0:0:0:
384,200,47380,1,8,0:0:0:0:
352,184,47626,1,8,0:0:0:0:
408,168,47872,1,0,0:0:0:0:
512,152,48364,1,0,0:0:0:0:
428,180,48610,1,0,0:0:0:0:
440,192,48856,1,8,0:0:0:0:
440,192,49347,1,8,0:0:0:0:
428,180,49593,1,4,0:0:0:0:
471,256,49839,1,8,0:0:0:0:
440,192,50085,1,0,0:0:0:0:
472,180,50331,1,8,0:0:0:0:
434,201,50454,1,8,0:0:0:0:
405,162,50577,1,8,0:0:0:0:
364,239,50823,1,0,0:0:0:0:
405,162,51069,1,8,0:0:0:0:
483,200,51315,1,8,0:0:0:0:
472,180,51561,1,0,0:0:0:0:
428,172,52052,1,8,0:0:0:0:
301,292,52544,1,0,0:0:0:0:
372,242,52790,1,0,0:0:0:0:
428,172,53036,1,8,0:0:0:0:
424,188,53528,1,12,0:0:0:0:
424,188,53774,1,0,0:0:0:0:
428,172,54020,1,8,0:0:0:0:
476,192,54265,1,8,0:0:0:0:
468,172,54511,1,4,0:0:0:0:
468,172,55003,1,0,0:0:0:0:
468,172,55249,1,8,0:0:0:0:
468,172,55495,1,0,0:0:0:0:
400,188,55741,1,0,0:0:0:0:
413,175,55987,1,12,0:0:0:0:
424,208,56233,1,0,0:0:0:0:
416,204,56356,1,0,0:0:0:0:
413,175,56479,1,0,0:0:0:0:
501,178,56725,1,0,0:0:0:0:
468,172,56970,1,8,0:0:0:0:
380,164,57216,1,8,0:0:0:0:
500,128,57462,1,4,0:0:0:0:
412,184,57954,1,8,0:0:0:0:
376,180,58200,1,0,0:0:0:0:
376,180,58323,1,0,0:0:0:0:
414,197,58446,1,0,0:0:0:0:
465,177,58692,1,0,0:0:0:0:
465,177,58938,1,8,0:0:0:0:
376,168,59184,1,8,0:0:0:0:
417,168,59429,1,0,0:0:0:0:
404,172,59675,1,8,0:0:0:0:
408,176,60167,1,0,0:0:0:0:
487,161,60413,1,8,0:0:0:0:
492,180,60659,1,8,0:0:0:0:
501,155,60905,1,0,0:0:0:0:
414,179,61151,1,8,0:0:0:0:
391,139,61397,1,0,0:0:0:0:
414,179,61888,1,0,0:0:0:0:
404,176,62134,1,8,0:0:0:0:
421,152,62257,1,8,0:0:0:0:
404,176,62380,1,8,0:0:0:0:
492,196,62626,1,0,0:0:0:0:
369,204,62872,1,8,0:0:0:0:
447,188,63118,1,8,0:0:0:0:
452,172,63364,1,8,0:0:0:0:
404,176,63610,1,0,0:0:0:0:
400,204,64102,1,0,0:0:0:0:
444,160,64347,1,0,0:0:0:0:
444,160,64593,1,8,0:0:0:0:
472,172,65085,1,8,0:0:0:0:
428,184,65331,1,4,0:0:0:0:
452,224,65577,1,8,0:0:0:0:
428,184,65823,1,0,0:0:0:0:
508,140,66069,1,8,0:0:0:0:
468,153,66192,1,8,0:0:0:0:
428,166,66315,1,8,0:0:0:0:
392,136,66561,1,0,0:0:0:0:
428,180,66806,1,8,0:0:0:0:
472,172,67052,1,8,0:0:0:0:
472,172,67298,1,0,0:0:0:0:
428,180,67790,1,8,0:0:0:0:
472,180,68282,1,8,0:0:0:0:
428,180,68528,1,0,0:0:0:0:
484,196,68774,1,8,0:0:0:0:
428,180,69265,1,4,0:0:0:0:
428,180,69511,1,8,0:0:0:0:
472,176,69757,1,0,0:0:0:0:
508,224,70003,1,0,0:0:0:0:
428,184,70249,1,12,0:0:0:0:
472,176,70741,1,0,0:0:0:0:
428,184,70987,1,8,0:0:0:0:
484,176,71110,1,8,0:0:0:0:
442,180,71233,1,8,0:0:0:0:
472,192,71479,1,8,0:0:0:0:
428,184,71725,1,0,0:0:0:0:
356,227,71970,1,0,0:0:0:0:
392,205,72093,1,0,0:0:0:0:
265,225,72216,1,0,0:0:0:0:
428,184,72462,1,8,0:0:0:0:
428,184,72708,1,0,0:0:0:0:
472,192,72954,1,8,0:0:0:0:
390,233,73200,1,4,0:0:0:0:
256,192,73446,12,0,74921,0:0:0:0:
467,193,75167,5,12,0:0:0:0:
511,16,75659,1,0,0:0:0:0:
478,100,75905,1,8,0:0:0:0:
420,236,76397,1,8,0:0:0:0:
476,192,76643,1,0,0:0:0:0:
474,376,77134,1,0,0:0:0:0:
468,306,77379,1,0,0:0:0:0:
475,167,77871,1,8,0:0:0:0:
496,200,78363,1,0,0:0:0:0:
429,179,78609,1,8,0:0:0:0:
495,200,78855,1,8,0:0:0:0:
426,185,79101,1,0,0:0:0:0:
461,189,79838,1,0,0:0:0:0:
426,185,80084,1,8,0:0:0:0:
484,228,80576,1,8,0:0:0:0:
416,200,80822,1,8,0:0:0:0:
496,168,81068,1,8,0:0:0:0:
448,220,81314,1,0,0:0:0:0:
416,200,81806,1,0,0:0:0:0:
448,212,82297,1,8,0:0:0:0:
412,152,82543,1,0,0:0:0:0:
424,220,82789,1,8,0:0:0:0:
416,200,83035,1,0,0:0:0:0:
416,200,83773,1,0,0:0:0:0:
348,188,84019,1,8,0:0:0:0:
420,188,84265,1,0,0:0:0:0:
488,176,84511,1,8,0:0:0:0:
416,176,84756,1,8,0:0:0:0:
484,200,85002,1,0,0:0:0:0:
148,100,86232,1,0,0:0:0:0:
216,120,86478,1,8,0:0:0:0:
284,132,86724,1,0,0:0:0:0:
412,192,87215,1,8,0:0:0:0:
420,252,87461,1,0,0:0:0:0:
468,200,87707,1,8,0:0:0:0:
440,184,88199,1,0,0:0:0:0:
424,172,88445,1,0,0:0:0:0:
440,184,88691,1,8,0:0:0:0:
420,252,88937,1,0,0:0:0:0:
440,184,89674,1,8,0:0:0:0:
488,168,90412,1,0,0:0:0:0:
488,168,90658,1,8,0:0:0:0:
456,176,90904,1,0,0:0:0:0:
388,172,91150,1,0,0:0:0:0:
456,176,91642,1,8,0:0:0:0:
456,192,92134,1,0,0:0:0:0:
476,164,92379,1,8,0:0:0:0:
340,196,92871,1,4,0:0:0:0:
492,176,93363,1,8,0:0:0:0:
492,176,93609,1,0,0:0:0:0:
456,164,93855,1,8,0:0:0:0:
380,148,94101,1,8,0:0:0:0:
448,180,94347,1,0,0:0:0:0:
448,180,94593,1,0,0:0:0:0:
384,216,94838,1,8,0:0:0:0:
484,172,95330,1,8,0:0:0:0:
412,196,95576,1,0,0:0:0:0:
432,172,95822,1,0,0:0:0:0:
432,172,96068,1,8,0:0:0:0:
432,172,96314,1,8,0:0:0:0:
508,176,96560,1,0,0:0:0:0:
488,176,96806,1,12,0:0:0:0:
488,176,97297,1,8,0:0:0:0:
488,176,97543,1,0,0:0:0:0:
452,184,97789,1,8,0:0:0:0:
488,200,98035,1,8,0:0:0:0:
460,176,98281,1,0,0:0:0:0:
460,176,98527,1,8,0:0:0:0:
488,200,98773,1,0,0:0:0:0:
343,175,99265,1,0,0:0:0:0:
463,249,99511,1,8,0:0:0:0:
434,188,99756,1,0,0:0:0:0:
434,188,100002,1,8,0:0:0:0:
460,176,100248,1,0,0:0:0:0:
440,240,100740,1,4,0:0:0:0:
384,176,101232,1,8,0:0:0:0:
460,176,101478,1,0,0:0:0:0:
460,251,101724,1,8,0:0:0:0:
460,213,101847,1,8,0:0:0:0:
460,213,101970,1,8,0:0:0:0:
405,161,102215,1,0,0:0:0:0:
382,174,102461,1,8,0:0:0:0:
460,176,102707,1,0,0:0:0:0:
388,152,103199,1,8,0:0:0:0:
460,180,103445,1,0,0:0:0:0:
496,192,103691,1,8,0:0:0:0:
429,226,103937,1,0,0:0:0:0:
429,226,104060,1,0,0:0:0:0:
440,196,104183,1,0,0:0:0:0:
460,180,104429,1,8,0:0:0:0:
420,196,104674,1,0,0:0:0:0:
460,180,105166,1,8,0:0:0:0:
385,167,105412,1,8,0:0:0:0:
440,196,105658,1,0,0:0:0:0:
476,160,105904,1,0,0:0:0:0:
460,180,106150,1,8,0:0:0:0:
460,180,106642,1,4,0:0:0:0:
492,200,107133,1,0,0:0:0:0:
424,164,107379,1,8,0:0:0:0:
496,188,107625,1,0,0:0:0:0:
424,164,107871,1,0,0:0:0:0:
504,177,108117,1,8,0:0:0:0:
496,188,108363,1,8,0:0:0:0:
496,188,108609,1,8,0:0:0:0:
496,188,108732,1,8,0:0:0:0:
436,172,108855,1,8,0:0:0:0:
436,172,109101,1,0,0:0:0:0:
348,172,109346,1,8,0:0:0:0:
404,144,109592,1,0,0:0:0:0:
404,144,109715,1,0,0:0:0:0:
436,172,109838,1,0,0:0:0:0:
364,176,110084,1,8,0:0:0:0:
448,252,110576,1,4,0:0:0:0:
392,200,111067,1,0,0:0:0:0:
452,192,111313,1,8,0:0:0:0:
452,192,111559,1,0,0:0:0:0:
436,188,111682,1,0,0:0:0:0:
394,191,111805,1,0,0:0:0:0:
384,180,112051,1,8,0:0:0:0:
372,164,112297,1,0,0:0:0:0:
436,172,112543,1,0,0:0:0:0:
384,176,112789,1,8,0:0:0:0:
412,192,113280,1,0,0:0:0:0:
460,176,113526,1,8,0:0:0:0:
460,176,113772,1,8,0:0:0:0:
460,176,114018,1,0,0:0:0:0:
396,168,114264,1,8,0:0:0:0:
460,176,114510,1,0,0:0:0:0:
408,188,115002,1,0,0:0:0:0:
396,168,115248,1,8,0:0:0:0:
448,168,115494,1,8,0:0:0:0:
396,168,115616,1,8,0:0:0:0:
432,196,115739,1,8,0:0:0:0:
448,204,115985,1,0,0:0:0:0:
464,168,116231,1,8,0:0:0:0:
464,168,116477,1,8,0:0:0:0:
440,184,116723,1,0,0:0:0:0:
500,248,117215,1,0,0:0:0:0:
404,216,117461,1,0,0:0:0:0:
440,180,117707,1,8,0:0:0:0:
482,162,118198,1,8,0:0:0:0:
482,162,118444,1,4,0:0:0:0:
409,106,118690,1,8,0:0:0:0:
481,161,118936,1,8,0:0:0:0:
482,162,119182,1,0,0:0:0:0:
444,180,119305,1,0,0:0:0:0:
408,157,119428,1,0,0:0:0:0:
436,168,119674,1,8,0:0:0:0:
436,168,119920,1,0,0:0:0:0:
482,162,120166,1,8,0:0:0:0:
459,201,120412,1,0,0:0:0:0:
346,153,120903,1,8,0:0:0:0:
464,200,121149,1,8,0:0:0:0:
396,172,121395,1,0,0:0:0:0:
476,188,121641,1,0,0:0:0:0:
392,216,121887,1,8,0:0:0:0:
438,147,122379,1,4,0:0:0:0:
352,128,122625,1,0,0:0:0:0:
440,173,122871,1,8,0:0:0:0:
400,200,123116,1,8,0:0:0:0:
440,173,123362,1,4,0:0:0:0:
408,181,123854,1,8,0:0:0:0:
453,179,124100,1,8,0:0:0:0:
453,179,124346,1,0,0:0:0:0:
453,179,124592,1,0,0:0:0:0:
453,179,124838,1,12,0:0:0:0:
453,179,125084,1,8,0:0:0:0:
453,179,125207,1,8,0:0:0:0:
411,177,125330,1,8,0:0:0:0:
400,108,125576,1,0,0:0:0:0:
453,179,125821,1,8,0:0:0:0:
408,176,126067,1,8,0:0:0:0:
472,171,126313,1,4,0:0:0:0:
372,204,126805,1,0,0:0:0:0:
456,172,127051,1,8,0:0:0:0:
432,188,127297,1,0,0:0:0:0:
432,188,127420,1,0,0:0:0:0:
432,188,127543,1,0,0:0:0:0:
416,184,127789,1,8,0:0:0:0:
456,172,128035,1,8,0:0:0:0:
408,160,128280,1,0,0:0:0:0:
440,168,128526,1,8,0:0:0:0:
425,196,129018,1,0,0:0:0:0:
508,180,129264,1,8,0:0:0:0:
420,184,129510,1,8,0:0:0:0:
420,184,129756,1,0,0:0:0:0:
425,196,130002,1,8,0:0:0:0:
460,168,130248,1,0,0:0:0:0:
484,177,130739,1,8,0:0:0:0:
460,168,130985,1,0,0:0:0:0:
460,168,131231,1,8,0:0:0:0:
460,168,131354,1,8,0:0:0:0:
460,168,131477,1,8,0:0:0:0:
460,168,131723,1,8,0:0:0:0:
386,208,131969,1,0,0:0:0:0:
440,168,132215,1,8,0:0:0:0:
480,172,132461,1,0,0:0:0:0:
460,168,132953,1,0,0:0:0:0:
392,192,133198,1,0,0:0:0:0:
480,196,133444,1,8,0:0:0:0:
392,192,133936,1,8,0:0:0:0:
480,172,134182,1,4,0:0:0:0:
480,172,134674,1,8,0:0:0:0:
480,172,134920,1,8,0:0:0:0:
480,172,135166,1,0,0:0:0:0:
436,180,135289,1,0,0:0:0:0:
394,181,135412,1,0,0:0:0:0:
480,172,135657,1,0,0:0:0:0:
391,169,135903,1,8,0:0:0:0:
480,172,136149,1,0,0:0:0:0:
388,172,136641,1,8,0:0:0:0:
480,172,136887,1,0,0:0:0:0:
448,200,137133,1,8,0:0:0:0:
480,172,137379,1,0,0:0:0:0:
434,177,137625,1,8,0:0:0:0:
454,175,137871,1,8,0:0:0:0:
364,187,138116,1,4,0:0:0:0:
480,172,138608,1,0,0:0:0:0:
480,172,138854,1,0,0:0:0:0:
390,156,139100,1,12,0:0:0:0:
480,172,139592,1,0,0:0:0:0:
480,172,139838,1,8,0:0:0:0:
433,172,140084,1,4,0:0:0:0:
480,172,140330,1,8,0:0:0:0:
480,172,140576,1,8,0:0:0:0:
492,260,140821,1,0,0:0:0:0:
484,216,140944,1,0,0:0:0:0:
433,172,141067,1,0,0:0:0:0:
504,136,141313,1,0,0:0:0:0:
428,244,141559,1,8,0:0:0:0:
416,216,141682,1,8,0:0:0:0:
392,184,141805,1,8,0:0:0:0:
441,255,142051,1,4,0:0:0:0:
478,172,142543,1,8,0:0:0:0:
478,172,143035,1,0,0:0:0:0:
478,172,143280,1,0,0:0:0:0:
478,172,143526,1,8,0:0:0:0:
478,172,143772,1,8,0:0:0:0:
478,172,144018,1,0,0:0:0:0:
444,200,144264,1,8,0:0:0:0:
368,132,144756,1,8,0:0:0:0:
444,200,145002,1,0,0:0:0:0:
444,200,145125,1,0,0:0:0:0:
444,200,145248,1,0,0:0:0:0:
392,142,145494,1,8,0:0:0:0:
459,183,145739,1,0,0:0:0:0:
459,183,145985,1,8,0:0:0:0:
459,183,146477,1,0,0:0:0:0:
386,156,146723,1,8,0:0:0:0:
459,183,146969,1,8,0:0:0:0:
421,174,147092,1,8,0:0:0:0:
459,183,147215,1,8,0:0:0:0:
501,179,147461,1,0,0:0:0:0:
501,179,147707,1,8,0:0:0:0:
459,177,147953,1,0,0:0:0:0:
350,285,148444,1,0,0:0:0:0:
424,204,148690,1,0,0:0:0:0:
420,174,148936,1,8,0:0:0:0:
424,204,149182,1,0,0:0:0:0:
501,179,149428,1,8,0:0:0:0:
501,179,149674,1,8,0:0:0:0:
459,187,149920,1,4,0:0:0:0:
448,169,150412,1,8,0:0:0:0:
372,179,150657,1,0,0:0:0:0:
372,179,150780,1,0,0:0:0:0:
407,178,150903,1,0,0:0:0:0:
448,179,151149,1,0,0:0:0:0:
492,192,151395,1,8,0:0:0:0:
412,192,151641,1,8,0:0:0:0:
448,179,151887,1,0,0:0:0:0:
448,179,152379,1,8,0:0:0:0:
371,172,152625,1,8,0:0:0:0:
495,173,152871,1,0,0:0:0:0:
448,179,153116,1,8,0:0:0:0:
377,147,153362,1,0,0:0:0:0:
495,173,153608,1,8,0:0:0:0:
448,179,153854,1,0,0:0:0:0:
495,173,154346,1,8,0:0:0:0:
495,173,154592,1,8,0:0:0:0:
458,186,154715,1,8,0:0:0:0:
420,212,154838,1,8,0:0:0:0:
428,184,155084,1,8,0:0:0:0:
456,184,155330,1,0,0:0:0:0:
480,252,155576,1,8,0:0:0:0:
448,179,155821,1,0,0:0:0:0:
492,168,156313,1,8,0:0:0:0:
420,212,156559,1,0,0:0:0:0:
380,200,156682,1,0,0:0:0:0:
409,226,156805,1,0,0:0:0:0:
460,176,157051,1,0,0:0:0:0:
472,244,157297,1,8,0:0:0:0:
420,212,157543,1,8,0:0:0:0:
492,207,157789,1,4,0:0:0:0:
500,196,158280,1,8,0:0:0:0:
500,196,158526,1,0,0:0:0:0:
460,176,158772,1,8,0:0:0:0:
416,172,158895,1,8,0:0:0:0:
446,200,159018,1,8,0:0:0:0:
460,176,159264,1,8,0:0:0:0:
378,216,159510,1,0,0:0:0:0:
420,200,159756,1,8,0:0:0:0:
428,288,160002,1,8,0:0:0:0:
444,180,160248,1,0,0:0:0:0:
444,180,160739,1,0,0:0:0:0:
420,200,160862,1,0,0:0:0:0:
438,237,160985,1,0,0:0:0:0:
460,176,161231,1,8,0:0:0:0:
464,200,161477,1,0,0:0:0:0:
460,176,161723,1,8,0:0:0:0:
464,200,161969,1,8,0:0:0:0:
464,200,162215,1,0,0:0:0:0:
360,60,162707,1,8,0:0:0:0:
377,97,162830,1,8,0:0:0:0:
458,174,162953,1,8,0:0:0:0:
380,212,163198,1,0,0:0:0:0:
426,213,163444,1,0,0:0:0:0:
460,176,163690,1,8,0:0:0:0:
368,184,163936,1,8,0:0:0:0:
459,176,164182,1,0,0:0:0:0:
377,154,164428,1,8,0:0:0:0:
392,172,164674,1,0,0:0:0:0:
473,150,164920,1,8,0:0:0:0:
508,176,165412,1,8,0:0:0:0:
464,180,165657,1,4,0:0:0:0:
424,352,166149,1,0,0:0:0:0:
508,176,166395,1,8,0:0:0:0:
508,176,166518,1,8,0:0:0:0:
468,192,166641,1,8,0:0:0:0:
416,268,166887,1,0,0:0:0:0:
352,192,167133,1,8,0:0:0:0:
424,212,167379,1,0,0:0:0:0:
392,204,167625,1,0,0:0:0:0:
432,204,167871,1,8,0:0:0:0:
424,180,168362,1,8,0:0:0:0:
432,204,168485,1,8,0:0:0:0:
432,204,168608,1,8,0:0:0:0:
496,176,168854,1,8,0:0:0:0:
428,160,169100,1,0,0:0:0:0:
488,228,169346,1,8,0:0:0:0:
464,140,169592,1,4,0:0:0:0:
508,220,170084,1,8,0:0:0:0:
464,204,170330,1,0,0:0:0:0:
420,212,170576,1,8,0:0:0:0:
444,164,170821,1,0,0:0:0:0:
444,164,170944,1,0,0:0:0:0:
464,204,171067,1,0,0:0:0:0:
444,164,171313,1,8,0:0:0:0:
444,164,171559,1,4,0:0:0:0:
464,168,172051,1,0,0:0:0:0:
464,168,172297,1,8,0:0:0:0:
456,180,172543,1,0,0:0:0:0:
416,166,172666,1,0,0:0:0:0:
416,166,172789,1,0,0:0:0:0:
380,192,173035,1,8,0:0:0:0:
380,192,173157,1,8,0:0:0:0:
416,200,173280,1,8,0:0:0:0:
369,180,187297,5,4,0:0:0:0:
488,152,187542,1,0,0:0:0:0:
472,179,187788,1,8,0:0:0:0:
472,179,188034,1,8,0:0:0:0:
419,190,188280,1,0,0:0:0:0:
419,190,188526,1,0,0:0:0:0:
449,173,188772,1,8,0:0:0:0:
449,173,188895,1,8,0:0:0:0:
449,173,189018,1,8,0:0:0:0:
389,185,189264,1,0,0:0:0:0:
389,185,189386,1,0,0:0:0:0:
389,185,189509,1,0,0:0:0:0:
358,197,189755,1,12,0:0:0:0:
460,196,190247,1,0,0:0:0:0:
460,196,190493,1,0,0:0:0:0:
492,172,190739,1,8,0:0:0:0:
420,176,190985,1,8,0:0:0:0:
420,176,191108,1,8,0:0:0:0:
390,205,191231,1,8,0:0:0:0:
464,168,191477,1,0,0:0:0:0:
380,204,191723,1,8,0:0:0:0:
420,176,191968,1,0,0:0:0:0:
452,168,192214,1,8,0:0:0:0:
464,192,192460,1,8,0:0:0:0:
432,200,192706,1,0,0:0:0:0:
420,160,192952,1,8,0:0:0:0:
384,236,193198,1,0,0:0:0:0:
392,176,193690,1,8,0:0:0:0:
472,256,193936,1,0,0:0:0:0:
428,184,194059,1,0,0:0:0:0:
472,256,194182,1,0,0:0:0:0:
428,184,194427,1,0,0:0:0:0:
428,184,194673,1,8,0:0:0:0:
436,176,194919,1,8,0:0:0:0:
452,168,195165,1,0,0:0:0:0:
428,200,195411,1,0,0:0:0:0:
484,200,195657,1,8,0:0:0:0:
400,168,195903,1,0,0:0:0:0:
452,168,196149,1,8,0:0:0:0:
420,200,196272,1,8,0:0:0:0:
444,184,196395,1,8,0:0:0:0:
444,184,196641,1,8,0:0:0:0:
444,184,197132,1,4,0:0:0:0:
492,168,197378,1,8,0:0:0:0:
404,164,197624,1,0,0:0:0:0:
492,168,197870,1,8,0:0:0:0:
411,190,198116,1,0,0:0:0:0:
371,202,198239,1,0,0:0:0:0:
371,202,198362,1,0,0:0:0:0:
453,186,198608,1,0,0:0:0:0:
408,156,198854,1,8,0:0:0:0:
464,228,199100,1,0,0:0:0:0:
272,40,199345,1,0,0:0:0:0:
444,184,199591,1,8,0:0:0:0:
472,172,199837,1,8,0:0:0:0:
412,168,199960,1,8,0:0:0:0:
412,168,200083,1,8,0:0:0:0:
472,172,200329,1,0,0:0:0:0:
472,172,200575,1,8,0:0:0:0:
380,168,200821,1,0,0:0:0:0:
472,176,201067,1,12,0:0:0:0:
376,172,201559,1,0,0:0:0:0:
464,188,201804,1,8,0:0:0:0:
464,188,202050,1,4,0:0:0:0:
408,176,202542,1,8,0:0:0:0:
464,188,202788,1,8,0:0:0:0:
420,172,203034,1,4,0:0:0:0:
512,172,203280,1,0,0:0:0:0:
420,172,203526,1,8,0:0:0:0:
420,172,203772,1,0,0:0:0:0:
396,176,203895,1,0,0:0:0:0:
396,176,204018,1,0,0:0:0:0:
396,176,204264,1,0,0:0:0:0:
376,176,204509,1,8,0:0:0:0:
396,176,204632,1,8,0:0:0:0:
464,188,204755,1,8,0:0:0:0:
387,210,205001,1,4,0:0:0:0:
480,276,205493,1,8,0:0:0:0:
464,188,205739,1,0,0:0:0:0:
420,176,205862,1,0,0:0:0:0:
420,176,205985,1,0,0:0:0:0:
492,184,206231,1,0,0:0:0:0:
492,184,206477,1,8,0:0:0:0:
492,184,206723,1,8,0:0:0:0:
448,180,206968,1,0,0:0:0:0:
356,176,207214,1,0,0:0:0:0:
448,180,207460,1,8,0:0:0:0:
448,180,207706,1,8,0:0:0:0:
448,180,207829,1,8,0:0:0:0:
492,176,207952,1,8,0:0:0:0:
448,180,208198,1,0,0:0:0:0:
448,180,208444,1,8,0:0:0:0:
464,224,208936,1,0,0:0:0:0:
448,180,209182,1,8,0:0:0:0:
356,192,209427,1,0,0:0:0:0:
448,180,209673,1,0,0:0:0:0:
448,180,209796,1,0,0:0:0:0:
448,180,209919,1,0,0:0:0:0:
468,164,210165,1,0,0:0:0:0:
448,180,210411,1,8,0:0:0:0:
460,180,210657,1,8,0:0:0:0:
416,172,210903,1,0,0:0:0:0:
448,180,211395,1,8,0:0:0:0:
456,270,211641,1,0,0:0:0:0:
483,184,211886,1,0,0:0:0:0:
448,180,212132,1,8,0:0:0:0:
439,171,212255,1,8,0:0:0:0:
439,171,212378,1,8,0:0:0:0:
483,184,212624,1,8,0:0:0:0:
392,171,212870,1,4,0:0:0:0:
448,180,213116,1,8,0:0:0:0:
439,171,213239,1,8,0:0:0:0:
436,212,213362,1,8,0:0:0:0:
392,171,213608,1,8,0:0:0:0:
482,166,213854,1,0,0:0:0:0:
416,164,214100,1,8,0:0:0:0:
424,176,214345,1,8,0:0:0:0:
482,166,214591,1,8,0:0:0:0:
500,170,214837,1,0,0:0:0:0:
436,168,215329,1,8,0:0:0:0:
392,168,215575,1,0,0:0:0:0:
436,168,215698,1,0,0:0:0:0:
404,184,215821,1,0,0:0:0:0:
468,174,216067,1,0,0:0:0:0:
468,174,216313,1,8,0:0:0:0:
456,217,216804,1,4,0:0:0:0:
494,189,217050,1,0,0:0:0:0:
494,189,217173,1,0,0:0:0:0:
494,189,217296,1,0,0:0:0:0:
468,174,217542,1,0,0:0:0:0:
468,174,217788,1,12,0:0:0:0:
489,164,218280,1,8,0:0:0:0:
468,174,218526,1,8,0:0:0:0:
331,70,218772,1,4,0:0:0:0:
398,131,219018,1,0,0:0:0:0:
465,192,219264,1,0,0:0:0:0:
449,153,219386,1,0,0:0:0:0:
485,210,219509,1,0,0:0:0:0:
412,172,219755,1,8,0:0:0:0:
450,180,220001,1,8,0:0:0:0:
450,180,220247,1,8,0:0:0:0:
450,180,220739,1,4,0:0:0:0:
256,192,220985,12,0,228116,0:0:0:0:
