osu file format v14

[General]
AudioFilename: audio.mp3
AudioLeadIn: 0
PreviewTime: 109300
Countdown: 0
SampleSet: Normal
StackLeniency: 0.7
Mode: 1
LetterboxInBreaks: 0
WidescreenStoryboard: 0

[Editor]
Bookmarks: 69832
DistanceSpacing: 1
BeatDivisor: 4
GridSize: 4
TimelineZoom: 1.52

[Metadata]
Title:spiral
TitleUnicode:spiral
Artist:LONGMAN
ArtistUnicode:LONGMAN
Creator:iloveyou4ever
Version:A Step Forward
Source:無職転生 Ⅱ ~異世界行ったら本気だす~
Tags:mushoku tensei ii: ~isekai ittara honki dasu~ jobless reincarnation: i will seriously try if i go to another world season 2 two s2 anime opening theme op japanese j-pop jpop pop j-rock jrock rock
BeatmapID:4215770
BeatmapSetID:2023932

[Difficulty]
HPDrainRate:6
CircleSize:5
OverallDifficulty:5.5
ApproachRate:0
SliderMultiplier:1.4
SliderTickRate:1

[Events]
//Background and Video events
0,0,"BG2.jpg",0,0
//Break Periods
2,173603,185497
//Storyboard Layer 0 (Background)
//Storyboard Layer 1 (Fail)
//Storyboard Layer 2 (Pass)
//Storyboard Layer 3 (Foreground)
//Storyboard Layer 4 (Overlay)
//Storyboard Sound Samples

[TimingPoints]
414,491.803278688525,4,1,0,30,1,0
414,-111.111111111111,4,1,0,30,0,0
7050,-109.091702485109,4,1,0,40,0,0
7296,-107.142895408177,4,1,0,40,0,0
7788,-103.448347205757,4,1,0,45,0,0
8033,-101.694918701523,4,1,0,45,0,0
8279,-100,4,1,0,50,0,0
23276,-97.5609756097561,4,1,0,50,0,0
23522,-95.2380952380952,4,1,0,60,0,0
23645,-94.1176470588235,4,1,0,60,0,0
23768,-93.0232558139535,4,1,0,60,0,0
24014,-90.9090909090909,4,1,0,70,0,0
37791,491.803278688525,4,1,0,70,1,0
37791,-90.9090909090909,4,1,0,70,0,0
38276,-89.6860986547085,4,1,0,70,0,0
38522,-88.2217346925962,4,1,0,70,0,0
38768,-86.8044217657057,4,1,0,70,0,0
38891,-86.1127064393674,4,1,0,70,0,0
39014,-85.4319280551295,4,1,0,70,0,0
39260,-84.1021606970321,4,1,0,70,0,0
39506,-82.813155134062,4,1,0,70,0,0
39629,-82.1833567840539,4,1,0,70,0,0
39752,-81.5630654312245,4,1,0,70,0,0
39998,-80.3501554558213,4,1,0,70,0,0
40244,-79.1727908328276,4,1,0,70,0,0
40367,-78.5969532893097,4,1,0,70,0,0
40489,-78.0340125476407,4,1,0,70,0,0
40612,-77.4745624136524,4,1,0,70,0,0
40735,-76.9230769230769,4,1,0,70,0,0
41230,-90.9090909090909,4,1,0,70,0,0
41725,491.803278688525,4,1,0,80,1,1
41725,-76.9230769230769,4,1,0,80,0,1
73200,-76.9230769230769,4,1,0,80,0,0
75165,-83.3333333333333,4,1,0,70,0,0
75653,-86.9565217391304,4,1,0,70,0,0
75899,-88.8888888888889,4,1,0,70,0,0
76145,-90.9090909090909,4,1,0,70,0,0
76391,-93.0232558139535,4,1,0,70,0,0
76637,-95.2380952380952,4,1,0,70,0,0
76883,-97.5609756097561,4,1,0,70,0,0
77134,491.803278688525,4,1,0,60,1,0
77134,-100,4,1,0,60,0,0
92870,-95.2380952380952,4,1,0,70,0,0
100738,-90.9090909090909,4,1,0,70,0,0
106642,491.803278688525,4,1,0,70,1,0
106642,-90.9090909090909,4,1,0,70,0,0
107129,-89.8472596585804,4,1,0,70,0,0
107375,-88.7811752956191,4,1,0,70,0,0
107621,-87.7400935520463,4,1,0,70,0,0
107744,-87.228655398914,4,1,0,70,0,0
107867,-86.7231450518928,4,1,0,70,0,0
108112,-85.7334933758298,4,1,0,70,0,0
108358,-84.7622703975528,4,1,0,70,0,0
108604,-83.8128057298544,4,1,0,70,0,0
108727,-83.3460055421946,4,1,0,70,0,0
108850,-82.8843762950684,4,1,0,70,0,0
108973,-82.4278325407457,4,1,0,70,0,0
109096,-81.9762907038362,4,1,0,70,0,0
109219,-81.5296690302849,4,1,0,70,0,0
109342,-81.0878875380261,4,1,0,70,0,0
109588,-80.2185337441057,4,1,0,70,0,0
109711,-79.7908099161292,4,1,0,70,0,0
109834,-79.3676231287676,4,1,0,70,0,0
109957,-78.948901573519,4,1,0,70,0,0
110080,-78.5345749492959,4,1,0,70,0,0
110203,-78.1245744230766,4,1,0,70,0,0
110326,-77.7188325917831,4,1,0,70,0,0
110448,-77.3205313416595,4,1,0,70,0,0
110576,491.803278688525,4,1,0,80,1,1
110576,-76.9230769230769,4,1,0,80,0,1
142051,-76.9230769230769,4,1,0,80,0,0
142297,-83.3333333333333,4,1,0,80,0,0
156556,-82.6446280991736,4,1,0,80,0,0
156679,-82.0344544708778,4,1,0,80,0,0
156802,-81.4332247557003,4,1,0,80,0,0
156925,-80.8407437348423,4,1,0,80,0,0
157048,-80.2568218298555,4,1,0,80,0,0
157294,-79.1139240506329,4,1,0,80,0,0
157417,-78.5545954438334,4,1,0,80,0,0
157540,-78.003120124805,4,1,0,80,0,0
157663,-77.4593338497289,4,1,0,80,0,0
157789,-76.9230769230769,4,1,0,80,0,1
172048,-76.3358778625954,4,1,0,80,0,1
172294,-75.3934175746964,4,1,0,80,0,1
172540,-74.4739451360582,4,1,0,80,0,1
172663,-74.0225681232103,4,1,0,80,0,1
172786,-73.5766296243891,4,1,0,80,0,1
172909,-73.1360319375098,4,1,0,80,0,1
173032,-72.7006796868278,4,1,0,80,0,1
173154,-72.2739567853057,4,1,0,80,0,1
173277,-71.8487774547889,4,1,0,80,0,1
173403,-71.4285714285714,4,1,0,80,0,0
174018,-71.4285714285714,4,1,0,50,0,0
175494,-76.9230769230769,4,1,0,50,0,0
177461,-83.3333333333333,4,1,0,50,0,0
179428,-90.9090909090909,4,1,0,50,0,0
185330,-111.111111111111,4,1,0,50,0,0
187297,491.803278688525,4,1,0,70,1,0
187297,-90.9090909090909,4,1,0,70,0,0
187540,-89.2850659017465,4,1,0,70,0,0
187786,-87.7180465879499,4,1,0,70,0,0
188032,-86.205083260298,4,1,0,70,0,0
188154,-85.4739476519865,4,1,0,70,0,0
188277,-84.7492676201964,4,1,0,70,0,0
188400,-84.0367724958135,4,1,0,70,0,0
188523,-83.3361575219439,4,1,0,70,0,0
188769,-81.969398979966,4,1,0,70,0,0
188892,-81.3026946602744,4,1,0,70,0,0
189015,-80.6467482207865,4,1,0,70,0,0
189138,-80.0013013631779,4,1,0,70,0,0
189264,491.803278688525,4,1,0,70,1,0
189264,-79.366103992512,4,1,0,70,0,0
189384,-78.7409138941369,4,1,0,70,0,0
189507,-78.1254964257347,4,1,0,70,0,0
189630,-77.5196242237004,4,1,0,70,0,0
189755,-76.9230769230769,4,1,0,80,0,1
205001,-72.7272727272727,4,1,0,90,0,1
220739,-72.7272727272727,4,1,0,90,0,0
220985,-72.7272727272727,4,1,0,80,0,0
221231,-72.7272727272727,4,1,0,77,0,0
221477,-72.7272727272727,4,1,0,74,0,0
221723,-72.7272727272727,4,1,0,72,0,0
221969,-72.7272727272727,4,1,0,69,0,0
222215,-72.7272727272727,4,1,0,66,0,0
222461,-72.7272727272727,4,1,0,63,0,0
222707,-76.9230769230769,4,1,0,61,0,0
222953,-76.9230769230769,4,1,0,58,0,0
223198,-76.9230769230769,4,1,0,55,0,0
223444,-76.9230769230769,4,1,0,52,0,0
223690,-76.9230769230769,4,1,0,50,0,0
223936,-76.9230769230769,4,1,0,47,0,0
224182,-76.9230769230769,4,1,0,44,0,0
224428,-76.9230769230769,4,1,0,41,0,0
224674,-83.3333333333333,4,1,0,39,0,0
224920,-83.3333333333333,4,1,0,36,0,0
225166,-83.3333333333333,4,1,0,33,0,0
225412,-83.3333333333333,4,1,0,30,0,0
225657,-83.3333333333333,4,1,0,28,0,0
225903,-83.3333333333333,4,1,0,25,0,0
226149,-83.3333333333333,4,1,0,22,0,0
226395,-83.3333333333333,4,1,0,19,0,0
226641,-90.9090909090909,4,1,0,17,0,0
226887,-90.9090909090909,4,1,0,14,0,0
227133,-90.9090909090909,4,1,0,11,0,0
227379,-90.9090909090909,4,1,0,8,0,0
227625,-90.9090909090909,4,1,0,6,0,0
227871,-90.9090909090909,4,1,0,5,0,0
228116,-90.9090909090909,4,1,0,5,0,0

[HitObjects]
461,172,414,5,0,0:0:0:0:
445,226,905,1,0,0:0:0:0:
494,176,1151,1,8,0:0:0:0:
353,176,1643,1,8,0:0:0:0:
423,177,1889,1,0,0:0:0:0:
404,138,2381,1,0,0:0:0:0:
402,174,3364,1,8,0:0:0:0:
445,193,4348,1,0,0:0:0:0:
497,170,4840,1,8,0:0:0:0:
476,184,5086,1,0,0:0:0:0:
476,184,5577,1,0,0:0:0:0:
476,184,5823,1,8,0:0:0:0:
429,228,6315,1,0,0:0:0:0:
476,184,7053,1,0,0:0:0:0:
491,165,7299,1,8,0:0:0:0:
438,210,7791,1,8,0:0:0:0:
491,165,8036,1,8,0:0:0:0:
438,210,8282,1,0,0:0:0:0:
496,248,8528,1,0,0:0:0:0:
413,134,9020,1,0,0:0:0:0:
450,166,9512,1,8,0:0:0:0:
491,172,10004,1,8,0:0:0:0:
435,214,10250,1,0,0:0:0:0:
491,197,10987,1,0,0:0:0:0:
432,159,11233,1,8,0:0:0:0:
432,159,11725,1,8,0:0:0:0:
432,159,11971,1,8,0:0:0:0:
432,159,12217,1,8,0:0:0:0:
436,228,12463,1,0,0:0:0:0:
399,93,12954,1,0,0:0:0:0:
476,209,13446,1,8,0:0:0:0:
339,178,13938,1,0,0:0:0:0:
431,162,14184,1,8,0:0:0:0:
356,236,14553,1,0,0:0:0:0:
445,181,14922,1,0,0:0:0:0:
465,99,15168,1,8,0:0:0:0:
464,169,15414,1,0,0:0:0:0:
387,215,15659,1,8,0:0:0:0:
426,157,15905,1,8,0:0:0:0:
403,223,16151,1,0,0:0:0:0:
468,184,17381,1,8,0:0:0:0:
468,184,17627,1,0,0:0:0:0:
468,184,17873,1,8,0:0:0:0:
400,168,18118,1,0,0:0:0:0:
496,200,18610,1,0,0:0:0:0:
468,184,18856,1,8,0:0:0:0:
496,200,19348,1,0,0:0:0:0:
436,72,19840,1,8,0:0:0:0:
440,140,20086,1,0,0:0:0:0:
484,216,21807,1,0,0:0:0:0:
371,223,22053,1,0,0:0:0:0:
366,194,22422,1,0,0:0:0:0:
399,183,22791,1,8,0:0:0:0:
484,181,23282,1,0,0:0:0:0:
484,181,23528,1,8,0:0:0:0:
484,181,23651,1,8,0:0:0:0:
449,178,23774,1,0,0:0:0:0:
471,244,24020,1,4,0:0:0:0:
426,181,24266,1,0,0:0:0:0:
502,208,24512,1,8,0:0:0:0:
461,142,24758,1,0,0:0:0:0:
485,171,24881,1,0,0:0:0:0:
447,180,25004,1,8,0:0:0:0:
447,180,25127,1,8,0:0:0:0:
426,181,25250,1,0,0:0:0:0:
366,229,25495,1,8,0:0:0:0:
447,180,25741,1,8,0:0:0:0:
460,215,25864,1,8,0:0:0:0:
369,181,25987,1,0,0:0:0:0:
322,119,26233,1,0,0:0:0:0:
394,145,26479,1,8,0:0:0:0:
466,170,26725,1,0,0:0:0:0:
428,163,26848,1,8,0:0:0:0:
466,170,26971,1,0,0:0:0:0:
428,163,27094,1,8,0:0:0:0:
428,163,27217,1,0,0:0:0:0:
498,194,27463,1,8,0:0:0:0:
498,194,27709,1,8,0:0:0:0:
466,170,27832,1,0,0:0:0:0:
466,170,27954,1,0,0:0:0:0:
466,170,28200,1,0,0:0:0:0:
390,186,28446,1,8,0:0:0:0:
466,170,28692,1,0,0:0:0:0:
459,215,28815,1,8,0:0:0:0:
435,200,28938,1,8,0:0:0:0:
466,170,29061,1,8,0:0:0:0:
466,170,29184,1,0,0:0:0:0:
466,178,29430,1,8,0:0:0:0:
406,226,29676,1,0,0:0:0:0:
435,200,29799,1,8,0:0:0:0:
464,173,29922,1,0,0:0:0:0:
404,221,30168,1,0,0:0:0:0:
411,144,30414,1,8,0:0:0:0:
399,219,30659,1,8,0:0:0:0:
405,181,30782,1,8,0:0:0:0:
440,196,30905,1,0,0:0:0:0:
443,234,31028,1,0,0:0:0:0:
508,164,31151,1,8,0:0:0:0:
440,196,31397,1,0,0:0:0:0:
509,163,31643,1,8,0:0:0:0:
487,195,31766,1,8,0:0:0:0:
434,181,31889,1,4,0:0:0:0:
506,154,32135,1,0,0:0:0:0:
444,201,32381,1,8,0:0:0:0:
499,208,32627,1,8,0:0:0:0:
499,208,32750,1,8,0:0:0:0:
499,208,32873,1,0,0:0:0:0:
466,187,32995,1,8,0:0:0:0:
499,208,33118,1,0,0:0:0:0:
472,135,33364,1,8,0:0:0:0:
450,209,33610,1,8,0:0:0:0:
450,209,33733,1,8,0:0:0:0:
466,187,33856,1,0,0:0:0:0:
466,187,34102,1,0,0:0:0:0:
432,168,34225,1,8,0:0:0:0:
400,192,34348,1,0,0:0:0:0:
466,187,34594,1,8,0:0:0:0:
436,164,34717,1,0,0:0:0:0:
428,172,34840,1,8,0:0:0:0:
428,172,34963,1,8,0:0:0:0:
468,172,35086,1,0,0:0:0:0:
436,164,35332,1,8,0:0:0:0:
436,164,35577,1,0,0:0:0:0:
468,172,35700,1,0,0:0:0:0:
468,172,35823,1,8,0:0:0:0:
504,164,36069,1,0,0:0:0:0:
448,216,36315,1,8,0:0:0:0:
352,172,36561,1,8,0:0:0:0:
468,172,36684,1,8,0:0:0:0:
432,160,36807,1,0,0:0:0:0:
420,196,36930,1,8,0:0:0:0:
432,160,37053,1,0,0:0:0:0:
420,196,37299,1,8,0:0:0:0:
468,172,37545,1,8,0:0:0:0:
392,180,37791,1,4,0:0:0:0:
484,200,38282,1,0,0:0:0:0:
484,200,38528,1,0,0:0:0:0:
408,188,38774,1,8,0:0:0:0:
444,172,38897,1,0,0:0:0:0:
444,172,39020,1,8,0:0:0:0:
444,172,39266,1,8,0:0:0:0:
480,180,39512,1,0,0:0:0:0:
480,180,39635,1,0,0:0:0:0:
500,184,39758,1,8,0:0:0:0:
500,184,40004,1,0,0:0:0:0:
424,188,40250,1,8,0:0:0:0:
464,188,40372,1,8,0:0:0:0:
424,188,40495,1,0,0:0:0:0:
424,188,40618,1,0,0:0:0:0:
456,164,40741,1,8,0:0:0:0:
456,164,41233,1,0,0:0:0:0:
332,256,41725,1,4,0:0:0:0:
416,220,41970,1,0,0:0:0:0:
468,148,42216,1,8,0:0:0:0:
416,220,42462,1,8,0:0:0:0:
444,184,42585,1,8,0:0:0:0:
444,184,42708,1,0,0:0:0:0:
488,176,42831,1,8,0:0:0:0:
444,184,42954,1,0,0:0:0:0:
488,176,43077,1,0,0:0:0:0:
444,160,43200,1,8,0:0:0:0:
444,160,43446,1,8,0:0:0:0:
444,160,43569,1,8,0:0:0:0:
444,160,43692,1,0,0:0:0:0:
444,160,43938,1,0,0:0:0:0:
464,172,44184,1,8,0:0:0:0:
376,156,44429,1,0,0:0:0:0:
420,164,44552,1,0,0:0:0:0:
444,160,44675,1,8,0:0:0:0:
444,160,44798,1,8,0:0:0:0:
444,160,44921,1,0,0:0:0:0:
464,172,45167,1,8,0:0:0:0:
464,172,45290,1,8,0:0:0:0:
488,212,45413,1,0,0:0:0:0:
420,164,45536,1,8,0:0:0:0:
376,164,45659,1,0,0:0:0:0:
460,196,45905,1,0,0:0:0:0:
420,164,46151,1,8,0:0:0:0:
508,148,46397,1,0,0:0:0:0:
464,156,46520,1,0,0:0:0:0:
464,156,46643,1,8,0:0:0:0:
420,168,46765,1,0,0:0:0:0:
464,156,46888,1,8,0:0:0:0:
464,156,47011,1,8,0:0:0:0:
464,156,47134,1,8,0:0:0:0:
384,200,47380,1,8,0:0:0:0:
424,180,47503,1,8,0:0:0:0:
384,200,47626,1,0,0:0:0:0:
464,156,47872,1,0,0:0:0:0:
464,156,48118,1,8,0:0:0:0:
512,152,48364,1,0,0:0:0:0:
512,152,48487,1,0,0:0:0:0:
468,160,48610,1,8,0:0:0:0:
468,160,48733,1,0,0:0:0:0:
468,160,48856,1,8,0:0:0:0:
484,172,49102,1,0,0:0:0:0:
484,172,49225,1,0,0:0:0:0:
468,160,49347,1,8,0:0:0:0:
448,200,49470,1,8,0:0:0:0:
428,180,49593,1,4,0:0:0:0:
472,180,49839,1,0,0:0:0:0:
468,160,49962,1,0,0:0:0:0:
472,180,50085,1,8,0:0:0:0:
472,180,50331,1,8,0:0:0:0:
472,180,50454,1,8,0:0:0:0:
428,180,50577,1,0,0:0:0:0:
428,180,50700,1,0,0:0:0:0:
472,180,50823,1,8,0:0:0:0:
472,180,50946,1,0,0:0:0:0:
472,180,51069,1,8,0:0:0:0:
384,164,51315,1,8,0:0:0:0:
428,172,51438,1,8,0:0:0:0:
472,180,51561,1,0,0:0:0:0:
496,176,51806,1,0,0:0:0:0:
428,172,52052,1,8,0:0:0:0:
428,172,52298,1,0,0:0:0:0:
428,172,52421,1,0,0:0:0:0:
428,172,52544,1,8,0:0:0:0:
428,172,52667,1,8,0:0:0:0:
428,172,52790,1,0,0:0:0:0:
428,172,53036,1,8,0:0:0:0:
340,152,53282,1,0,0:0:0:0:
424,188,53528,1,12,0:0:0:0:
456,192,53774,1,8,0:0:0:0:
456,192,53897,1,8,0:0:0:0:
428,172,54020,1,0,0:0:0:0:
468,172,54265,1,0,0:0:0:0:
456,192,54388,1,8,0:0:0:0:
468,172,54511,1,4,0:0:0:0:
500,204,54757,1,8,0:0:0:0:
468,172,55003,1,0,0:0:0:0:
468,172,55126,1,0,0:0:0:0:
468,172,55249,1,8,0:0:0:0:
468,172,55372,1,8,0:0:0:0:
468,172,55495,1,0,0:0:0:0:
472,217,55618,1,8,0:0:0:0:
500,204,55741,1,0,0:0:0:0:
413,175,55987,1,12,0:0:0:0:
468,172,56233,1,8,0:0:0:0:
422,175,56356,1,0,0:0:0:0:
424,220,56479,1,8,0:0:0:0:
468,172,56725,1,0,0:0:0:0:
468,172,56847,1,0,0:0:0:0:
413,175,56970,1,8,0:0:0:0:
422,175,57093,1,0,0:0:0:0:
422,175,57216,1,8,0:0:0:0:
385,202,57339,1,8,0:0:0:0:
500,128,57462,1,4,0:0:0:0:
418,168,57708,1,0,0:0:0:0:
508,162,57954,1,8,0:0:0:0:
417,168,58200,1,8,0:0:0:0:
418,168,58323,1,0,0:0:0:0:
508,162,58446,1,8,0:0:0:0:
508,162,58569,1,8,0:0:0:0:
465,177,58692,1,0,0:0:0:0:
465,177,58815,1,0,0:0:0:0:
465,177,58938,1,8,0:0:0:0:
417,168,59184,1,0,0:0:0:0:
420,188,59306,1,8,0:0:0:0:
417,168,59429,1,0,0:0:0:0:
327,184,59675,1,0,0:0:0:0:
417,172,59921,1,8,0:0:0:0:
507,180,60167,1,8,0:0:0:0:
456,194,60290,1,0,0:0:0:0:
487,161,60413,1,8,0:0:0:0:
371,165,60536,1,8,0:0:0:0:
414,179,60659,1,0,0:0:0:0:
501,155,60905,1,0,0:0:0:0:
457,167,61028,1,0,0:0:0:0:
414,179,61151,1,8,0:0:0:0:
414,179,61274,1,8,0:0:0:0:
391,139,61397,1,0,0:0:0:0:
501,155,61643,1,0,0:0:0:0:
413,179,61888,1,8,0:0:0:0:
459,178,62134,1,8,0:0:0:0:
421,152,62257,1,8,0:0:0:0:
447,188,62380,1,0,0:0:0:0:
414,191,62503,1,0,0:0:0:0:
451,164,62626,1,8,0:0:0:0:
459,178,62749,1,0,0:0:0:0:
369,204,62872,1,8,0:0:0:0:
447,188,63118,1,8,0:0:0:0:
447,188,63241,1,8,0:0:0:0:
404,200,63364,1,0,0:0:0:0:
492,172,63610,1,0,0:0:0:0:
400,168,63856,1,8,0:0:0:0:
488,152,64102,1,0,0:0:0:0:
400,168,64225,1,8,0:0:0:0:
444,160,64347,1,0,0:0:0:0:
444,160,64470,1,0,0:0:0:0:
444,160,64593,1,8,0:0:0:0:
452,252,64839,1,0,0:0:0:0:
488,152,64962,1,0,0:0:0:0:
472,172,65085,1,8,0:0:0:0:
472,172,65208,1,8,0:0:0:0:
428,184,65331,1,4,0:0:0:0:
452,224,65577,1,8,0:0:0:0:
488,176,65700,1,0,0:0:0:0:
488,176,65823,1,8,0:0:0:0:
472,172,66069,1,0,0:0:0:0:
488,176,66192,1,8,0:0:0:0:
472,172,66315,1,0,0:0:0:0:
472,172,66438,1,0,0:0:0:0:
428,180,66561,1,8,0:0:0:0:
472,180,66684,1,0,0:0:0:0:
428,180,66806,1,8,0:0:0:0:
472,172,67052,1,8,0:0:0:0:
472,172,67175,1,8,0:0:0:0:
472,172,67298,1,0,0:0:0:0:
504,212,67544,1,0,0:0:0:0:
428,180,67790,1,8,0:0:0:0:
428,180,68036,1,0,0:0:0:0:
428,180,68159,1,0,0:0:0:0:
472,180,68282,1,8,0:0:0:0:
472,180,68405,1,8,0:0:0:0:
428,180,68528,1,0,0:0:0:0:
484,196,68774,1,8,0:0:0:0:
484,196,69020,1,8,0:0:0:0:
428,180,69265,1,4,0:0:0:0:
428,180,69511,1,8,0:0:0:0:
428,180,69634,1,8,0:0:0:0:
472,176,69757,1,0,0:0:0:0:
508,224,70003,1,0,0:0:0:0:
428,184,70249,1,12,0:0:0:0:
472,176,70495,1,0,0:0:0:0:
428,180,70618,1,8,0:0:0:0:
472,176,70741,1,0,0:0:0:0:
432,196,70864,1,0,0:0:0:0:
428,184,70987,1,8,0:0:0:0:
428,184,71110,1,8,0:0:0:0:
428,180,71233,1,0,0:0:0:0:
472,192,71479,1,8,0:0:0:0:
428,180,71725,1,0,0:0:0:0:
339,158,71970,1,8,0:0:0:0:
472,192,72093,1,0,0:0:0:0:
472,192,72216,1,0,0:0:0:0:
472,192,72339,1,0,0:0:0:0:
429,176,72462,1,8,0:0:0:0:
471,192,72585,1,8,0:0:0:0:
428,180,72708,1,0,0:0:0:0:
429,176,72831,1,0,0:0:0:0:
472,192,72954,1,8,0:0:0:0:
390,233,73200,1,4,0:0:0:0:
256,192,73446,12,0,74921,0:0:0:0:
467,193,75167,5,12,0:0:0:0:
511,16,75659,1,0,0:0:0:0:
478,100,75905,1,8,0:0:0:0:
423,173,76151,1,0,0:0:0:0:
471,194,76397,1,0,0:0:0:0:
382,216,76643,1,8,0:0:0:0:
382,216,76888,1,8,0:0:0:0:
474,376,77134,1,0,0:0:0:0:
468,306,77379,1,0,0:0:0:0:
475,167,77871,1,8,0:0:0:0:
429,220,78117,1,8,0:0:0:0:
496,200,78363,1,0,0:0:0:0:
429,179,78609,1,8,0:0:0:0:
495,200,78855,1,8,0:0:0:0:
461,189,78978,1,8,0:0:0:0:
426,185,79101,1,0,0:0:0:0:
500,178,79593,1,0,0:0:0:0:
461,189,79838,1,0,0:0:0:0:
426,185,80084,1,8,0:0:0:0:
426,185,80330,1,0,0:0:0:0:
484,228,80576,1,8,0:0:0:0:
428,184,80822,1,8,0:0:0:0:
496,168,81068,1,8,0:0:0:0:
448,220,81314,1,0,0:0:0:0:
508,92,81806,1,8,0:0:0:0:
460,144,82052,1,0,0:0:0:0:
448,212,82297,1,8,0:0:0:0:
412,152,82543,1,0,0:0:0:0:
424,220,82789,1,8,0:0:0:0:
448,212,82912,1,8,0:0:0:0:
416,200,83035,1,0,0:0:0:0:
512,156,83404,1,0,0:0:0:0:
416,200,83773,1,0,0:0:0:0:
348,188,84019,1,8,0:0:0:0:
420,188,84265,1,0,0:0:0:0:
488,176,84511,1,8,0:0:0:0:
416,176,84756,1,8,0:0:0:0:
484,200,85002,1,0,0:0:0:0:
424,172,85986,1,8,0:0:0:0:
148,100,86232,1,0,0:0:0:0:
216,120,86478,1,8,0:0:0:0:
284,144,86724,1,8,0:0:0:0:
320,152,86847,1,0,0:0:0:0:
356,160,86970,1,0,0:0:0:0:
424,172,87215,1,0,0:0:0:0:
484,136,87461,1,8,0:0:0:0:
424,172,87707,1,8,0:0:0:0:
440,184,88199,1,0,0:0:0:0:
424,172,88445,1,0,0:0:0:0:
440,184,88691,1,8,0:0:0:0:
420,252,88937,1,0,0:0:0:0:
512,176,89429,1,0,0:0:0:0:
440,184,89674,1,8,0:0:0:0:
344,284,90166,1,8,0:0:0:0:
488,168,90412,1,0,0:0:0:0:
488,168,90658,1,8,0:0:0:0:
488,168,90781,1,8,0:0:0:0:
456,176,90904,1,0,0:0:0:0:
456,176,91273,1,0,0:0:0:0:
460,280,91642,1,0,0:0:0:0:
388,188,91888,1,8,0:0:0:0:
456,192,92134,1,0,0:0:0:0:
456,192,92256,1,0,0:0:0:0:
476,164,92379,1,8,0:0:0:0:
340,196,92871,1,4,0:0:0:0:
404,232,93117,1,0,0:0:0:0:
492,176,93363,1,8,0:0:0:0:
492,176,93609,1,0,0:0:0:0:
492,176,93732,1,0,0:0:0:0:
456,164,93855,1,8,0:0:0:0:
380,148,94101,1,8,0:0:0:0:
448,180,94347,1,0,0:0:0:0:
480,164,94593,1,8,0:0:0:0:
448,180,94715,1,8,0:0:0:0:
448,180,94838,1,0,0:0:0:0:
508,228,95084,1,0,0:0:0:0:
484,172,95330,1,8,0:0:0:0:
412,196,95576,1,0,0:0:0:0:
476,208,95699,1,8,0:0:0:0:
432,172,95822,1,0,0:0:0:0:
456,156,95945,1,0,0:0:0:0:
432,172,96068,1,8,0:0:0:0:
432,172,96314,1,8,0:0:0:0:
508,176,96560,1,0,0:0:0:0:
488,176,96806,1,12,0:0:0:0:
488,176,97297,1,8,0:0:0:0:
488,176,97543,1,0,0:0:0:0:
488,176,97666,1,0,0:0:0:0:
452,184,97789,1,8,0:0:0:0:
488,200,98035,1,8,0:0:0:0:
460,176,98281,1,0,0:0:0:0:
488,200,98527,1,0,0:0:0:0:
428,148,98650,1,8,0:0:0:0:
488,200,98773,1,0,0:0:0:0:
488,200,99019,1,0,0:0:0:0:
460,176,99265,1,8,0:0:0:0:
496,168,99511,1,0,0:0:0:0:
496,168,99634,1,0,0:0:0:0:
456,164,99756,1,8,0:0:0:0:
456,164,99879,1,8,0:0:0:0:
448,200,100002,1,8,0:0:0:0:
396,252,100248,1,0,0:0:0:0:
440,240,100740,1,4,0:0:0:0:
460,176,100986,1,0,0:0:0:0:
384,176,101232,1,8,0:0:0:0:
440,240,101478,1,0,0:0:0:0:
460,176,101601,1,0,0:0:0:0:
420,172,101724,1,8,0:0:0:0:
460,176,101970,1,0,0:0:0:0:
460,176,102215,1,8,0:0:0:0:
420,196,102338,1,8,0:0:0:0:
460,176,102461,1,0,0:0:0:0:
460,176,102584,1,8,0:0:0:0:
460,176,102707,1,0,0:0:0:0:
460,176,102953,1,0,0:0:0:0:
388,152,103199,1,8,0:0:0:0:
460,180,103445,1,0,0:0:0:0:
496,192,103568,1,0,0:0:0:0:
496,192,103691,1,8,0:0:0:0:
456,188,103814,1,8,0:0:0:0:
420,196,103937,1,8,0:0:0:0:
424,168,104183,1,0,0:0:0:0:
460,180,104429,1,8,0:0:0:0:
496,192,104552,1,8,0:0:0:0:
420,196,104674,1,0,0:0:0:0:
420,196,104920,1,0,0:0:0:0:
460,180,105166,1,8,0:0:0:0:
480,200,105412,1,8,0:0:0:0:
440,196,105535,1,0,0:0:0:0:
420,196,105658,1,8,0:0:0:0:
476,160,105781,1,8,0:0:0:0:
476,160,105904,1,0,0:0:0:0:
460,180,106150,1,8,0:0:0:0:
384,188,106396,1,8,0:0:0:0:
460,180,106642,1,4,0:0:0:0:
492,200,107133,1,0,0:0:0:0:
424,164,107379,1,8,0:0:0:0:
496,188,107625,1,0,0:0:0:0:
496,188,107748,1,0,0:0:0:0:
496,148,107871,1,8,0:0:0:0:
508,172,108117,1,0,0:0:0:0:
496,188,108363,1,8,0:0:0:0:
496,188,108609,1,8,0:0:0:0:
496,188,108732,1,8,0:0:0:0:
508,172,108855,1,0,0:0:0:0:
508,172,108978,1,0,0:0:0:0:
496,188,109101,1,8,0:0:0:0:
496,188,109223,1,8,0:0:0:0:
460,176,109346,1,0,0:0:0:0:
496,188,109592,1,8,0:0:0:0:
496,188,109715,1,8,0:0:0:0:
508,172,109838,1,8,0:0:0:0:
508,172,109961,1,8,0:0:0:0:
460,176,110084,1,0,0:0:0:0:
460,176,110207,1,0,0:0:0:0:
460,176,110330,1,8,0:0:0:0:
440,216,110453,1,8,0:0:0:0:
448,252,110576,1,4,0:0:0:0:
440,216,110821,1,0,0:0:0:0:
368,160,111067,1,8,0:0:0:0:
452,192,111313,1,8,0:0:0:0:
460,176,111436,1,0,0:0:0:0:
452,192,111559,1,0,0:0:0:0:
460,176,111682,1,8,0:0:0:0:
416,176,111805,1,0,0:0:0:0:
416,176,112051,1,8,0:0:0:0:
416,176,112174,1,8,0:0:0:0:
460,176,112297,1,0,0:0:0:0:
460,176,112420,1,8,0:0:0:0:
500,176,112543,1,0,0:0:0:0:
416,176,112789,1,0,0:0:0:0:
460,176,113035,1,8,0:0:0:0:
460,176,113280,1,0,0:0:0:0:
460,176,113403,1,0,0:0:0:0:
460,176,113526,1,8,0:0:0:0:
416,176,113649,1,0,0:0:0:0:
460,176,113772,1,8,0:0:0:0:
460,176,113895,1,8,0:0:0:0:
460,176,114018,1,0,0:0:0:0:
507,253,114264,1,0,0:0:0:0:
464,236,114387,1,8,0:0:0:0:
460,176,114510,1,0,0:0:0:0:
488,168,114756,1,0,0:0:0:0:
396,168,115002,1,8,0:0:0:0:
396,168,115248,1,8,0:0:0:0:
440,180,115371,1,0,0:0:0:0:
396,180,115494,1,8,0:0:0:0:
440,180,115616,1,0,0:0:0:0:
484,196,115739,1,8,0:0:0:0:
509,283,115985,1,0,0:0:0:0:
440,180,116108,1,0,0:0:0:0:
440,180,116231,1,8,0:0:0:0:
440,180,116354,1,8,0:0:0:0:
396,172,116477,1,0,0:0:0:0:
482,200,116723,1,0,0:0:0:0:
440,180,116969,1,8,0:0:0:0:
393,258,117215,1,8,0:0:0:0:
393,258,117338,1,8,0:0:0:0:
482,200,117461,1,0,0:0:0:0:
440,180,117584,1,8,0:0:0:0:
482,162,117707,1,0,0:0:0:0:
440,180,117830,1,0,0:0:0:0:
484,174,117953,1,8,0:0:0:0:
482,162,118198,1,8,0:0:0:0:
482,162,118321,1,8,0:0:0:0:
482,162,118444,1,4,0:0:0:0:
409,106,118690,1,8,0:0:0:0:
484,174,118813,1,0,0:0:0:0:
481,161,118936,1,8,0:0:0:0:
482,162,119182,1,0,0:0:0:0:
484,174,119305,1,8,0:0:0:0:
436,168,119428,1,8,0:0:0:0:
436,168,119551,1,0,0:0:0:0:
436,168,119674,1,8,0:0:0:0:
436,168,119920,1,0,0:0:0:0:
436,168,120043,1,0,0:0:0:0:
482,162,120166,1,8,0:0:0:0:
482,162,120289,1,8,0:0:0:0:
459,201,120412,1,0,0:0:0:0:
436,168,120657,1,0,0:0:0:0:
346,153,120903,1,8,0:0:0:0:
482,162,121149,1,0,0:0:0:0:
482,162,121272,1,0,0:0:0:0:
482,162,121395,1,8,0:0:0:0:
482,162,121518,1,0,0:0:0:0:
482,162,121641,1,0,0:0:0:0:
482,162,121764,1,0,0:0:0:0:
438,147,121887,1,8,0:0:0:0:
438,147,122133,1,8,0:0:0:0:
438,147,122379,1,4,0:0:0:0:
482,162,122625,1,8,0:0:0:0:
482,162,122748,1,8,0:0:0:0:
482,162,122871,1,0,0:0:0:0:
482,162,123116,1,0,0:0:0:0:
472,206,123239,1,8,0:0:0:0:
440,173,123362,1,4,0:0:0:0:
499,178,123608,1,8,0:0:0:0:
452,176,123731,1,8,0:0:0:0:
408,181,123854,1,0,0:0:0:0:
453,179,123977,1,0,0:0:0:0:
453,179,124100,1,8,0:0:0:0:
453,179,124346,1,0,0:0:0:0:
453,179,124469,1,8,0:0:0:0:
453,179,124592,1,0,0:0:0:0:
433,220,124715,1,0,0:0:0:0:
453,179,124838,1,12,0:0:0:0:
453,179,125084,1,8,0:0:0:0:
453,179,125207,1,8,0:0:0:0:
452,224,125330,1,0,0:0:0:0:
400,108,125576,1,0,0:0:0:0:
411,198,125698,1,0,0:0:0:0:
453,179,125821,1,8,0:0:0:0:
453,179,125944,1,8,0:0:0:0:
408,176,126067,1,0,0:0:0:0:
411,198,126190,1,8,0:0:0:0:
472,171,126313,1,4,0:0:0:0:
472,171,126559,1,0,0:0:0:0:
453,179,126805,1,8,0:0:0:0:
472,171,127051,1,0,0:0:0:0:
472,171,127174,1,0,0:0:0:0:
432,192,127297,1,8,0:0:0:0:
440,148,127420,1,0,0:0:0:0:
436,192,127543,1,8,0:0:0:0:
472,171,127789,1,8,0:0:0:0:
468,188,127912,1,0,0:0:0:0:
472,171,128035,1,8,0:0:0:0:
472,171,128157,1,8,0:0:0:0:
472,171,128280,1,0,0:0:0:0:
490,260,128526,1,0,0:0:0:0:
425,196,128772,1,8,0:0:0:0:
425,196,129018,1,0,0:0:0:0:
468,188,129141,1,8,0:0:0:0:
508,180,129264,1,8,0:0:0:0:
468,188,129387,1,0,0:0:0:0:
508,180,129510,1,8,0:0:0:0:
468,188,129633,1,0,0:0:0:0:
425,196,129756,1,8,0:0:0:0:
425,196,130002,1,8,0:0:0:0:
425,196,130125,1,8,0:0:0:0:
460,168,130248,1,0,0:0:0:0:
380,208,130494,1,0,0:0:0:0:
408,120,130739,1,8,0:0:0:0:
480,172,130985,1,0,0:0:0:0:
460,168,131108,1,8,0:0:0:0:
480,208,131231,1,0,0:0:0:0:
480,172,131354,1,0,0:0:0:0:
460,168,131477,1,8,0:0:0:0:
460,168,131723,1,8,0:0:0:0:
472,211,131846,1,8,0:0:0:0:
504,184,131969,1,8,0:0:0:0:
464,204,132092,1,8,0:0:0:0:
480,172,132215,1,0,0:0:0:0:
480,172,132461,1,0,0:0:0:0:
460,168,132707,1,8,0:0:0:0:
460,168,132953,1,0,0:0:0:0:
460,168,133076,1,8,0:0:0:0:
480,172,133198,1,8,0:0:0:0:
436,180,133321,1,8,0:0:0:0:
480,172,133444,1,0,0:0:0:0:
480,172,133567,1,0,0:0:0:0:
480,172,133690,1,8,0:0:0:0:
392,192,133936,1,8,0:0:0:0:
436,180,134059,1,8,0:0:0:0:
480,172,134182,1,4,0:0:0:0:
480,172,134428,1,0,0:0:0:0:
480,172,134674,1,8,0:0:0:0:
436,180,134797,1,0,0:0:0:0:
480,172,134920,1,8,0:0:0:0:
480,172,135043,1,8,0:0:0:0:
480,172,135166,1,0,0:0:0:0:
480,191,135289,1,8,0:0:0:0:
436,180,135412,1,0,0:0:0:0:
480,172,135657,1,0,0:0:0:0:
480,172,135780,1,0,0:0:0:0:
391,169,135903,1,8,0:0:0:0:
435,180,136026,1,8,0:0:0:0:
480,172,136149,1,0,0:0:0:0:
480,172,136395,1,0,0:0:0:0:
388,172,136641,1,8,0:0:0:0:
435,180,136887,1,8,0:0:0:0:
435,180,137010,1,8,0:0:0:0:
435,180,137133,1,0,0:0:0:0:
435,180,137256,1,8,0:0:0:0:
480,172,137379,1,0,0:0:0:0:
480,172,137502,1,0,0:0:0:0:
434,177,137625,1,8,0:0:0:0:
454,175,137871,1,8,0:0:0:0:
364,187,138116,1,4,0:0:0:0:
480,172,138362,1,8,0:0:0:0:
480,172,138485,1,8,0:0:0:0:
480,172,138608,1,0,0:0:0:0:
480,172,138854,1,0,0:0:0:0:
390,156,139100,1,12,0:0:0:0:
480,172,139346,1,0,0:0:0:0:
480,172,139469,1,8,0:0:0:0:
480,172,139592,1,0,0:0:0:0:
480,172,139715,1,0,0:0:0:0:
480,172,139838,1,8,0:0:0:0:
435,182,139961,1,8,0:0:0:0:
433,172,140084,1,4,0:0:0:0:
480,172,140330,1,8,0:0:0:0:
480,172,140576,1,0,0:0:0:0:
388,172,140821,1,8,0:0:0:0:
480,172,140944,1,8,0:0:0:0:
478,172,141067,1,0,0:0:0:0:
478,172,141190,1,0,0:0:0:0:
480,172,141313,1,8,0:0:0:0:
480,172,141436,1,0,0:0:0:0:
435,161,141559,1,0,0:0:0:0:
435,161,141682,1,0,0:0:0:0:
478,172,141805,1,8,0:0:0:0:
441,255,142051,1,4,0:0:0:0:
478,172,142543,1,8,0:0:0:0:
478,172,142789,1,8,0:0:0:0:
478,172,142912,1,0,0:0:0:0:
478,172,143035,1,0,0:0:0:0:
436,179,143157,1,8,0:0:0:0:
478,172,143280,1,0,0:0:0:0:
478,172,143526,1,8,0:0:0:0:
478,172,143772,1,0,0:0:0:0:
436,179,143895,1,8,0:0:0:0:
478,172,144018,1,0,0:0:0:0:
436,179,144264,1,0,0:0:0:0:
436,179,144510,1,8,0:0:0:0:
436,179,144756,1,8,0:0:0:0:
464,148,144879,1,0,0:0:0:0:
426,167,145002,1,8,0:0:0:0:
469,153,145125,1,8,0:0:0:0:
469,153,145248,1,0,0:0:0:0:
446,234,145494,1,0,0:0:0:0:
469,153,145739,1,8,0:0:0:0:
501,179,145862,1,0,0:0:0:0:
459,183,145985,1,8,0:0:0:0:
386,141,146231,1,0,0:0:0:0:
459,183,146477,1,8,0:0:0:0:
501,179,146723,1,0,0:0:0:0:
501,179,146846,1,0,0:0:0:0:
459,183,146969,1,8,0:0:0:0:
501,179,147092,1,0,0:0:0:0:
459,183,147215,1,8,0:0:0:0:
501,179,147461,1,0,0:0:0:0:
501,179,147707,1,8,0:0:0:0:
501,179,147830,1,8,0:0:0:0:
459,177,147953,1,0,0:0:0:0:
501,179,148198,1,0,0:0:0:0:
459,177,148444,1,8,0:0:0:0:
459,177,148690,1,0,0:0:0:0:
501,179,148813,1,8,0:0:0:0:
501,179,148936,1,8,0:0:0:0:
459,187,149059,1,0,0:0:0:0:
501,179,149182,1,8,0:0:0:0:
501,179,149428,1,8,0:0:0:0:
460,190,149551,1,0,0:0:0:0:
501,179,149674,1,8,0:0:0:0:
501,179,149797,1,8,0:0:0:0:
459,187,149920,1,4,0:0:0:0:
381,220,150166,1,0,0:0:0:0:
448,169,150412,1,8,0:0:0:0:
448,169,150657,1,8,0:0:0:0:
448,211,150780,1,0,0:0:0:0:
407,178,150903,1,0,0:0:0:0:
407,178,151026,1,8,0:0:0:0:
448,179,151149,1,0,0:0:0:0:
388,238,151395,1,8,0:0:0:0:
461,227,151518,1,8,0:0:0:0:
495,173,151641,1,8,0:0:0:0:
453,166,151764,1,8,0:0:0:0:
448,179,151887,1,0,0:0:0:0:
490,251,152133,1,0,0:0:0:0:
448,179,152379,1,8,0:0:0:0:
495,173,152625,1,0,0:0:0:0:
453,166,152748,1,8,0:0:0:0:
495,173,152871,1,0,0:0:0:0:
448,179,152994,1,8,0:0:0:0:
489,179,153116,1,0,0:0:0:0:
430,239,153362,1,0,0:0:0:0:
495,173,153608,1,8,0:0:0:0:
495,173,153731,1,8,0:0:0:0:
448,179,153854,1,0,0:0:0:0:
489,179,154100,1,0,0:0:0:0:
495,173,154346,1,8,0:0:0:0:
495,173,154592,1,8,0:0:0:0:
495,173,154715,1,8,0:0:0:0:
448,179,154838,1,0,0:0:0:0:
448,179,154961,1,0,0:0:0:0:
408,168,155084,1,8,0:0:0:0:
492,168,155330,1,0,0:0:0:0:
470,204,155453,1,0,0:0:0:0:
448,179,155576,1,8,0:0:0:0:
416,152,155698,1,8,0:0:0:0:
448,179,155821,1,0,0:0:0:0:
508,120,156067,1,0,0:0:0:0:
492,168,156313,1,8,0:0:0:0:
420,212,156559,1,0,0:0:0:0:
428,172,156682,1,8,0:0:0:0:
448,179,156805,1,0,0:0:0:0:
448,179,156928,1,0,0:0:0:0:
428,172,157051,1,8,0:0:0:0:
472,244,157297,1,8,0:0:0:0:
455,205,157420,1,8,0:0:0:0:
472,244,157543,1,8,0:0:0:0:
472,244,157666,1,8,0:0:0:0:
492,207,157789,1,4,0:0:0:0:
436,139,158035,1,0,0:0:0:0:
500,196,158280,1,8,0:0:0:0:
500,196,158526,1,0,0:0:0:0:
500,196,158649,1,0,0:0:0:0:
460,176,158772,1,8,0:0:0:0:
460,176,158895,1,0,0:0:0:0:
460,176,159018,1,8,0:0:0:0:
416,184,159141,1,8,0:0:0:0:
452,160,159264,1,0,0:0:0:0:
492,168,159510,1,8,0:0:0:0:
460,176,159756,1,0,0:0:0:0:
460,176,160002,1,0,0:0:0:0:
460,176,160125,1,0,0:0:0:0:
460,176,160248,1,8,0:0:0:0:
368,168,160494,1,0,0:0:0:0:
460,176,160739,1,8,0:0:0:0:
460,176,160862,1,8,0:0:0:0:
460,176,160985,1,0,0:0:0:0:
460,176,161108,1,0,0:0:0:0:
460,176,161231,1,8,0:0:0:0:
504,168,161354,1,0,0:0:0:0:
460,176,161477,1,8,0:0:0:0:
460,176,161723,1,8,0:0:0:0:
460,176,161969,1,8,0:0:0:0:
414,173,162092,1,8,0:0:0:0:
460,176,162215,1,0,0:0:0:0:
460,176,162461,1,0,0:0:0:0:
460,176,162707,1,8,0:0:0:0:
414,173,162830,1,0,0:0:0:0:
460,176,162953,1,8,0:0:0:0:
460,176,163076,1,8,0:0:0:0:
503,164,163198,1,0,0:0:0:0:
459,176,163321,1,0,0:0:0:0:
460,176,163444,1,8,0:0:0:0:
460,176,163690,1,8,0:0:0:0:
460,176,163936,1,0,0:0:0:0:
460,176,164059,1,0,0:0:0:0:
459,176,164182,1,0,0:0:0:0:
508,176,164428,1,0,0:0:0:0:
508,176,164551,1,8,0:0:0:0:
460,176,164674,1,0,0:0:0:0:
460,176,164797,1,0,0:0:0:0:
504,192,164920,1,8,0:0:0:0:
459,176,165166,1,0,0:0:0:0:
460,176,165289,1,0,0:0:0:0:
508,176,165412,1,8,0:0:0:0:
508,176,165535,1,8,0:0:0:0:
464,180,165657,1,4,0:0:0:0:
396,240,165903,1,0,0:0:0:0:
459,176,166149,1,8,0:0:0:0:
508,176,166395,1,8,0:0:0:0:
508,176,166518,1,8,0:0:0:0:
459,176,166641,1,0,0:0:0:0:
459,176,166764,1,0,0:0:0:0:
500,200,166887,1,8,0:0:0:0:
480,240,167010,1,0,0:0:0:0:
500,200,167133,1,8,0:0:0:0:
440,132,167379,1,8,0:0:0:0:
472,168,167502,1,8,0:0:0:0:
472,212,167625,1,0,0:0:0:0:
500,200,167871,1,0,0:0:0:0:
412,172,168116,1,8,0:0:0:0:
472,168,168362,1,0,0:0:0:0:
428,160,168485,1,8,0:0:0:0:
436,204,168608,1,8,0:0:0:0:
428,160,168731,1,8,0:0:0:0:
428,160,168854,1,0,0:0:0:0:
452,200,168977,1,0,0:0:0:0:
428,160,169100,1,8,0:0:0:0:
488,228,169346,1,8,0:0:0:0:
464,140,169592,1,4,0:0:0:0:
464,140,169838,1,0,0:0:0:0:
508,220,170084,1,8,0:0:0:0:
464,204,170207,1,0,0:0:0:0:
464,204,170330,1,8,0:0:0:0:
444,164,170453,1,8,0:0:0:0:
456,208,170576,1,0,0:0:0:0:
400,176,170698,1,0,0:0:0:0:
444,164,170821,1,8,0:0:0:0:
444,164,171067,1,0,0:0:0:0:
444,164,171313,1,8,0:0:0:0:
468,200,171436,1,8,0:0:0:0:
444,164,171559,1,4,0:0:0:0:
464,168,172051,1,0,0:0:0:0:
488,168,172297,1,8,0:0:0:0:
444,164,172543,1,0,0:0:0:0:
464,168,172666,1,0,0:0:0:0:
464,168,172789,1,8,0:0:0:0:
464,168,172912,1,8,0:0:0:0:
464,168,173035,1,0,0:0:0:0:
444,164,173157,1,0,0:0:0:0:
416,200,173280,1,8,0:0:0:0:
428,156,173403,1,8,0:0:0:0:
480,200,187297,5,4,0:0:0:0:
480,200,187542,1,0,0:0:0:0:
412,128,187788,1,8,0:0:0:0:
480,200,188034,1,8,0:0:0:0:
456,156,188157,1,0,0:0:0:0:
456,156,188280,1,8,0:0:0:0:
456,156,188403,1,8,0:0:0:0:
412,180,188526,1,0,0:0:0:0:
508,156,188772,1,8,0:0:0:0:
456,156,188895,1,0,0:0:0:0:
412,180,189018,1,8,0:0:0:0:
460,180,189141,1,8,0:0:0:0:
460,180,189264,1,8,0:0:0:0:
460,180,189386,1,0,0:0:0:0:
460,180,189509,1,0,0:0:0:0:
460,180,189632,1,0,0:0:0:0:
448,172,189755,1,12,0:0:0:0:
372,208,190001,1,8,0:0:0:0:
416,196,190124,1,8,0:0:0:0:
460,196,190247,1,0,0:0:0:0:
460,196,190493,1,0,0:0:0:0:
460,196,190616,1,0,0:0:0:0:
492,172,190739,1,8,0:0:0:0:
460,196,190862,1,0,0:0:0:0:
420,176,190985,1,8,0:0:0:0:
420,176,191108,1,8,0:0:0:0:
464,168,191231,1,0,0:0:0:0:
464,168,191477,1,0,0:0:0:0:
380,204,191723,1,8,0:0:0:0:
464,168,191968,1,0,0:0:0:0:
452,212,192091,1,8,0:0:0:0:
452,168,192214,1,8,0:0:0:0:
416,192,192337,1,0,0:0:0:0:
456,260,192460,1,8,0:0:0:0:
468,216,192583,1,0,0:0:0:0:
508,184,192706,1,8,0:0:0:0:
420,160,192952,1,8,0:0:0:0:
452,168,193075,1,8,0:0:0:0:
496,184,193198,1,0,0:0:0:0:
416,224,193444,1,0,0:0:0:0:
392,176,193690,1,8,0:0:0:0:
468,204,193813,1,0,0:0:0:0:
464,212,193936,1,8,0:0:0:0:
464,212,194059,1,8,0:0:0:0:
472,256,194182,1,0,0:0:0:0:
480,160,194427,1,8,0:0:0:0:
428,184,194550,1,0,0:0:0:0:
428,184,194673,1,8,0:0:0:0:
472,184,194796,1,8,0:0:0:0:
436,176,194919,1,8,0:0:0:0:
452,168,195042,1,8,0:0:0:0:
452,168,195165,1,0,0:0:0:0:
484,200,195411,1,0,0:0:0:0:
484,200,195657,1,8,0:0:0:0:
400,168,195903,1,0,0:0:0:0:
444,184,196026,1,8,0:0:0:0:
488,168,196149,1,0,0:0:0:0:
488,168,196272,1,0,0:0:0:0:
444,184,196395,1,8,0:0:0:0:
444,184,196518,1,0,0:0:0:0:
444,184,196641,1,8,0:0:0:0:
364,228,196886,1,8,0:0:0:0:
404,204,197009,1,8,0:0:0:0:
444,184,197132,1,4,0:0:0:0:
360,224,197378,1,0,0:0:0:0:
392,192,197501,1,8,0:0:0:0:
444,184,197624,1,0,0:0:0:0:
444,184,197747,1,0,0:0:0:0:
400,176,197870,1,8,0:0:0:0:
492,168,198116,1,0,0:0:0:0:
444,184,198239,1,0,0:0:0:0:
444,184,198362,1,8,0:0:0:0:
444,184,198485,1,0,0:0:0:0:
444,184,198608,1,0,0:0:0:0:
444,184,198731,1,0,0:0:0:0:
408,156,198854,1,8,0:0:0:0:
400,172,198977,1,8,0:0:0:0:
464,228,199100,1,0,0:0:0:0:
408,156,199345,1,0,0:0:0:0:
444,184,199591,1,8,0:0:0:0:
512,192,199837,1,8,0:0:0:0:
512,192,199960,1,0,0:0:0:0:
472,172,200083,1,8,0:0:0:0:
472,172,200206,1,8,0:0:0:0:
472,172,200329,1,0,0:0:0:0:
472,172,200452,1,0,0:0:0:0:
472,172,200575,1,8,0:0:0:0:
380,168,200821,1,0,0:0:0:0:
472,176,201067,1,12,0:0:0:0:
420,184,201313,1,8,0:0:0:0:
420,184,201436,1,8,0:0:0:0:
376,172,201559,1,0,0:0:0:0:
464,200,201804,1,0,0:0:0:0:
464,200,201927,1,8,0:0:0:0:
464,188,202050,1,4,0:0:0:0:
508,268,202296,1,0,0:0:0:0:
484,228,202419,1,0,0:0:0:0:
464,188,202542,1,8,0:0:0:0:
420,172,202665,1,0,0:0:0:0:
464,188,202788,1,8,0:0:0:0:
464,188,202911,1,8,0:0:0:0:
420,172,203034,1,4,0:0:0:0:
512,172,203280,1,0,0:0:0:0:
420,172,203526,1,8,0:0:0:0:
420,172,203772,1,8,0:0:0:0:
420,172,203895,1,8,0:0:0:0:
464,188,204018,1,0,0:0:0:0:
464,188,204141,1,8,0:0:0:0:
492,152,204264,1,0,0:0:0:0:
464,188,204386,1,0,0:0:0:0:
464,188,204509,1,8,0:0:0:0:
436,152,204632,1,8,0:0:0:0:
464,188,204755,1,8,0:0:0:0:
353,199,205001,1,4,0:0:0:0:
480,276,205493,1,8,0:0:0:0:
464,188,205739,1,0,0:0:0:0:
420,176,205862,1,8,0:0:0:0:
420,176,205985,1,0,0:0:0:0:
464,188,206108,1,8,0:0:0:0:
492,184,206231,1,0,0:0:0:0:
492,184,206477,1,8,0:0:0:0:
492,184,206723,1,8,0:0:0:0:
492,184,206845,1,8,0:0:0:0:
448,180,206968,1,0,0:0:0:0:
356,176,207214,1,0,0:0:0:0:
448,180,207337,1,0,0:0:0:0:
448,180,207460,1,8,0:0:0:0:
448,180,207706,1,0,0:0:0:0:
448,180,207829,1,0,0:0:0:0:
492,176,207952,1,8,0:0:0:0:
448,180,208075,1,8,0:0:0:0:
448,180,208198,1,0,0:0:0:0:
448,180,208321,1,0,0:0:0:0:
448,180,208444,1,8,0:0:0:0:
351,181,208690,1,0,0:0:0:0:
448,180,208936,1,8,0:0:0:0:
460,180,209059,1,0,0:0:0:0:
448,180,209182,1,8,0:0:0:0:
408,196,209304,1,8,0:0:0:0:
356,192,209427,1,0,0:0:0:0:
444,216,209673,1,8,0:0:0:0:
460,180,209796,1,8,0:0:0:0:
380,140,209919,1,0,0:0:0:0:
460,180,210042,1,8,0:0:0:0:
468,164,210165,1,0,0:0:0:0:
460,208,210288,1,0,0:0:0:0:
448,180,210411,1,8,0:0:0:0:
460,180,210657,1,8,0:0:0:0:
460,180,210780,1,8,0:0:0:0:
416,172,210903,1,0,0:0:0:0:
492,224,211149,1,0,0:0:0:0:
448,180,211395,1,8,0:0:0:0:
456,270,211641,1,0,0:0:0:0:
460,180,211764,1,8,0:0:0:0:
483,184,211886,1,0,0:0:0:0:
504,176,212009,1,0,0:0:0:0:
482,166,212132,1,8,0:0:0:0:
482,166,212255,1,8,0:0:0:0:
483,184,212378,1,8,0:0:0:0:
483,184,212624,1,8,0:0:0:0:
483,184,212747,1,8,0:0:0:0:
392,171,212870,1,4,0:0:0:0:
483,184,213116,1,0,0:0:0:0:
439,171,213239,1,8,0:0:0:0:
439,171,213362,1,0,0:0:0:0:
392,171,213608,1,8,0:0:0:0:
482,166,213854,1,0,0:0:0:0:
436,168,213977,1,0,0:0:0:0:
436,168,214100,1,8,0:0:0:0:
439,171,214223,1,0,0:0:0:0:
436,168,214345,1,8,0:0:0:0:
445,212,214468,1,0,0:0:0:0:
482,166,214591,1,8,0:0:0:0:
482,166,214714,1,8,0:0:0:0:
500,170,214837,1,0,0:0:0:0:
500,170,215083,1,0,0:0:0:0:
500,170,215206,1,0,0:0:0:0:
436,168,215329,1,8,0:0:0:0:
468,174,215575,1,8,0:0:0:0:
468,174,215698,1,8,0:0:0:0:
468,174,215821,1,0,0:0:0:0:
468,174,215944,1,8,0:0:0:0:
468,174,216067,1,0,0:0:0:0:
456,217,216190,1,0,0:0:0:0:
468,174,216313,1,8,0:0:0:0:
468,174,216559,1,8,0:0:0:0:
468,174,216682,1,8,0:0:0:0:
456,217,216804,1,4,0:0:0:0:
494,189,217050,1,0,0:0:0:0:
456,217,217173,1,0,0:0:0:0:
403,191,217296,1,8,0:0:0:0:
456,217,217542,1,0,0:0:0:0:
456,171,217665,1,8,0:0:0:0:
456,171,217788,1,4,0:0:0:0:
456,171,218034,1,0,0:0:0:0:
411,190,218157,1,0,0:0:0:0:
473,185,218280,1,8,0:0:0:0:
456,171,218403,1,8,0:0:0:0:
473,185,218526,1,0,0:0:0:0:
331,70,218772,1,4,0:0:0:0:
398,131,219018,1,0,0:0:0:0:
465,192,219264,1,0,0:0:0:0:
485,210,219509,1,0,0:0:0:0:
450,180,219632,1,0,0:0:0:0:
450,180,219755,1,8,0:0:0:0:
450,180,220001,1,8,0:0:0:0:
450,180,220124,1,0,0:0:0:0:
450,180,220247,1,8,0:0:0:0:
497,191,220370,1,0,0:0:0:0:
450,180,220493,1,8,0:0:0:0:
450,180,220739,1,4,0:0:0:0:
256,192,220985,12,0,228116,0:0:0:0:
