osu file format v14

[General]
AudioFilename: audio.ogg
AudioLeadIn: 0
PreviewTime: 40138
Countdown: 0
SampleSet: Soft
StackLeniency: 0.7
Mode: 0
LetterboxInBreaks: 0
WidescreenStoryboard: 1

[Editor]
DistanceSpacing: 1.2
BeatDivisor: 4
GridSize: 32
TimelineZoom: 1

[Metadata]
Title:spiral (TV Size)
TitleUnicode:spiral (TV Size)
Artist:LONGMAN
ArtistUnicode:LONGMAN
Creator:Kanui
Version:mrgglock's normal
Source:無職転生 II ~異世界行ったら本気だす~
Tags:mrgglock elyr keke tang シルフィエット Sylphiette Sylphy Mushoku Tensei: Isekai Ittara Honki Dasu 2nd Season s2 two Jobless Reincarnation: I Will Seriously Try If I Go To Another World anime opening japanese rock male vocals jrock j-rock
BeatmapID:4261555
BeatmapSetID:2040420

[Difficulty]
HPDrainRate:3
CircleSize:3
OverallDifficulty:4
ApproachRate:5
SliderMultiplier:1.3
SliderTickRate:1

[Events]
//Background and Video events
0,0,"bg.jpg",0,0
Video,-590,"video.mp4"
//Break Periods
//Storyboard Layer 0 (Background)
//Storyboard Layer 1 (Fail)
//Storyboard Layer 2 (Pass)
//Storyboard Layer 3 (Foreground)
//Storyboard Layer 4 (Overlay)
//Storyboard Sound Samples

[TimingPoints]
90,491.803278688525,4,2,1,40,1,0
90,-111.111111111111,4,2,1,40,0,0
19762,487.80487804878,4,2,1,40,1,0
19762,-111.111111111111,4,2,1,40,0,0
21713,508.474576271186,4,2,1,40,1,0
21713,-111.111111111111,4,2,1,40,0,0
22984,493.827160493827,4,2,1,50,1,0
22984,-111.111111111111,4,2,1,50,0,0
23725,491.803278688525,4,2,1,60,1,0
23725,-100,4,2,1,60,0,0
37987,-100,4,2,1,40,0,0
38725,-100,4,2,1,50,0,0
39462,-100,4,2,1,60,0,0
39954,-100,4,2,1,70,0,0
40938,-100,4,2,1,60,0,0
41429,-90.9090909090909,4,2,1,80,0,1
72905,-90.9090909090909,4,2,1,60,0,1
73397,-90.9090909090909,4,2,1,80,0,1
86675,-100,4,2,1,60,0,0

[Colours]
Combo1 : 206,206,206
Combo2 : 166,251,89

[HitObjects]
482,156,6729,5,2,0:0:0:0:
482,156,6975,2,0,P|419:159|377:119,1,116.999996429443,2|2,0:0|0:0,0:0:0:0:
355,11,7958,1,2,1:2:0:0:
355,11,8204,2,0,P|303:29|237:35,1,116.999996429443,2|2,0:0|0:0,0:0:0:0:
128,5,9188,1,2,0:0:0:0:
44,86,9680,2,0,P|25:154|63:197,1,116.999996429443,2|0,0:0|0:0,0:0:0:0:
159,240,10663,1,2,0:0:0:0:
159,240,10909,2,0,P|227:222|291:218,1,116.999996429443,2|2,0:0|0:0,0:0:0:0:
376,158,11893,5,2,1:2:0:0:
376,158,12139,2,0,P|440:167|473:223,1,116.999996429443,2|2,0:0|0:0,0:0:0:0:
503,318,13122,1,2,0:0:0:0:
402,377,13614,2,0,P|342:360|288:354,1,116.999996429443,2|0,0:0|0:0,0:0:0:0:
233,256,14598,1,2,1:2:0:0:
233,256,14844,2,0,P|262:252|298:237,2,58.4999982147217,2|2|2,0:0|0:0|0:0,0:0:0:0:
182,226,15581,6,0,B|163:258|132:258|116:250|116:250|75:227|84:188|93:162|102:153|115:130|140:120|140:120,1,233.999992858887,2|2,0:0|0:0,0:0:0:0:
256,119,17057,1,2,0:0:0:0:
335,205,17549,2,0,P|401:179|451:171,1,116.999996429443,2|0,0:0|0:0,0:0:0:0:
508,72,18532,1,2,0:0:0:0:
413,2,19024,1,2,0:0:0:0:
340,93,19516,6,0,B|280:86|280:86|247:42|247:42|129:30,1,232,2|2,0:0|0:0,0:0:0:0:
44,108,20981,1,0,0:0:0:0:
87,216,21469,1,2,0:0:0:0:
87,216,21713,2,0,P|61:284|49:333,1,116.999996429443,2|0,1:2|0:0,0:0:0:0:
73,380,22475,1,2,1:2:0:0:
180,334,22984,1,2,0:3:0:0:
180,334,23230,2,0,P|227:342|259:355,1,58.4999982147217,8|8,0:0|0:3,0:0:0:0:
296,372,23725,6,0,P|350:360|395:277,1,130,4|8,1:2|0:0,0:0:0:0:
382,242,24462,1,2,1:2:0:0:
382,242,24708,1,0,1:3:0:0:
264,201,25200,1,10,0:0:0:0:
264,201,25446,2,0,P|286:147|305:67,1,130,2|0,1:2|1:0,0:0:0:0:
410,4,26429,2,0,P|497:27|508:83,1,130,2|2,1:2|1:2,0:0:0:0:
472,110,27167,1,8,0:0:0:0:
472,110,27413,6,0,P|455:178|445:244,1,130,4|2,0:3|1:2,0:0:0:0:
473,364,28397,1,2,1:2:0:0:
344,381,28888,2,0,P|307:369|259:363,1,65,2|8,1:2|0:0,0:0:0:0:
216,358,29380,2,0,P|178:319|211:224,1,130,4|0,0:3|1:0,0:0:0:0:
290,172,30364,1,2,1:2:0:0:
290,172,30610,2,0,P|276:139|263:86,1,65,2|10,1:2|0:2,0:0:0:0:
271,45,31102,1,2,1:2:0:0:
147,5,31593,6,0,P|62:22|28:81,1,130,4|8,1:2|0:0,0:0:0:0:
30,121,32331,1,2,1:2:0:0:
30,121,32577,1,0,1:2:0:0:
103,228,33069,1,10,0:0:0:0:
103,228,33315,2,0,P|86:266|79:295,1,65,4|0,0:3|1:0,0:0:0:0:
86,353,33806,1,2,1:2:0:0:
213,379,34298,2,0,P|282:357|310:305,1,130,2|0,1:2|1:0,0:0:0:0:
302,244,35036,1,8,0:0:0:0:
195,170,35528,6,0,P|207:147|220:90,1,65,2|2,1:2|1:2,0:0:0:0:
191,49,36020,1,10,0:2:0:0:
191,49,36265,2,0,B|267:63|245:8|336:24,1,130,2|2,1:2|1:2,0:0:0:0:
447,43,37249,1,8,0:3:0:0:
447,43,37495,2,0,P|423:110|411:168,1,130,12|8,0:0|0:0,0:0:0:0:
456,221,38233,1,8,0:0:0:0:
456,221,38479,2,0,P|469:260|475:288,1,65,8|8,0:0|0:0,0:0:0:0:
485,347,38970,1,8,0:0:0:0:
364,338,39462,5,8,0:0:0:0:
364,338,39708,1,8,0:0:0:0:
364,338,39954,2,0,B|317:362|317:362|234:338,1,130,8|12,0:0|0:0,0:0:0:0:
182,226,40938,1,8,0:3:0:0:
300,150,41429,6,0,P|313:84|268:20,1,143.000004364014,6|8,1:0|0:0,0:0:0:0:
198,61,42167,1,0,1:2:0:0:
198,61,42413,2,0,P|167:54|128:49,1,71.5000021820069,2|0,0:2|1:2,0:0:0:0:
52,86,42905,1,10,0:2:0:0:
52,86,43151,2,0,P|7:152|34:227,1,143.000004364014,2|2,0:0|1:2,0:0:0:0:
126,351,44134,1,2,1:2:0:0:
126,351,44380,2,0,P|169:340|217:336,1,71.5000021820069,2|2,1:2|1:2,0:0:0:0:
277,377,44872,1,10,0:2:0:0:
277,377,45118,6,0,P|329:340|335:242,1,143.000004364014,2|0,3:2|1:0,0:0:0:0:
218,156,46102,1,0,1:2:0:0:
218,156,46347,2,0,P|234:124|245:89,1,71.5000021820069,0|0,1:2|1:2,0:0:0:0:
285,15,46839,1,10,0:0:0:0:
285,15,47085,2,0,B|337:29|337:29|373:15|373:15|434:32,1,143.000004364014,2|2,0:0|1:2,0:0:0:0:
346,182,48069,1,2,1:2:0:0:
503,249,48561,1,2,1:2:0:0:
396,384,49052,1,8,0:0:0:0:
396,384,49298,6,0,P|356:370|324:367,1,71.5000021820069,6|2,1:2|1:2,0:0:0:0:
246,384,49790,1,10,0:0:0:0:
246,384,50036,2,0,P|194:347|210:237,1,143.000004364014,0|0,1:0|1:0,0:0:0:0:
255,221,50774,1,8,0:0:0:0:
255,221,51020,2,0,P|247:160|224:75,1,143.000004364014,2|0,0:0|1:0,0:0:0:0:
188,3,51757,1,8,0:0:0:0:
38,87,52249,2,0,P|8:127|6:155,1,71.5000021820069,2|0,1:2|1:0,0:0:0:0:
72,202,52741,1,10,0:0:0:0:
4,359,53233,6,0,P|46:365|85:377,1,71.5000021820069,6|2,1:2|1:2,0:0:0:0:
162,361,53725,1,10,0:0:0:0:
162,361,53970,2,0,P|232:354|270:261,1,143.000004364014,0|2,1:0|1:2,0:0:0:0:
215,239,54708,1,8,0:0:0:0:
215,239,54954,2,0,P|240:178|259:83,1,143.000004364014,2|0,1:2|1:0,0:0:0:0:
305,32,55692,2,0,P|401:19|450:69,1,143.000004364014,12|0,0:0|1:0,0:0:0:0:
487,117,56429,1,8,0:0:0:0:
487,117,56675,1,8,1:2:0:0:
380,251,57167,6,0,B|327:255|327:255|300:234|300:234|230:239,1,143.000004364014,6|8,1:0|0:0,0:0:0:0:
218,161,57905,1,0,1:0:0:0:
218,161,58151,2,0,P|187:143|140:145,1,71.5000021820069,2|0,0:2|1:0,0:0:0:0:
72,166,58643,1,10,0:0:0:0:
72,166,58888,2,0,B|34:223|34:223|64:308,1,143.000004364014,2|2,0:0|1:2,0:0:0:0:
212,382,59872,1,2,1:2:0:0:
212,382,60118,2,0,P|250:368|303:363,1,71.5000021820069,2|2,1:2|1:2,0:0:0:0:
370,374,60610,1,10,0:2:0:0:
370,374,60856,6,0,P|446:368|475:272,1,143.000004364014,2|0,3:2|1:0,0:0:0:0:
508,150,61839,1,0,1:0:0:0:
508,150,62085,2,0,P|473:146|434:136,1,71.5000021820069,0|0,1:0|1:0,0:0:0:0:
365,180,62577,1,10,0:0:0:0:
365,180,62823,2,0,P|295:187|220:204,1,143.000004364014,2|2,0:0|1:2,0:0:0:0:
84,302,63806,2,0,P|47:281|38:232,1,71.5000021820069,2|0,1:2|1:0,0:0:0:0:
63,173,64298,1,2,1:2:0:0:
24,10,64790,1,8,0:0:0:0:
24,10,65036,6,0,P|66:23|125:30,1,71.5000021820069,6|2,1:2|1:2,0:0:0:0:
179,57,65528,1,10,0:0:0:0:
179,57,65774,2,0,B|258:72|241:11|326:26,1,143.000004364014,0|0,1:0|1:0,0:0:0:0:
385,179,66757,2,0,P|501:170|528:106,1,143.000004364014,2|0,0:0|1:0,0:0:0:0:
496,72,67495,1,8,0:0:0:0:
332,18,67987,2,0,P|297:30|244:38,1,71.5000021820069,0|0,1:0|1:0,0:0:0:0:
221,111,68479,1,8,0:0:0:0:
57,58,68970,6,0,P|69:93|77:146,1,71.5000021820069,6|2,1:2|1:2,0:0:0:0:
24,196,69462,1,8,0:0:0:0:
24,196,69708,2,0,P|26:286|87:314,1,143.000004364014,2|2,1:2|1:2,0:0:0:0:
132,258,70446,1,8,0:0:0:0:
132,258,70692,2,0,P|213:288|272:298,1,143.000004364014,2|8,1:2|0:0,0:0:0:0:
339,248,71429,1,8,0:0:0:0:
452,377,71921,2,0,P|497:361|524:313,1,71.5000021820069,8|2,0:0|1:2,0:0:0:0:
505,262,72413,1,8,0:0:0:0:
505,262,72659,6,0,P|490:229|482:191,1,71.5000021820069,10|8,0:0|0:3,0:0:0:0:
485,22,73397,2,0,P|428:46|344:64,1,143.000004364014,6|0,1:0|1:0,0:0:0:0:
270,73,74134,1,0,1:0:0:0:
270,73,74380,1,8,0:0:0:0:
270,73,74626,2,0,B|281:124|281:124|264:155|264:155|279:216,1,143.000004364014,2|2,1:2|1:2,0:0:0:0:
449,248,75610,1,2,0:0:0:0:
449,248,75856,2,0,P|430:287|424:319,1,71.5000021820069,2|2,1:2|1:2,0:0:0:0:
346,345,76347,1,8,0:0:0:0:
346,345,76593,6,0,B|277:327|288:392|192:370,1,143.000004364014,0|0,3:0|1:0,0:0:0:0:
51,323,77577,1,0,1:0:0:0:
51,323,77823,2,0,P|65:286|78:231,1,71.5000021820069,0|0,0:0|1:0,0:0:0:0:
39,182,78315,1,10,0:0:0:0:
39,182,78561,2,0,P|46:123|149:78,1,143.000004364014,2|0,0:0|1:0,0:0:0:0:
194,60,79298,1,8,0:0:0:0:
339,151,79790,1,0,1:0:0:0:
217,270,80282,1,10,0:0:0:0:
217,270,80528,1,2,1:2:0:0:
217,270,80774,6,0,B|273:277|273:277|296:298|296:298|386:309,1,143.000004364014,4|8,1:2|0:0,0:0:0:0:
414,363,81511,2,0,P|454:362|490:307,1,71.5000021820069,0|0,1:0|1:0,0:0:0:0:
507,262,82003,2,0,P|505:222|450:185,1,71.5000021820069,2|8,1:2|0:0,0:0:0:0:
441,124,82495,2,0,P|378:140|292:151,1,143.000004364014,2|0,3:2|1:0,0:0:0:0:
226,106,83233,1,8,0:0:0:0:
85,7,83725,2,0,P|37:13|6:41,1,71.5000021820069,0|0,1:0|1:0,0:0:0:0:
14,115,84216,1,8,0:0:0:0:
14,115,84462,6,0,B|39:165|39:165|0:256,1,143.000004364014,2|8,0:0|0:0,0:0:0:0:
140,350,85446,2,0,P|174:371|244:355,1,71.5000021820069,8|0,0:0|1:0,0:0:0:0:
242,295,85938,2,0,P|323:312|410:320,1,143.000004364014,8|8,0:0|0:0,0:0:0:0:
