osu file format v14

[General]
AudioFilename: audio.mp3
AudioLeadIn: 0
PreviewTime: 51035
Countdown: 0
SampleSet: None
StackLeniency: 0.7
Mode: 0
LetterboxInBreaks: 0
WidescreenStoryboard: 0

[Editor]
Bookmarks: 30269
DistanceSpacing: 1
BeatDivisor: 2
GridSize: 4
TimelineZoom: 1.2

[Metadata]
Title:distance (NARUTO Ver.)
TitleUnicode:distance (NARUTO Ver.)
Artist:LONG SHOT PARTY
ArtistUnicode:LONG SHOT PARTY
Creator:Monstrata
Version:Yiyo's Easy
Source:NARUTO -ナルト- 疾風伝
Tags:iyiyo gero akitoshi corinn natsu snownino_ naruto uzumaki sasuke uchiha sakura haruno kakashi hatake shippuuden shipuuden shippuden shipuden opening two 2 tv size anime
BeatmapID:1349918
BeatmapSetID:632130

[Difficulty]
HPDrainRate:2
CircleSize:2.5
OverallDifficulty:2.5
ApproachRate:3.5
SliderMultiplier:0.899999999999999
SliderTickRate:1

[Events]
//Background and Video events
0,0,"789346.png",0,0
//Break Periods
//Storyboard Layer 0 (Background)
//Storyboard Layer 1 (Fail)
//Storyboard Layer 2 (Pass)
//Storyboard Layer 3 (Foreground)
//Storyboard Sound Samples

[TimingPoints]
1252,302.267002518892,4,3,2,70,1,0
1252,-100,4,3,2,70,0,1
18178,-100,4,3,22,70,0,0
19690,-100,4,3,0,70,0,0
20597,-100,4,2,0,70,0,0
30269,-100,4,3,22,70,0,0
35105,-100,4,3,22,70,0,0
38718,302.267002518892,4,3,22,70,1,0
52017,-100,4,3,2,70,0,1
71362,-100,4,3,2,70,0,0
81035,-100,4,3,2,70,0,1
88289,-100,4,3,2,70,0,0

[Colours]
Combo1 : 152,194,158
Combo2 : 255,170,255
Combo3 : 255,175,96
Combo4 : 170,170,213

[HitObjects]
280,112,1252,6,0,P|395:60|476:156,1,270,6|0,1:3|0:0,0:0:0:0:
472,248,2461,2,0,L|382:240,1,89.9999999999999,6|0,1:0|0:0,0:0:0:0:
332,312,3065,2,0,L|242:304,1,89.9999999999999,2|0,1:0|1:0,0:0:0:0:
150,302,3670,6,0,B|95:235|147:175|151:171|155:167|199:111|160:49,1,270,6|0,1:0|0:0,0:0:0:0:
70,49,4879,2,0,B|34:93|34:93|34:171,2,135,4|0|0,1:0|0:0|1:0,0:0:0:0:
160,49,6088,6,0,B|240:56|240:56|248:48|248:48|339:48|339:48|348:56|348:56|432:48,1,270,6|2,1:0|1:0,0:0:0:0:
468,128,7297,2,0,B|435:185|435:185|453:297,1,180,4|0,1:0|0:0,0:0:0:0:
376,344,8204,1,0,1:0:0:0:
292,316,8506,6,0,P|212:349|144:297,2,180,6|0|0,1:0|0:0|0:0,0:0:0:0:
356,252,10017,1,2,1:0:0:0:
356,161,10320,2,0,L|356:65,1,89.9999999999999,0|0,1:0|0:0,0:0:0:0:
276,32,10924,6,0,P|189:21|127:82,1,180,4|0,1:0|1:0,0:0:0:0:
104,168,11831,1,2,1:0:0:0:
132,252,12133,2,0,P|172:269|216:261,1,89.9999999999999,6|0,1:0|0:0,0:0:0:0:
296,216,12738,2,0,P|339:207|380:225,1,89.9999999999999,2|0,1:0|0:0,0:0:0:0:
412,312,13342,6,0,B|368:352|368:352|248:352,1,180,6|0,1:0|1:0,0:0:0:0:
157,352,14249,1,2,1:0:0:0:
72,320,14551,2,0,B|36:236|36:236|93:168|93:168|180:187,1,270,4|0,1:0|1:0,0:0:0:0:
260,232,15760,6,0,P|383:247|416:127,1,270,12|2,0:0|1:0,0:0:0:0:
348,68,16969,2,0,B|297:78|261:53|261:53|243:61|243:61|207:40|176:48,1,180,4|10,1:0|0:0,0:0:0:0:
96,88,17876,1,8,0:0:0:0:
72,176,18178,6,0,B|212:316|212:316|261:365|330:360|357:329,1,360,4|8,0:0|0:0,0:0:0:0:
416,260,19690,1,8,0:0:0:0:
416,172,19992,2,0,L|416:76,1,89.9999999999999,4|8,0:0|0:0,0:0:0:0:
340,32,20597,6,0,P|217:20|195:141,1,270,6|2,0:0|0:0,0:0:0:0:
272,92,21806,2,0,B|316:172|316:172|273:345,1,270,2|2,0:0|0:0,0:0:0:0:
184,326,23015,6,0,P|123:352|62:326,2,135,6|2|0,0:0|0:0|3:0,0:0:0:0:
124,260,24224,2,0,B|82:180|82:180|138:109|138:109|92:16,1,270,2|0,0:0|3:0,0:0:0:0:
188,12,25433,6,0,B|232:96|232:96|309:60,1,180,6|0,0:0|0:0,0:0:0:0:
399,60,26340,1,2,0:0:0:0:
459,127,26642,2,0,P|452:216|400:288,1,180,2|2,0:0|0:0,0:0:0:0:
312,272,27549,1,0,3:0:0:0:
295,183,27851,6,0,P|199:100|92:167,1,270,0|0,3:0|0:0,0:0:0:0:
88,256,29060,2,0,L|119:340,1,89.9999999999999,0|2,3:0|0:0,0:0:0:0:
212,344,29665,2,0,L|243:259,1,89.9999999999999,4|0,3:0|0:0,0:0:0:0:
296,184,30269,6,0,P|368:135|446:172,1,180,6|0,1:0|1:0,0:0:0:0:
374,227,31176,1,8,0:0:0:0:
336,308,31478,2,0,L|157:289,1,180,0|2,1:0|1:0,0:0:0:0:
68,280,32384,1,10,0:0:0:0:
16,208,32688,6,0,P|0:143|28:84,2,135,6|0|8,1:0|0:0|0:0,0:0:0:0:
68,280,33896,2,0,B|128:256|128:256|128:140,1,180,0|2,1:0|1:0,0:0:0:0:
176,64,34803,1,8,0:0:0:0:
224,140,35105,6,0,B|304:140|304:140|312:136|312:136|320:140|320:140|401:140,1,180,4|2,1:0|1:0,0:0:0:0:
432,224,36012,1,10,0:0:0:0:
368,288,36314,2,0,B|288:288|288:288|280:292|280:292|272:288|272:288|190:288,1,180,4|2,1:0|1:0,0:0:0:0:
160,204,37221,1,10,0:0:0:0:
224,140,37524,6,0,P|218:55|136:35,1,180,4|0,1:0|0:0,0:0:0:0:
60,80,38430,1,10,0:0:0:0:
36,168,38718,2,0,L|36:258,2,89.9999999999999,2|14|10,0:0|0:0|0:0,0:0:0:0:
160,204,39775,6,0,B|285:253,1,135,6|8,1:0|0:0,0:0:0:0:
375,253,40531,2,0,B|500:203,2,135,2|6|8,1:0|1:0|0:0,0:0:0:0:
330,328,41740,2,0,P|287:342|243:329,1,89.9999999999999,2|10,1:0|0:0,0:0:0:0:
168,284,42346,6,0,P|129:205|171:131,1,180,0|0,0:0|0:0,0:0:0:0:
219,208,43252,1,10,0:0:0:0:
299,243,43554,2,0,P|386:254|453:197,1,180,0|2,0:0|1:0,0:0:0:0:
452,108,44461,1,10,0:0:0:0:
380,56,44763,6,0,P|252:20|136:80,1,270,6|10,1:0|0:0,0:0:0:0:
96,160,45972,2,0,B|96:288|96:288|134:322,1,180,0|0,0:0|1:0,0:0:0:0:
216,360,46880,1,0,0:0:0:0:
304,356,47182,6,0,P|400:344|440:268,1,180,0|0,0:0|0:0,0:0:0:0:
444,188,48089,1,2,1:0:0:0:
368,140,48390,2,0,B|249:118|249:118|195:143,2,180,10|8|14,0:0|0:0|0:0,0:0:0:0:
312,312,50204,2,0,L|179:286,1,135,10|10,0:0|0:0,0:0:0:0:
86,68,52018,6,0,P|210:20|331:71,1,270,6|0,1:3|1:0,0:0:0:0:
364,156,53227,2,0,B|336:184|336:184|285:184,1,89.9999999999999,4|0,1:0|1:0,0:0:0:0:
195,184,53831,2,0,B|144:184|144:184|116:212,1,89.9999999999999,0|0,1:0|1:0,0:0:0:0:
128,300,54435,6,0,B|195:355|255:303|259:299|263:295|319:251|381:290,1,270,0|0,1:0|1:0,0:0:0:0:
472,276,55645,2,0,B|508:244|508:244|508:157,2,135,4|10|0,1:0|0:0|1:0,0:0:0:0:
380,289,56854,6,0,B|387:214|387:214|379:205|379:205|379:114|379:114|387:106|387:106|380:26,1,270,6|0,1:0|1:0,0:0:0:0:
292,43,58063,2,0,P|211:79|130:46,1,180,4|0,1:0|1:0,0:0:0:0:
40,32,58970,1,0,1:0:0:0:
4,116,59272,6,0,L|4:296,2,180,6|6|0,1:0|1:0|1:0,0:0:0:0:
96,112,60784,1,2,1:0:0:0:
160,176,61086,2,0,P|202:187|243:171,1,89.9999999999999,0|0,1:0|1:0,0:0:0:0:
304,104,61690,6,0,B|388:68|388:68|465:110,1,180,4|0,1:0|1:0,0:0:0:0:
500,192,62597,1,0,1:0:0:0:
448,263,62899,2,0,P|406:278|364:262,1,89.9999999999999,0|0,1:0|1:0,0:0:0:0:
288,216,63503,2,0,P|246:200|204:214,1,89.9999999999999,0|0,1:0|1:0,0:0:0:0:
116,232,64108,6,0,L|96:53,1,180,4|0,1:0|1:0,0:0:0:0:
184,32,65015,1,0,1:0:0:0:
244,100,65317,2,0,B|204:179|204:179|260:250|260:250|218:330,1,270,0|0,0:0|1:0,0:0:0:0:
304,360,66526,6,0,L|386:200,1,180,4|0,1:0|1:0,0:0:0:0:
408,112,67434,1,0,1:0:0:0:
328,68,67735,2,0,B|297:60|261:81|261:81|243:73|243:73|207:98|156:88,1,180,4|10,1:0|0:0,0:0:0:0:
76,128,68643,1,8,0:0:0:0:
43,212,68945,6,0,P|109:360|259:299,1,360,4|8,1:0|0:0,0:0:0:0:
312,224,70456,2,0,L|288:128,2,89.9999999999999,8|8|8,0:0|0:0|0:0,0:0:0:0:
397,250,71362,6,0,B|440:116|440:116|459:48|432:16|400:4,1,270,6|10,1:0|0:0,0:0:0:0:
320,36,72572,2,0,B|202:69|202:69|151:41,1,180,2|2,1:0|0:0,0:0:0:0:
68,76,73479,1,8,0:0:0:0:
44,164,73780,6,0,P|48:253|68:341,1,180,2|2,1:0|0:0,0:0:0:0:
160,348,74688,1,10,0:0:0:0:
232,296,74990,2,0,L|388:328,2,135,2|2|8,1:0|1:0|0:0,0:0:0:0:
176,224,76199,6,0,P|128:110|237:56,1,270,6|8,1:0|0:0,0:0:0:0:
212,144,77409,2,0,L|391:210,1,180,2|0,1:0|0:0,0:0:0:0:
456,152,78315,1,8,0:0:0:0:
439,63,78617,6,0,P|364:19|280:43,2,180,10|10|14,0:0|0:0|0:0,0:0:0:0:
456,152,80128,2,0,L|456:242,2,89.9999999999999,14|8|8,0:0|0:0|0:0,0:0:0:0:
364,148,81036,6,0,B|244:148|244:148|200:200,1,180,4|0,1:0|0:0,0:0:0:0:
141,257,81943,1,0,0:0:0:0:
51,257,82245,2,0,P|33:169|45:80,1,180,2|0,1:0|0:0,0:0:0:0:
124,32,83152,1,0,1:0:0:0:
204,76,83453,6,0,L|335:47,2,135,6|10|2,1:0|0:0|1:0,0:0:0:0:
156,151,84663,2,0,P|198:272|325:278,1,270,12|10,0:0|0:0,0:0:0:0:
408,240,85871,6,0,B|416:209|395:173|395:173|403:155|403:155|378:119|388:68,1,180,4|0,1:0|1:0,0:0:0:0:
304,36,86779,1,2,1:0:0:0:
216,52,87080,2,0,B|127:64|127:64|181:236|181:236|92:250,1,360,0|14,1:0|0:0,0:0:0:0:
