osu file format v14

[General]
AudioFilename: audio.mp3
AudioLeadIn: 0
PreviewTime: 51035
Countdown: 0
SampleSet: None
StackLeniency: 0.7
Mode: 0
LetterboxInBreaks: 0
WidescreenStoryboard: 1

[Editor]
DistanceSpacing: 1.2
BeatDivisor: 4
GridSize: 4
TimelineZoom: 3.399999

[Metadata]
Title:distance (NARUTO Ver.)
TitleUnicode:distance (NARUTO Ver.)
Artist:LONG SHOT PARTY
ArtistUnicode:LONG SHOT PARTY
Creator:Monstrata
Version:NiNo's Extra
Source:NARUTO -ナルト- 疾風伝
Tags:iyiyo gero akitoshi corinn natsu snownino_ naruto uzumaki sasuke uchiha sakura haruno kakashi hatake shippuuden shipuuden shippuden shipuden opening two 2 tv size anime
BeatmapID:1343515
BeatmapSetID:632130

[Difficulty]
HPDrainRate:6
CircleSize:4
OverallDifficulty:8
ApproachRate:9.3
SliderMultiplier:1.9
SliderTickRate:1

[Events]
//Background and Video events
0,0,"789346.png",0,0
//Break Periods
//Storyboard Layer 0 (Background)
//Storyboard Layer 1 (Fail)
//Storyboard Layer 2 (Pass)
//Storyboard Layer 3 (Foreground)
//Storyboard Sound Samples

[TimingPoints]
1252,302.267002518892,4,3,2,70,1,0
18178,-100,4,3,22,70,0,0
19690,-100,4,3,0,70,0,0
19992,-100,4,3,0,70,0,0
20597,-133.333333333333,4,2,0,70,0,0
30269,-125,4,3,22,70,0,0
38718,302.267002518892,4,3,22,70,1,0
39776,-125,4,3,22,70,0,0
41438,-100,4,3,22,70,0,0
52017,-100,4,3,2,70,0,1
69549,-83.3333333333333,4,3,2,70,0,1
70153,-71.4285714285714,4,3,2,70,0,1
70455,-100,4,3,2,70,0,1
71362,-125,4,3,2,70,0,0
79221,-100,4,3,2,70,0,0
79826,-83.3333333333333,4,3,2,70,0,0
80279,-125,4,3,2,70,0,0
81035,-100,4,3,2,70,0,1
88289,-100,4,3,2,70,0,0

[Colours]
Combo1 : 152,194,158
Combo2 : 255,170,255
Combo3 : 255,175,96
Combo4 : 170,170,213

[HitObjects]
208,178,1252,6,0,P|160:167|116:138,1,95,6|0,1:3|0:0,0:0:0:0:
286,97,1554,2,0,L|291:41,2,47.5,0|0|0,1:0|0:0|0:0,0:0:0:0:
317,205,1856,2,0,L|312:313,1,95,0|0,1:0|0:0,0:0:0:0:
395,124,2158,1,2,1:0:0:0:
395,124,2234,1,0,0:0:0:0:
395,124,2309,1,8,0:0:0:0:
286,97,2461,6,0,P|234:90|189:72,1,95,6|8,1:0|0:0,0:0:0:0:
116,200,2763,2,0,P|160:183|207:177,1,95,0|8,1:0|0:0,0:0:0:0:
317,205,3065,1,2,1:0:0:0:
184,275,3216,1,10,0:0:0:0:
207,177,3367,1,0,1:0:0:0:
294,303,3519,1,10,0:0:0:0:
286,97,3670,6,0,P|239:68|184:65,1,95,6|0,1:0|0:0,0:0:0:0:
325,212,3972,1,0,1:0:0:0:
325,212,4047,1,0,0:0:0:0:
325,212,4123,1,10,0:0:0:0:
395,124,4274,2,0,L|389:30,1,95,2|0,1:0|0:0,0:0:0:0:
423,237,4576,2,0,L|475:252,2,47.5,0|0|8,1:0|0:0|0:0,0:0:0:0:
348,313,4879,5,4,1:0:0:0:
286,97,5030,1,8,0:0:0:0:
423,237,5181,1,2,1:0:0:0:
211,173,5332,2,0,L|113:167,1,95,10|0,0:0|1:0,0:0:0:0:
395,124,5634,2,0,L|493:118,1,95,10|0,0:0|1:0,0:0:0:0:
317,205,5937,1,10,0:0:0:0:
388,29,6088,5,6,1:0:0:0:
286,97,6239,1,8,0:0:0:0:
395,124,6390,2,0,L|405:171,2,47.5,0|0|0,1:0|0:0|0:0,0:0:0:0:
317,205,6692,2,0,P|269:214|226:240,1,95,0|0,1:0|0:0,0:0:0:0:
392,263,6995,1,2,1:0:0:0:
404,170,7146,1,10,0:0:0:0:
330,340,7297,6,0,P|372:362|424:358,1,95,4|8,1:0|0:0,0:0:0:0:
317,205,7599,2,0,L|265:200,2,47.5,0|0|10,1:0|0:0|0:0,0:0:0:0:
329,112,7901,1,2,1:0:0:0:
404,170,8053,1,10,0:0:0:0:
308,299,8204,2,0,L|317:201,1,95,0|0,1:0|0:0,0:0:0:0:
417,78,8506,5,6,1:0:0:0:
476,229,8657,1,8,0:0:0:0:
324,212,8809,1,0,0:0:0:0:
324,212,8885,1,0,0:0:0:0:
324,212,8960,1,10,0:0:0:0:
421,67,9110,5,6,1:0:0:0:
486,233,9261,1,8,0:0:0:0:
318,214,9413,1,0,1:0:0:0:
318,214,9488,1,0,0:0:0:0:
318,214,9563,1,8,0:0:0:0:
427,55,9715,5,4,1:0:0:0:
498,238,9866,1,8,0:0:0:0:
313,216,10017,1,2,1:0:0:0:
507,104,10168,2,0,L|513:-2,1,95,14|0,0:0|1:0,0:0:0:0:
213,178,10471,2,0,L|219:284,1,95,10|0,0:0|0:0,0:0:0:0:
349,304,10773,1,2,0:0:0:0:
291,107,10924,6,0,P|252:76|200:72,1,95,4|8,1:0|0:0,0:0:0:0:
117,129,11226,1,0,1:0:0:0:
117,129,11302,1,0,0:0:0:0:
117,129,11377,1,8,0:0:0:0:
213,178,11529,2,0,P|252:209|304:213,1,95,0|0,1:0|0:0,0:0:0:0:
122,237,11831,2,0,P|83:268|31:272,1,95,2|0,1:0|0:0,0:0:0:0:
218,286,12133,5,6,1:0:0:0:
213,178,12284,1,8,0:0:0:0:
122,237,12435,2,0,L|65:226,2,47.5,0|0|10,1:0|0:0|0:0,0:0:0:0:
309,227,12738,1,2,1:0:0:0:
117,129,12889,1,10,0:0:0:0:
218,286,13040,2,0,L|323:305,1,95,0|0,1:0|0:0,0:0:0:0:
208,70,13342,6,6,L|114:53,1,95,6|8,1:0|0:0,0:0:0:0:
309,227,13644,1,0,1:0:0:0:
309,227,13720,1,0,0:0:0:0:
309,227,13796,1,10,0:0:0:0:
136,171,13947,6,0,L|119:264,1,95,0|0,1:0|0:0,0:0:0:0:
328,242,14249,1,2,1:0:0:0:
328,242,14325,1,0,0:0:0:0:
328,242,14401,1,0,0:0:0:0:
191,33,14551,5,4,1:0:0:0:
240,210,14702,2,0,P|290:237|339:240,1,95,2|0,1:0|1:0,0:0:0:0:
126,107,15005,2,0,P|79:114|38:138,1,95,10|0,0:0|0:0,0:0:0:0:
210,298,15307,2,0,P|236:248|239:199,1,95,10|0,0:0|0:0,0:0:0:0:
126,107,15609,1,2,0:0:0:0:
115,293,15760,6,0,L|220:298,1,95,12|0,0:0|0:0,0:0:0:0:
236,181,16063,1,0,1:0:0:0:
236,181,16138,1,0,0:0:0:0:
236,181,16214,1,8,0:0:0:0:
324,262,16365,1,0,1:0:0:0:
210,298,16516,1,8,0:0:0:0:
298,379,16667,2,0,P|350:378|394:353,1,95,2|0,1:0|0:0,0:0:0:0:
437,150,16969,6,0,P|380:154|328:275,1,190,4|8,1:0|0:0,0:0:0:0:
416,242,17423,1,10,3:0:0:0:
323,103,17574,2,0,P|285:135|262:177,1,95,10|8,0:0|0:0,0:0:0:0:
446,330,17876,2,0,P|484:298|507:256,1,95,8|10,0:0|0:0,0:0:0:0:
156,174,18178,6,0,L|179:364,1,190,4|0,0:0|0:0,0:0:0:0:
266,351,18632,1,0,0:0:0:0:
353,341,18783,2,0,P|330:292|288:266,1,95,0|0,1:0|0:0,0:0:0:0:
179,362,19085,2,0,P|188:309|223:273,1,95,0|0,0:0|0:0,0:0:0:0:
247,202,19388,6,0,L|223:13,1,190,8|0,0:0|0:0,0:0:0:0:
247,202,19992,2,0,L|258:296,2,95,4|4|8,0:0|0:0|0:0,0:0:0:0:
247,202,20445,1,0,0:0:0:0:
242,116,20597,6,0,P|283:122|311:143,2,71.2500027179719,6|0|0,0:0|0:0|0:0,0:0:0:0:
171,164,21050,1,2,0:0:0:0:
247,202,21201,2,0,P|276:220|311:224,2,71.2500027179719,0|0|2,0:0|0:0|0:0,0:0:0:0:
171,164,21655,1,0,0:0:0:0:
174,249,21806,6,0,L|180:319,1,71.2500027179719,2|0,0:0|0:0,0:0:0:0:
257,356,22108,2,0,L|251:286,1,71.2500027179719,0|2,0:0|0:0,0:0:0:0:
324,241,22410,2,0,L|330:311,1,71.2500027179719,2|0,0:0|0:0,0:0:0:0:
407,348,22712,2,0,L|401:278,1,71.2500027179719,2|0,0:0|0:0,0:0:0:0:
324,241,23015,6,0,L|337:81,1,142.500005435944,6|0,0:0|0:0,0:0:0:0:
290,26,23468,1,2,0:0:0:0:
251,102,23619,2,0,L|244:174,1,71.2500027179719,2|0,0:0|0:0,0:0:0:0:
169,131,23922,2,0,L|162:203,1,71.2500027179719,0|0,3:0|0:0,0:0:0:0:
95,254,24224,6,0,L|101:326,2,71.2500027179719,2|0|0,0:0|0:0|0:0,0:0:0:0:
163,202,24677,1,2,0:0:0:0:
228,254,24828,2,0,L|221:326,2,71.2500027179719,2|2|0,0:0|0:0|3:0,0:0:0:0:
163,202,25282,1,2,0:0:0:0:
241,167,25433,6,0,P|282:154|385:157,1,142.500005435944,6|0,0:0|0:0,0:0:0:0:
458,189,25886,1,2,0:0:0:0:
389,239,26037,2,0,L|314:246,1,71.2500027179719,0|0,0:0|0:0,0:0:0:0:
278,321,26340,2,0,L|203:314,1,71.2500027179719,2|0,0:0|0:0,0:0:0:0:
121,316,26642,6,0,L|114:236,2,71.2500027179719,2|0|0,0:0|0:0|0:0,0:0:0:0:
42,349,27095,1,2,0:0:0:0:
27,264,27246,2,0,L|34:184,2,71.2500027179719,2|0|0,0:0|0:0|3:0,0:0:0:0:
42,349,27700,1,2,0:0:0:0:
121,316,27851,6,0,L|133:154,1,142.500005435944,0|0,3:0|0:0,0:0:0:0:
200,283,28305,1,2,0:0:0:0:
200,283,28456,2,0,L|212:121,1,142.500005435944,0|0,3:0|0:0,0:0:0:0:
279,250,28909,1,2,0:0:0:0:
279,250,29060,2,0,L|291:88,1,142.500005435944,0|2,3:0|0:0,0:0:0:0:
358,217,29513,1,2,0:0:0:0:
358,217,29664,2,0,L|364:134,1,71.2500027179719,4|0,3:0|0:0,0:0:0:0:
441,111,29967,2,0,L|434:28,1,71.2500027179719,8|0,3:0|0:0,0:0:0:0:
327,36,30269,6,0,P|289:19|236:17,1,76,6|0,1:0|0:0,0:0:0:0:
139,162,30571,2,0,P|176:157|210:141,1,76,8|0,0:0|0:0,0:0:0:0:
139,41,30874,1,0,1:0:0:0:
139,41,31025,1,0,0:0:0:0:
42,104,31176,2,0,L|33:185,1,76,8|0,0:0|0:0,0:0:0:0:
33,295,31478,6,0,P|89:276|122:275,1,76,0|0,1:0|1:0,0:0:0:0:
211,182,31780,2,0,P|173:176|138:161,1,76,8|2,0:0|0:0,0:0:0:0:
228,294,32083,1,2,1:0:0:0:
228,294,32234,1,2,1:0:0:0:
310,227,32385,2,0,L|313:145,1,76,10|2,0:0|0:0,0:0:0:0:
216,30,32687,6,0,L|210:192,1,152,6|8,1:0|0:0,0:0:0:0:
105,274,33141,1,2,0:0:0:0:
139,161,33292,1,2,1:0:0:0:
139,161,33443,1,0,0:0:0:0:
37,213,33594,2,0,P|17:251|16:298,1,76,8|0,0:0|0:0,0:0:0:0:
67,359,33896,5,0,1:0:0:0:
105,274,34047,1,0,0:0:0:0:
159,350,34199,1,8,0:0:0:0:
197,265,34350,1,2,0:0:0:0:
251,341,34501,1,2,1:0:0:0:
251,341,34652,2,0,L|332:350,1,76,2|8,1:0|0:0,0:0:0:0:
417,357,34954,1,2,0:0:0:0:
380,273,35105,6,0,L|229:256,1,152,4|8,1:0|0:0,0:0:0:0:
343,189,35559,2,0,P|400:185|473:266,1,152,2|0,0:0|1:0,0:0:0:0:
306,105,36012,2,0,P|270:132|253:167,1,76,10|0,0:0|0:0,0:0:0:0:
228,256,36314,6,0,P|191:203|99:189,1,152,4|8,1:0|0:0,0:0:0:0:
33,364,36768,2,0,P|79:360|136:272,1,152,2|2,0:0|1:0,0:0:0:0:
29,193,37221,2,0,L|42:278,1,76,10|2,0:0|0:0,0:0:0:0:
136,279,37524,6,0,L|160:115,1,152,4|8,1:0|0:0,0:0:0:0:
178,39,37977,1,2,1:0:0:0:
243,101,38128,2,0,L|231:176,1,76,0|2,0:0|1:0,0:0:0:0:
82,142,38430,2,0,L|93:66,1,76,10|0,0:0|0:0,0:0:0:0:
303,31,38718,5,2,0:0:0:0:
159,129,38869,1,0,1:0:0:0:
373,154,39020,1,14,0:0:0:0:
243,101,39171,1,0,0:0:0:0:
294,294,39322,5,10,0:0:0:0:
303,31,39473,1,8,0:0:0:0:
303,31,39776,6,0,P|367:20|484:26,1,152,6|0,1:0|1:0,0:0:0:0:
373,154,40229,2,0,P|327:144|288:129,1,76,8|0,0:0|0:0,0:0:0:0:
480,122,40531,2,0,P|494:171|503:278,1,152,2|10,1:0|0:0,0:0:0:0:
298,371,40985,6,0,P|312:333|379:235,1,152,6|0,1:0|0:0,0:0:0:0:
239,251,41438,2,0,P|190:267|140:276,1,95,8|0,0:0|0:0,0:0:0:0:
203,120,41740,2,0,L|402:142,1,190,2|10,1:0|0:0,0:0:0:0:
453,78,42193,1,2,0:0:0:0:
445,202,42345,6,0,P|402:232|258:260,1,190,6|10,1:0|0:0,0:0:0:0:
240,113,42798,1,0,0:0:0:0:
240,113,42949,2,0,P|270:127|331:197,1,95,2|2,1:0|1:0,0:0:0:0:
269,261,43252,1,10,0:0:0:0:
65,173,43403,2,0,P|109:142|251:114,1,190,6|0,1:0|0:0,0:0:0:0:
315,169,43856,1,8,0:0:0:0:
273,264,44007,1,2,0:0:0:0:
273,264,44158,2,0,L|283:364,1,95,2|0,1:0|1:0,0:0:0:0:
408,305,44460,2,0,L|418:205,1,95,10|0,0:0|0:0,0:0:0:0:
304,106,44763,6,0,P|279:153|138:178,1,190,6|8,1:0|0:0,0:0:0:0:
71,107,45216,1,0,0:0:0:0:
42,217,45367,2,0,L|33:331,1,95,2|0,1:0|1:0,0:0:0:0:
154,185,45670,1,10,0:0:0:0:
118,350,45821,2,0,P|65:336|26:301,1,95,6|0,1:0|0:0,0:0:0:0:
208,284,46123,2,0,L|401:270,1,190,2|0,1:0|0:0,0:0:0:0:
249,178,46576,2,0,L|154:184,1,95,0|2,1:0|1:0,0:0:0:0:
385,372,46879,2,0,L|479:365,1,95,10|0,0:0|0:0,0:0:0:0:
440,117,47181,6,0,P|395:146|405:278,1,190,6|0,1:0|0:0,0:0:0:0:
397,270,47634,1,2,0:0:0:0:
329,68,47785,2,0,L|134:56,1,190,0|2,0:0|1:0,0:0:0:0:
139,56,48390,6,0,B|181:122|181:122|141:246,1,190,10|0,0:0|0:0,0:0:0:0:
60,229,48843,2,0,L|91:133,1,95,2|8,1:0|0:0,0:0:0:0:
261,136,49146,2,0,L|231:226,1,95,2|8,0:0|0:0,0:0:0:0:
147,228,49448,1,2,0:0:0:0:
307,46,49599,6,0,P|343:78|364:122,1,95,14|0,0:0|0:0,0:0:0:0:
176,318,49901,2,0,L|147:227,1,95,10|0,0:0|0:0,0:0:0:0:
139,56,50204,1,10,0:0:0:0:
260,316,50355,2,0,L|231:225,1,95,10|0,0:0|0:0,0:0:0:0:
307,46,50657,6,0,P|228:57|268:238,1,285,10|10,0:0|0:0,0:0:0:0:
262,247,52017,6,0,L|274:356,1,95,6|8,1:3|0:0,0:0:0:0:
300,141,52319,1,0,1:0:0:0:
300,141,52394,1,0,0:0:0:0:
300,141,52470,1,8,0:0:0:0:
189,161,52621,1,0,1:0:0:0:
262,247,52772,1,8,0:0:0:0:
227,55,52923,1,0,1:0:0:0:
227,55,52999,1,0,0:0:0:0:
227,55,53074,1,0,0:0:0:0:
189,161,53226,6,0,L|87:151,1,95,4|8,1:0|0:0,0:0:0:0:
373,227,53528,2,0,L|475:217,1,95,0|8,1:0|0:0,0:0:0:0:
338,35,53830,1,0,1:0:0:0:
262,247,53981,1,0,0:0:0:0:
227,55,54132,1,0,1:0:0:0:
373,227,54284,1,10,0:0:0:0:
189,161,54435,6,0,P|157:204|149:262,1,95,0|8,1:0|0:0,0:0:0:0:
300,141,54737,1,0,1:0:0:0:
227,55,54888,2,0,P|163:39|122:43,1,95,10|0,0:0|1:0,0:0:0:0:
262,247,55190,1,8,0:0:0:0:
338,35,55341,1,0,1:0:0:0:
338,35,55417,1,0,0:0:0:0:
338,35,55493,1,8,0:0:0:0:
189,161,55644,5,4,1:0:0:0:
373,227,55795,1,8,0:0:0:0:
227,55,55946,1,0,1:0:0:0:
204,315,56097,2,0,P|258:338|312:326,1,95,10|0,0:0|1:0,0:0:0:0:
189,161,56399,2,0,P|142:159|100:180,1,95,10|0,0:0|1:0,0:0:0:0:
373,227,56702,1,8,0:0:0:0:
227,55,56853,5,6,1:0:0:0:
165,242,57004,1,8,0:0:0:0:
300,141,57155,1,0,1:0:0:0:
300,141,57231,1,0,0:0:0:0:
300,141,57306,1,8,0:0:0:0:
92,156,57457,2,0,P|58:196|45:240,1,95,0|8,1:0|0:0,0:0:0:0:
238,328,57760,1,0,1:0:0:0:
238,328,57835,1,0,0:0:0:0:
238,328,57911,1,10,0:0:0:0:
300,141,58062,6,0,L|289:37,1,95,4|8,1:0|0:0,0:0:0:0:
165,242,58364,2,0,L|154:346,1,95,0|10,1:0|0:0,0:0:0:0:
196,149,58666,1,0,1:0:0:0:
269,234,58818,1,10,0:0:0:0:
92,157,58969,2,0,L|101:62,1,95,0|8,1:0|0:0,0:0:0:0:
165,242,59271,5,6,1:0:0:0:
227,56,59422,1,8,0:0:0:0:
357,202,59573,1,0,1:0:0:0:
357,202,59649,1,0,0:0:0:0:
357,202,59724,1,10,0:0:0:0:
139,209,59875,5,6,1:0:0:0:
258,29,60026,1,0,0:0:0:0:
354,221,60177,1,0,0:0:0:0:
354,221,60253,1,0,0:0:0:0:
354,221,60330,1,8,0:0:0:0:
121,167,60480,5,0,1:0:0:0:
299,10,60631,1,0,0:0:0:0:
347,241,60782,1,2,1:0:0:0:
64,79,60933,2,0,P|25:121|13:169,1,95,14|0,0:0|1:0,0:0:0:0:
404,330,61236,2,0,P|443:288|455:240,1,95,8|0,0:0|1:0,0:0:0:0:
356,126,61538,1,8,0:0:0:0:
212,350,61690,6,0,L|114:341,1,95,4|8,1:0|0:0,0:0:0:0:
253,204,61992,1,0,1:0:0:0:
253,204,62067,1,0,0:0:0:0:
253,204,62143,1,8,0:0:0:0:
305,297,62294,1,0,1:0:0:0:
159,256,62445,1,8,0:0:0:0:
361,206,62596,2,0,P|400:250|410:292,1,95,0|8,1:0|0:0,0:0:0:0:
253,204,62899,6,0,L|267:99,1,95,0|8,1:0|0:0,0:0:0:0:
159,256,63201,1,0,1:0:0:0:
161,149,63352,1,8,0:0:0:0:
252,312,63503,2,0,P|302:299|337:264,1,95,0|8,1:0|0:0,0:0:0:0:
67,201,63806,2,0,L|54:295,1,95,0|8,1:0|0:0,0:0:0:0:
161,149,64108,6,0,L|148:55,1,95,4|8,1:0|0:0,0:0:0:0:
166,263,64410,1,0,1:0:0:0:
166,263,64486,1,0,0:0:0:0:
166,263,64561,1,10,0:0:0:0:
265,109,64712,6,0,L|359:96,1,95,0|8,1:0|0:0,0:0:0:0:
140,264,65014,1,0,1:0:0:0:
140,264,65090,1,0,0:0:0:0:
140,264,65165,1,8,0:0:0:0:
48,91,65317,5,0,0:0:0:0:
140,264,65468,2,0,L|132:165,1,95,2|0,1:0|0:0,0:0:0:0:
291,16,65770,2,0,L|283:115,1,95,10|12,0:0|0:0,0:0:0:0:
46,330,66073,2,0,L|38:231,1,95,0|0,0:0|1:0,0:0:0:0:
48,91,66375,1,10,0:0:0:0:
228,233,66526,6,0,P|175:259|122:262,1,95,4|8,1:0|0:0,0:0:0:0:
283,110,66828,1,0,1:0:0:0:
283,110,66904,1,0,0:0:0:0:
283,110,66979,1,8,0:0:0:0:
363,220,67130,1,0,1:0:0:0:
228,233,67282,1,8,0:0:0:0:
283,110,67433,1,0,1:0:0:0:
283,110,67509,1,0,0:0:0:0:
283,110,67584,1,8,0:0:0:0:
308,343,67735,6,0,L|207:337,1,95,4|8,1:0|0:0,0:0:0:0:
363,220,68037,1,8,0:0:0:0:
363,220,68113,1,0,0:0:0:0:
363,220,68188,1,0,0:0:0:0:
443,330,68340,5,10,0:0:0:0:
228,233,68491,1,8,0:0:0:0:
419,95,68642,1,8,0:0:0:0:
310,349,68793,1,10,0:0:0:0:
228,39,68944,6,0,L|39:25,1,190,4|8,1:0|0:0,0:0:0:0:
105,189,69397,1,0,0:0:0:0:
309,82,69549,6,0,L|69:64,1,227.999993041992,8|0,0:0|1:0,0:0:0:0:
105,189,70002,1,8,0:0:0:0:
390,125,70153,6,0,L|228:113,1,132.999995941162,8|0,0:0|1:0,0:0:0:0:
406,233,70455,6,0,P|458:213|486:181,1,95,8|0,0:0|1:0,0:0:0:0:
305,193,70758,2,0,P|296:248|310:288,1,95,8|0,0:0|1:0,0:0:0:0:
390,125,71060,2,0,P|346:89|304:81,1,95,8|0,0:0|0:0,0:0:0:0:
170,242,71362,6,0,P|212:245|312:184,1,152,6|8,1:0|0:0,0:0:0:0:
252,24,71816,2,0,P|210:21|110:82,1,152,2|0,1:0|1:0,0:0:0:0:
170,242,72269,2,0,P|193:203|199:161,1,76,10|0,0:0|0:0,0:0:0:0:
40,228,72571,6,0,P|43:301|107:378,1,152,2|8,1:0|0:0,0:0:0:0:
246,310,73025,2,0,P|243:237|179:160,1,152,2|0,1:0|1:0,0:0:0:0:
129,32,73478,2,0,P|171:45|214:48,1,76,8|2,0:0|0:0,0:0:0:0:
347,148,73780,6,0,P|294:147|186:181,1,152,2|8,1:0|0:0,0:0:0:0:
324,306,74234,2,0,P|395:329|471:331,1,152,2|0,1:0|1:0,0:0:0:0:
204,268,74687,2,0,P|173:298|153:330,1,76,10|0,0:0|0:0,0:0:0:0:
324,306,74989,6,0,P|331:246|309:126,1,152,2|8,1:0|0:0,0:0:0:0:
187,54,75443,2,0,P|151:79|131:109,1,76,2|0,1:0|1:0,0:0:0:0:
166,213,75745,2,0,P|205:231|241:233,1,76,2|8,1:0|0:0,0:0:0:0:
319,155,76047,1,10,0:0:0:0:
132,105,76198,6,0,P|79:137|19:223,1,152,6|8,1:0|0:0,0:0:0:0:
51,317,76652,2,0,P|101:292|207:280,1,152,2|0,1:0|1:0,0:0:0:0:
266,177,77105,2,0,P|215:166|173:152,1,76,8|2,0:0|0:0,0:0:0:0:
371,167,77408,6,0,P|393:204|423:320,1,152,2|8,1:0|0:0,0:0:0:0:
310,80,77861,2,0,P|363:55|476:46,1,152,2|0,1:0|1:0,0:0:0:0:
205,90,78314,2,0,P|187:52|182:7,1,76,8|2,0:0|1:0,0:0:0:0:
266,177,78617,6,0,L|260:359,1,152,10|8,0:0|0:0,0:0:0:0:
205,90,79070,1,2,1:0:0:0:
310,147,79221,6,0,L|302:376,1,190,10|10,0:0|0:0,0:0:0:0:
185,80,79675,1,0,1:0:0:0:
354,117,79826,6,0,L|346:346,1,227.999993041992,14|14,0:0|0:0,0:0:0:0:
165,70,80279,2,0,P|190:41|235:12,1,76,2|8,0:0|0:0,0:0:0:0:
239,15,80506,1,0,0:0:0:0:
257,14,80581,1,10,0:0:0:0:
276,15,80657,1,8,0:0:0:0:
294,19,80732,1,8,0:0:0:0:
354,117,80884,1,10,0:0:0:0:
354,117,80959,1,0,0:0:0:0:
354,117,81035,6,0,L|347:225,1,95,4|8,1:0|0:0,0:0:0:0:
242,242,81337,1,0,1:0:0:0:
242,242,81413,1,0,0:0:0:0:
242,242,81488,1,8,0:0:0:0:
247,140,81639,1,0,1:0:0:0:
334,305,81790,1,8,0:0:0:0:
355,219,81942,1,2,1:0:0:0:
355,219,82018,1,0,0:0:0:0:
355,219,82093,1,8,0:0:0:0:
157,187,82244,6,0,P|111:202|73:230,1,95,2|8,1:0|0:0,0:0:0:0:
247,140,82546,2,0,P|257:92|251:45,1,95,0|10,1:0|0:0,0:0:0:0:
242,242,82848,1,2,1:0:0:0:
162,85,82999,1,8,0:0:0:0:
152,289,83151,1,0,1:0:0:0:
247,140,83303,1,10,0:0:0:0:
237,344,83453,5,6,1:0:0:0:
157,187,83604,1,8,0:0:0:0:
332,196,83755,1,8,0:0:0:0:
332,196,83831,1,8,0:0:0:0:
332,196,83906,1,10,0:0:0:0:
192,351,84057,5,4,1:0:0:0:
148,142,84208,1,0,1:0:0:0:
349,208,84359,1,2,1:0:0:0:
349,208,84435,1,0,1:0:0:0:
349,208,84510,1,2,1:0:0:0:
139,345,84662,5,12,0:0:0:0:
152,89,84813,1,10,0:0:0:0:
366,228,84964,1,8,0:0:0:0:
56,119,85115,2,0,P|56:61|82:19,1,95,10|4,0:0|1:0,0:0:0:0:
461,206,85418,2,0,P|461:264|435:306,1,95,2|10,1:0|0:0,0:0:0:0:
347,328,85720,1,10,0:0:0:0:
386,129,85871,6,0,P|429:99|483:101,1,95,4|8,1:0|0:0,0:0:0:0:
366,228,86173,1,0,1:0:0:0:
366,228,86249,1,0,0:0:0:0:
366,228,86324,1,8,0:0:0:0:
291,162,86476,1,0,1:0:0:0:
386,129,86628,1,8,0:0:0:0:
271,261,86778,1,2,1:0:0:0:
271,261,86853,1,0,0:0:0:0:
271,261,86929,1,10,0:0:0:0:
311,63,87080,6,0,P|350:34|407:31,1,95,0|0,1:0|0:0,0:0:0:0:
366,228,87382,1,10,0:0:0:0:
196,194,87533,1,0,0:0:0:0:
291,162,87685,5,2,1:0:0:0:
271,261,87836,1,0,0:0:0:0:
311,63,87987,1,10,0:0:0:0:
386,129,88138,1,0,0:0:0:0:
196,194,88289,5,14,0:0:0:0:
