osu file format v14

[General]
AudioFilename: audio.mp3
AudioLeadIn: 0
PreviewTime: 51035
Countdown: 0
SampleSet: None
StackLeniency: 0.7
Mode: 0
LetterboxInBreaks: 0
WidescreenStoryboard: 0

[Editor]
DistanceSpacing: 1.2
BeatDivisor: 4
GridSize: 4
TimelineZoom: 3.399999

[Metadata]
Title:distance (NARUTO Ver.)
TitleUnicode:distance (NARUTO Ver.)
Artist:LONG SHOT PARTY
ArtistUnicode:LONG SHOT PARTY
Creator:Monstrata
Version:Hokage
Source:NARUTO -ナルト- 疾風伝
Tags:iyiyo gero akitoshi corinn natsu snownino_ naruto uzumaki sasuke uchiha sakura haruno kakashi hatake shippuuden shipuuden shippuden shipuden opening two 2 tv size anime
BeatmapID:1341959
BeatmapSetID:632130

[Difficulty]
HPDrainRate:6
CircleSize:4
OverallDifficulty:8.7
ApproachRate:9.5
SliderMultiplier:1.76
SliderTickRate:1

[Events]
//Background and Video events
0,0,"789346.png",0,0
//Break Periods
//Storyboard Layer 0 (Background)
//Storyboard Layer 1 (Fail)
//Storyboard Layer 2 (Pass)
//Storyboard Layer 3 (Foreground)
//Storyboard Sound Samples

[TimingPoints]
1252,302.267002518892,4,3,2,70,1,0
1252,-100,4,3,2,70,0,1
18178,-133.333333333333,4,3,22,70,0,0
19690,-133.333333333333,4,3,0,70,0,0
20597,-133.333333333333,4,2,0,70,0,0
30269,-100,4,3,22,70,0,0
38718,302.267002518892,4,3,22,70,1,0
50657,-90.9090909090909,4,3,22,70,0,0
51262,-133.333333333333,4,3,22,70,0,0
52017,-100,4,3,2,70,0,1
53831,-95.2380952380952,4,3,2,70,0,1
53982,-100,4,3,2,70,0,1
71362,-100,4,3,2,70,0,0
81035,-100,4,3,2,70,0,1
87383,-90.9090909090909,4,3,2,70,0,1
87685,-100,4,3,2,70,0,1
87987,-133.333333333333,4,3,2,70,0,1
88289,-133.333333333333,4,3,2,70,0,0

[Colours]
Combo1 : 152,194,158
Combo2 : 255,170,255
Combo3 : 255,175,96
Combo4 : 170,170,213

[HitObjects]
181,256,1252,5,6,1:3:0:0:
173,169,1402,1,8,0:0:0:0:
197,351,1554,1,0,1:0:0:0:
197,351,1628,1,0,0:0:0:0:
197,351,1704,1,8,0:0:0:0:
331,239,1855,1,0,1:0:0:0:
251,203,2006,1,8,0:0:0:0:
402,187,2157,1,2,1:0:0:0:
412,206,2233,1,0,0:0:0:0:
417,227,2308,1,8,0:0:0:0:
417,249,2384,1,0,0:0:0:0:
413,271,2460,6,0,P|372:317|328:328,1,88,6|8,1:0|0:0,0:0:0:0:
185,268,2762,2,0,P|228:272|265:297,1,88,0|8,1:0|0:0,0:0:0:0:
199,355,3064,1,2,1:0:0:0:
172,182,3215,2,0,L|153:64,1,88,10|0,0:0|1:0,0:0:0:0:
104,238,3518,1,10,0:0:0:0:
322,157,3669,5,6,1:0:0:0:
225,39,3820,1,8,0:0:0:0:
255,213,3972,2,0,L|269:284,2,44,0|0|10,1:0|0:0|0:0,0:0:0:0:
307,70,4273,1,2,1:0:0:0:
404,186,4424,1,8,0:0:0:0:
374,14,4575,1,0,1:0:0:0:
322,157,4727,1,8,0:0:0:0:
163,44,4878,6,0,P|133:75|122:117,1,88,4|8,1:0|0:0,0:0:0:0:
255,213,5180,1,2,1:0:0:0:
389,101,5331,2,0,L|399:1,1,88,10|0,0:0|1:0,0:0:0:0:
246,125,5634,2,0,L|254:212,1,88,10|0,0:0|1:0,0:0:0:0:
381,189,5936,1,10,0:0:0:0:
238,38,6087,5,6,1:0:0:0:
158,133,6238,1,8,0:0:0:0:
333,116,6389,1,0,1:0:0:0:
333,116,6465,1,0,0:0:0:0:
333,116,6540,1,8,0:0:0:0:
254,212,6691,1,0,1:0:0:0:
246,125,6842,1,8,0:0:0:0:
185,265,6994,1,2,1:0:0:0:
201,280,7069,1,0,0:0:0:0:
220,291,7145,1,10,0:0:0:0:
241,298,7220,1,0,0:0:0:0:
262,300,7296,6,0,L|349:293,1,88,4|8,1:0|0:0,0:0:0:0:
174,176,7598,2,0,L|76:182,1,88,0|10,1:0|0:0,0:0:0:0:
254,212,7900,1,2,1:0:0:0:
167,88,8052,2,0,L|173:175,1,88,10|0,0:0|1:0,0:0:0:0:
336,249,8354,1,10,0:0:0:0:
240,39,8505,5,6,1:0:0:0:
254,212,8656,1,8,0:0:0:0:
396,112,8807,2,0,L|403:53,2,44,0|0|10,1:0|0:0|0:0,0:0:0:0:
336,249,9109,1,6,1:0:0:0:
315,76,9261,1,8,0:0:0:0:
263,300,9412,1,0,1:0:0:0:
325,162,9563,1,8,0:0:0:0:
347,336,9714,6,0,P|393:316|422:261,1,88,4|8,1:0|0:0,0:0:0:0:
408,198,9941,1,0,0:0:0:0:
408,198,10017,2,0,L|473:205,1,44,2|0,1:0|0:0,0:0:0:0:
315,76,10168,2,0,L|325:163,1,88,14|0,0:0|1:0,0:0:0:0:
397,43,10470,1,10,0:0:0:0:
397,43,10545,1,0,0:0:0:0:
397,43,10621,2,0,L|403:-12,1,44,0|0,1:0|0:0,0:0:0:0:
233,109,10772,2,0,L|240:176,1,44,2|0,0:0|0:0,0:0:0:0:
345,337,10923,6,0,L|335:249,1,88,4|8,1:0|0:0,0:0:0:0:
168,209,11150,1,0,0:0:0:0:
168,209,11225,2,0,P|203:235|247:242,1,88,0|8,1:0|0:0,0:0:0:0:
373,36,11528,1,0,1:0:0:0:
221,65,11679,1,8,0:0:0:0:
389,123,11830,1,2,1:0:0:0:
410,117,11905,1,0,0:0:0:0:
428,105,11981,1,8,0:0:0:0:
443,89,12057,1,0,0:0:0:0:
453,70,12132,5,6,1:0:0:0:
305,94,12283,1,8,0:0:0:0:
405,210,12434,1,0,1:0:0:0:
373,36,12586,1,10,0:0:0:0:
337,268,12737,1,2,1:0:0:0:
237,152,12888,1,10,0:0:0:0:
269,326,13039,1,0,1:0:0:0:
305,94,13190,1,10,0:0:0:0:
169,210,13341,6,0,P|211:238|262:238,1,88,6|8,1:0|0:0,0:0:0:0:
321,181,13643,1,0,1:0:0:0:
135,35,13795,2,0,L|152:122,1,88,10|0,0:0|1:0,0:0:0:0:
337,268,14097,1,10,0:0:0:0:
305,94,14248,1,2,1:0:0:0:
269,326,14399,5,10,0:0:0:0:
389,123,14550,1,4,1:0:0:0:
354,356,14701,5,2,1:0:0:0:
305,94,14853,1,0,1:0:0:0:
184,296,15004,5,10,0:0:0:0:
221,65,15155,1,12,0:0:0:0:
269,326,15306,5,10,0:0:0:0:
153,123,15457,1,0,1:0:0:0:
116,355,15608,1,2,0:0:0:0:
221,65,15759,5,12,0:0:0:0:
184,296,15910,1,8,0:0:0:0:
389,123,16062,2,0,L|461:108,2,44,0|0|8,1:0|0:0|0:0,0:0:0:0:
221,65,16364,1,0,1:0:0:0:
254,239,16515,1,8,0:0:0:0:
372,35,16666,1,2,1:0:0:0:
355,20,16742,1,0,0:0:0:0:
336,10,16817,1,10,0:0:0:0:
314,5,16893,1,0,0:0:0:0:
292,5,16969,6,0,L|179:28,1,88,4|8,1:0|0:0,0:0:0:0:
254,239,17271,2,0,L|340:221,1,88,8|10,0:0|3:0,0:0:0:0:
277,100,17497,1,8,3:0:0:0:
277,100,17573,2,0,L|267:146,1,44,10|8,0:0|0:0,0:0:0:0:
171,153,17725,2,0,L|180:199,1,44,8|2,0:0|0:0,0:0:0:0:
107,49,17876,2,0,L|97:95,1,44,8|0,0:0|0:0,0:0:0:0:
1,102,18027,2,0,L|10:148,1,44,10|0,0:0|0:0,0:0:0:0:
116,18,18178,6,0,L|262:26,1,132.000005035401,4|0,0:0|0:0,0:0:0:0:
277,100,18631,1,0,0:0:0:0:
372,178,18782,2,0,L|306:174,1,66.0000025177003,0|0,1:0|0:0,0:0:0:0:
355,4,19084,2,0,L|351:69,1,66.0000025177003,0|0,0:0|0:0,0:0:0:0:
198,196,19387,6,0,L|201:130,1,66.0000025177003,8|0,0:0|0:0,0:0:0:0:
125,235,19689,1,8,0:0:0:0:
268,316,19840,2,0,L|271:381,1,66.0000025177003,0|4,0:0|0:0,0:0:0:0:
195,277,20143,1,4,0:0:0:0:
338,196,20294,2,0,L|341:130,1,66.0000025177003,8|0,0:0|0:0,0:0:0:0:
265,235,20596,6,0,P|314:275|378:267,1,132.000005035401,6|0,0:0|0:0,0:0:0:0:
421,191,21050,1,2,0:0:0:0:
463,115,21201,2,0,L|447:30,1,66.0000025177003,0|0,0:0|0:0,0:0:0:0:
376,115,21503,2,0,L|360:31,1,66.0000025177003,2|0,0:0|0:0,0:0:0:0:
289,115,21805,6,0,P|244:77|161:93,1,132.000005035401,2|0,0:0|0:0,0:0:0:0:
129,155,22259,1,2,0:0:0:0:
189,216,22410,2,0,P|207:190|214:158,1,66.0000025177003,2|0,0:0|0:0,0:0:0:0:
105,237,22712,2,0,P|118:266|143:288,1,66.0000025177003,2|0,0:0|0:0,0:0:0:0:
45,175,23014,6,0,P|26:201|40:294,1,132.000005035401,6|0,0:0|0:0,0:0:0:0:
98,358,23468,1,2,0:0:0:0:
207,280,23619,2,0,P|174:278|143:288,1,66.0000025177003,2|0,0:0|0:0,0:0:0:0:
269,339,23921,2,0,P|301:341|332:331,1,66.0000025177003,0|0,3:0|0:0,0:0:0:0:
321,209,24223,6,0,B|302:256|302:256|332:331,1,132.000005035401,2|0,0:0|0:0,0:0:0:0:
392,257,24677,1,2,0:0:0:0:
296,147,24828,2,0,L|320:208,1,66.0000025177003,2|2,0:0|0:0,0:0:0:0:
462,178,25130,2,0,L|397:169,1,66.0000025177003,0|2,3:0|0:0,0:0:0:0:
409,49,25432,6,0,P|426:111|397:168,1,132.000005035401,6|0,0:0|0:0,0:0:0:0:
341,103,25886,1,2,0:0:0:0:
263,67,26037,2,0,P|255:105|270:155,1,66.0000025177003,0|0,0:0|0:0,0:0:0:0:
188,180,26339,2,0,P|211:202|241:215,1,66.0000025177003,2|0,0:0|0:0,0:0:0:0:
176,94,26641,6,0,L|32:118,1,132.000005035401,2|0,0:0|0:0,0:0:0:0:
85,192,27095,1,2,0:0:0:0:
45,268,27246,2,0,L|130:282,1,66.0000025177003,2|0,0:0|0:0,0:0:0:0:
241,215,27548,2,0,L|176:226,1,66.0000025177003,0|2,3:0|0:0,0:0:0:0:
325,231,27851,6,0,L|455:252,1,132.000005035401,0|0,3:0|0:0,0:0:0:0:
505,182,28304,1,2,0:0:0:0:
433,134,28455,2,0,P|420:197|455:252,1,132.000005035401,0|0,3:0|0:0,0:0:0:0:
505,182,28908,1,2,0:0:0:0:
437,48,29060,6,0,P|375:68|346:125,1,132.000005035401,0|2,3:0|0:0,0:0:0:0:
433,134,29513,1,2,0:0:0:0:
317,2,29664,2,0,L|228:18,1,66.0000025177003,4|0,3:0|0:0,0:0:0:0:
281,137,29966,2,0,L|345:125,1,66.0000025177003,8|0,3:0|0:0,0:0:0:0:
186,98,30269,6,0,P|265:152|262:240,1,176,6|8,1:0|0:0,0:0:0:0:
97,196,30722,2,0,B|138:183|138:183|181:193,1,88,0|0,0:0|1:0,0:0:0:0:
314,304,31024,2,0,B|273:317|273:317|229:307,2,88,0|8|0,0:0|0:0|0:0,0:0:0:0:
357,226,31478,5,0,1:0:0:0:
266,95,31629,2,0,L|278:182,1,88,0|8,1:0|0:0,0:0:0:0:
435,269,31931,2,0,L|447:181,1,88,2|2,0:0|1:0,0:0:0:0:
365,136,32233,1,2,1:0:0:0:
314,304,32385,2,0,L|416:354,1,88,10|2,0:0|0:0,0:0:0:0:
278,182,32687,6,0,P|175:224|87:190,1,176,6|8,1:0|0:0,0:0:0:0:
85,126,33140,1,2,0:0:0:0:
211,64,33291,2,0,P|200:106|171:138,1,88,2|0,1:0|0:0,0:0:0:0:
31,210,33594,2,0,P|73:198|115:208,1,88,8|0,0:0|0:0,0:0:0:0:
224,369,33896,6,0,P|173:302|202:223,1,176,0|8,1:0|0:0,0:0:0:0:
262,288,34349,1,2,0:0:0:0:
84,316,34500,1,2,1:0:0:0:
171,138,34652,1,2,1:0:0:0:
224,369,34803,2,0,P|266:379|307:364,1,88,8|2,0:0|0:0,0:0:0:0:
345,283,35029,1,0,0:0:0:0:
345,283,35105,6,0,P|302:272|261:287,1,88,4|0,1:0|0:0,0:0:0:0:
94,276,35407,2,0,P|127:303|170:307,1,88,8|2,0:0|0:0,0:0:0:0:
171,138,35710,2,0,L|157:245,1,88,2|0,1:0|1:0,0:0:0:0:
333,195,36012,1,10,0:0:0:0:
181,49,36163,6,0,P|138:54|103:81,1,88,0|4,0:0|1:0,0:0:0:0:
159,225,36465,1,2,1:0:0:0:
342,105,36616,2,0,P|325:66|290:40,1,88,8|2,0:0|0:0,0:0:0:0:
171,138,36919,1,2,1:0:0:0:
321,282,37070,1,2,1:0:0:0:
257,122,37221,1,10,0:0:0:0:
235,298,37372,1,2,0:0:0:0:
235,298,37448,1,0,0:0:0:0:
235,298,37523,6,0,P|274:359|390:336,1,176,4|8,1:0|0:0,0:0:0:0:
159,225,37977,2,0,L|47:237,1,88,2|0,1:0|0:0,0:0:0:0:
171,138,38279,1,2,1:0:0:0:
321,282,38430,2,0,L|408:272,1,88,10|0,0:0|0:0,0:0:0:0:
257,122,38718,5,2,0:0:0:0:
254,143,38794,1,0,0:0:0:0:
251,165,38869,1,0,1:0:0:0:
248,187,38945,1,0,1:0:0:0:
245,209,39020,2,0,L|332:199,1,88,14|0,0:0|0:0,0:0:0:0:
269,35,39322,5,10,0:0:0:0:
233,296,39473,1,8,0:0:0:0:
233,296,39776,6,0,P|317:280|393:322,1,176,6|0,1:0|1:0,0:0:0:0:
162,243,40229,2,0,P|145:314|164:355,1,88,8|0,0:0|0:0,0:0:0:0:
335,170,40531,2,0,P|338:126|321:86,1,88,2|0,1:0|1:0,0:0:0:0:
154,22,40833,1,10,0:0:0:0:
74,248,40984,6,0,L|161:242,1,88,6|0,1:0|0:0,0:0:0:0:
252,142,41286,1,2,1:0:0:0:
83,78,41438,2,0,L|76:200,1,88,8|0,0:0|0:0,0:0:0:0:
335,170,41740,2,0,P|338:126|321:86,1,88,2|0,1:0|1:0,0:0:0:0:
169,114,42042,2,0,P|166:158|183:198,1,88,10|2,0:0|0:0,0:0:0:0:
418,198,42344,6,0,P|457:178|483:143,1,88,6|2,1:0|0:0,0:0:0:0:
307,0,42647,2,0,P|267:19|241:54,1,88,10|0,0:0|0:0,0:0:0:0:
353,256,42949,1,2,1:0:0:0:
321,86,43100,1,2,1:0:0:0:
189,198,43251,1,10,0:0:0:0:
353,256,43402,6,0,L|466:238,1,88,6|0,1:0|0:0,0:0:0:0:
321,86,43704,1,2,1:0:0:0:
253,272,43855,2,0,L|140:290,1,88,8|2,0:0|0:0,0:0:0:0:
270,20,44158,2,0,P|304:47|322:88,1,88,2|0,1:0|1:0,0:0:0:0:
101,200,44460,2,0,P|67:172|49:132,1,88,10|0,0:0|0:0,0:0:0:0:
288,181,44762,6,0,L|276:365,1,176,6|8,1:0|0:0,0:0:0:0:
196,318,45215,1,0,0:0:0:0:
368,219,45367,2,0,L|483:226,1,88,2|0,1:0|1:0,0:0:0:0:
207,142,45669,1,10,0:0:0:0:
108,323,45820,6,0,L|223:315,1,88,6|0,1:0|0:0,0:0:0:0:
288,181,46122,1,2,1:0:0:0:
126,103,46273,2,0,P|117:148|138:198,1,88,8|0,0:0|0:0,0:0:0:0:
295,269,46576,1,0,1:0:0:0:
361,130,46727,1,2,1:0:0:0:
215,231,46878,1,10,0:0:0:0:
281,92,47029,1,10,0:0:0:0:
222,319,47180,6,0,L|118:312,1,88,6|0,1:0|0:0,0:0:0:0:
207,142,47483,1,0,0:0:0:0:
302,358,47635,2,0,P|369:320|371:220,1,176,2|0,0:0|0:0,0:0:0:0:
125,225,48088,2,0,L|213:231,1,88,2|0,1:0|0:0,0:0:0:0:
372,141,48390,6,0,P|305:179|303:279,1,176,10|0,0:0|0:0,0:0:0:0:
375,228,48844,1,2,1:0:0:0:
239,125,48995,2,0,L|151:130,1,88,8|2,0:0|0:0,0:0:0:0:
210,264,49297,2,0,L|298:270,1,88,8|2,0:0|0:0,0:0:0:0:
325,29,49599,5,14,0:0:0:0:
193,357,49902,1,10,0:0:0:0:
237,25,50204,5,10,0:0:0:0:
210,264,50355,2,0,P|253:263|291:241,1,88,10|0,0:0|0:0,0:0:0:0:
149,20,50657,6,0,B|162:79|162:79|203:107|203:107|197:152|249:198,1,193.600005908203,10|0,0:0|0:0,0:0:0:0:
237,25,51111,5,10,0:0:0:0:
126,158,51262,2,0,B|85:207|5:199|-18:134|-18:134|23:84|74:114,1,264.000010070801,6|0,1:0|0:0,0:0:0:0:
246,297,52017,5,6,1:3:0:0:
208,125,52169,1,8,0:0:0:0:
181,356,52320,1,0,1:0:0:0:
181,356,52395,1,0,0:0:0:0:
181,356,52471,1,8,0:0:0:0:
227,211,52622,1,0,1:0:0:0:
265,383,52773,1,8,0:0:0:0:
291,151,52924,1,0,1:0:0:0:
312,145,53000,1,0,0:0:0:0:
333,140,53075,1,0,0:0:0:0:
355,135,53151,1,0,0:0:0:0:
376,130,53226,5,4,1:0:0:0:
272,65,53377,1,8,0:0:0:0:
310,237,53529,1,0,1:0:0:0:
357,44,53680,1,8,0:0:0:0:
207,125,53831,2,0,P|205:169|231:216,1,92.3999971801759,0|8,1:0|0:0,0:0:0:0:
347,255,54058,1,0,0:0:0:0:
347,255,54133,2,0,P|330:241|309:236,1,44,0|0,1:0|0:0,0:0:0:0:
259,333,54284,2,0,P|280:328|297:314,1,44,10|0,0:0|0:0,0:0:0:0:
291,151,54435,5,0,1:0:0:0:
163,271,54587,1,8,0:0:0:0:
123,100,54738,1,0,1:0:0:0:
123,100,54813,1,0,0:0:0:0:
123,100,54889,1,10,0:0:0:0:
227,211,55040,1,0,1:0:0:0:
187,40,55191,1,8,0:0:0:0:
80,246,55342,1,0,1:0:0:0:
76,278,55418,1,0,0:0:0:0:
85,310,55493,1,8,0:0:0:0:
104,336,55569,1,0,0:0:0:0:
132,353,55644,6,0,P|183:356|243:312,1,88,4|8,1:0|0:0,0:0:0:0:
309,235,55947,1,0,1:0:0:0:
145,186,56098,2,0,L|166:283,1,88,10|0,0:0|1:0,0:0:0:0:
392,381,56400,2,0,L|374:295,1,88,10|0,0:0|1:0,0:0:0:0:
244,177,56703,1,8,0:0:0:0:
308,354,56854,5,6,1:0:0:0:
326,149,57005,1,8,0:0:0:0:
163,272,57156,1,0,1:0:0:0:
163,272,57232,1,0,0:0:0:0:
163,272,57307,1,8,0:0:0:0:
261,92,57458,1,0,1:0:0:0:
228,329,57609,1,8,0:0:0:0:
180,118,57760,1,0,1:0:0:0:
197,104,57836,1,0,0:0:0:0:
217,95,57911,1,10,0:0:0:0:
239,91,57987,1,0,0:0:0:0:
260,91,58063,5,4,1:0:0:0:
163,272,58214,1,8,0:0:0:0:
116,59,58365,1,0,1:0:0:0:
244,244,58516,1,10,0:0:0:0:
335,44,58667,2,0,L|260:91,1,88,0|10,1:0|0:0,0:0:0:0:
141,138,58894,1,0,0:0:0:0:
141,138,58969,2,0,L|185:138,1,44,0|0,1:0|0:0,0:0:0:0:
192,19,59121,2,0,L|191:62,1,44,8|0,0:0|0:0,0:0:0:0:
82,300,59272,5,6,1:0:0:0:
116,59,59423,1,8,0:0:0:0:
244,244,59574,1,0,1:0:0:0:
244,244,59650,1,0,0:0:0:0:
244,244,59725,1,10,0:0:0:0:
192,19,59876,1,6,1:0:0:0:
163,272,60028,1,8,0:0:0:0:
272,72,60179,1,0,1:0:0:0:
272,72,60254,1,0,0:0:0:0:
272,72,60330,1,8,0:0:0:0:
76,215,60481,6,0,B|66:247|66:247|81:299,1,88,0|8,1:0|0:0,0:0:0:0:
214,370,60708,1,0,0:0:0:0:
214,370,60783,2,0,L|229:317,1,44,2|0,1:0|0:0,0:0:0:0:
193,146,60934,2,0,L|177:198,1,44,14|0,0:0|0:0,0:0:0:0:
129,375,61086,1,0,1:0:0:0:
252,252,61237,1,8,0:0:0:0:
252,252,61312,1,0,0:0:0:0:
252,252,61388,2,0,L|327:242,1,44,0|0,1:0|0:0,0:0:0:0:
106,133,61539,2,0,L|31:123,1,44,8|0,0:0|0:0,0:0:0:0:
304,68,61690,5,4,1:0:0:0:
193,174,61841,1,8,0:0:0:0:
157,24,61992,1,0,1:0:0:0:
157,24,62068,1,0,0:0:0:0:
157,24,62143,1,8,0:0:0:0:
389,47,62295,1,0,1:0:0:0:
218,88,62446,1,8,0:0:0:0:
339,215,62597,1,0,1:0:0:0:
371,218,62672,1,0,0:0:0:0:
403,209,62748,1,8,0:0:0:0:
429,189,62824,1,0,0:0:0:0:
446,160,62899,5,0,1:0:0:0:
304,68,63050,1,8,0:0:0:0:
254,236,63201,1,0,1:0:0:0:
389,47,63352,1,8,0:0:0:0:
218,88,63503,2,0,P|237:127|272:152,1,88,0|8,1:0|0:0,0:0:0:0:
336,257,63730,1,0,0:0:0:0:
336,257,63806,2,0,P|341:236|338:214,1,44,0|0,1:0|0:0,0:0:0:0:
306,25,63957,2,0,P|301:46|304:68,1,44,8|0,0:0|0:0,0:0:0:0:
350,342,64108,6,0,P|389:321|414:286,1,88,4|8,1:0|0:0,0:0:0:0:
272,152,64410,1,0,1:0:0:0:
104,315,64561,2,0,P|140:339|183:343,1,88,10|0,0:0|1:0,0:0:0:0:
339,215,64864,1,8,0:0:0:0:
218,88,65015,1,0,1:0:0:0:
169,257,65166,5,8,0:0:0:0:
304,68,65317,1,0,0:0:0:0:
400,279,65468,5,2,1:0:0:0:
218,88,65620,1,0,0:0:0:0:
183,343,65771,5,10,0:0:0:0:
304,68,65922,1,12,0:0:0:0:
329,331,66073,5,0,0:0:0:0:
218,88,66224,1,0,1:0:0:0:
258,384,66375,1,10,0:0:0:0:
304,68,66526,5,4,1:0:0:0:
132,108,66677,1,8,0:0:0:0:
252,236,66829,1,0,1:0:0:0:
252,236,66904,1,0,0:0:0:0:
252,236,66979,1,8,0:0:0:0:
81,275,67131,1,0,1:0:0:0:
218,88,67282,1,8,0:0:0:0:
311,300,67433,1,0,1:0:0:0:
192,172,67584,1,8,0:0:0:0:
390,48,67735,6,0,L|357:154,1,88,4|8,1:0|0:0,0:0:0:0:
132,107,68038,2,0,L|240:82,1,88,8|10,0:0|3:0,0:0:0:0:
252,236,68264,1,0,0:0:0:0:
252,236,68340,2,0,L|315:250,1,44,10|8,0:0|0:0,0:0:0:0:
363,132,68491,2,0,L|299:146,1,44,8|2,0:0|0:0,0:0:0:0:
308,334,68642,2,0,L|371:348,1,44,8|0,0:0|0:0,0:0:0:0:
419,230,68793,2,0,L|355:244,1,44,10|0,0:0|0:0,0:0:0:0:
222,314,68944,6,0,L|322:336,1,88,4|0,1:0|0:0,0:0:0:0:
448,112,69247,2,0,L|348:134,1,88,8|0,0:0|0:0,0:0:0:0:
252,236,69473,1,8,0:0:0:0:
252,236,69549,6,0,L|294:245,1,44,8|0,0:0|0:0,0:0:0:0:
394,279,69700,1,0,1:0:0:0:
302,66,69851,1,0,1:0:0:0:
163,252,70002,1,8,0:0:0:0:
421,195,70154,1,8,0:0:0:0:
242,0,70305,1,0,1:0:0:0:
307,297,70456,5,8,0:0:0:0:
302,66,70607,1,0,1:0:0:0:
104,185,70758,1,8,0:0:0:0:
394,279,70909,1,0,1:0:0:0:
214,84,71060,2,0,L|184:188,1,88,8|0,0:0|0:0,0:0:0:0:
394,279,71363,6,0,P|344:216|242:234,1,176,6|8,1:0|0:0,0:0:0:0:
138,315,71816,2,0,P|217:303|252:205,1,176,2|0,1:0|1:0,0:0:0:0:
142,143,72269,2,0,L|166:228,1,88,10|0,0:0|0:0,0:0:0:0:
317,159,72572,6,0,L|492:175,1,176,2|8,1:0|0:0,0:0:0:0:
461,91,73025,1,2,1:0:0:0:
348,243,73176,2,0,L|466:254,1,88,2|0,0:0|1:0,0:0:0:0:
286,75,73478,2,0,L|167:86,1,88,8|2,0:0|0:0,0:0:0:0:
207,244,73781,6,0,B|237:189|237:189|198:82,1,176,2|8,1:0|0:0,0:0:0:0:
140,184,74234,1,2,1:0:0:0:
146,310,74385,2,0,P|183:331|227:331,1,88,2|0,0:0|1:0,0:0:0:0:
288,223,74688,2,0,P|244:222|206:244,1,88,10|0,0:0|0:0,0:0:0:0:
356,276,74990,6,0,P|372:202|280:133,1,176,2|8,1:0|0:0,0:0:0:0:
356,276,75443,2,0,L|479:287,1,88,2|0,1:0|1:0,0:0:0:0:
512,110,75745,2,0,L|424:117,1,88,2|8,1:0|0:0,0:0:0:0:
288,223,76048,1,10,0:0:0:0:
489,198,76199,6,0,L|438:-3,1,176,6|8,1:0|0:0,0:0:0:0:
293,60,76652,2,0,P|376:78|445:27,1,176,2|0,1:0|1:0,0:0:0:0:
216,15,77106,2,0,P|204:64|234:125,1,88,8|2,0:0|0:0,0:0:0:0:
187,273,77408,6,0,P|197:225|96:146,1,176,2|8,1:0|0:0,0:0:0:0:
109,233,77861,1,2,1:0:0:0:
281,193,78012,2,0,L|366:172,1,88,10|0,0:0|1:0,0:0:0:0:
199,124,78315,2,0,L|113:144,1,88,8|2,0:0|1:0,0:0:0:0:
245,365,78617,6,0,L|281:192,1,176,10|8,0:0|0:0,0:0:0:0:
177,299,79070,1,2,1:0:0:0:
347,257,79222,2,0,L|432:236,1,88,10|0,0:0|1:0,0:0:0:0:
213,127,79524,2,0,L|127:106,1,88,10|0,0:0|1:0,0:0:0:0:
422,70,79826,6,0,B|453:131|453:131|432:237,1,176,14|14,0:0|0:0,0:0:0:0:
370,142,80279,1,2,0:0:0:0:
474,0,80430,1,8,0:0:0:0:
282,132,80581,1,10,0:0:0:0:
282,132,80657,1,8,0:0:0:0:
282,132,80732,1,8,0:0:0:0:
432,237,80884,1,10,0:0:0:0:
334,60,81035,5,4,1:0:0:0:
230,204,81186,1,8,0:0:0:0:
430,78,81337,1,0,1:0:0:0:
430,78,81413,1,0,0:0:0:0:
430,78,81488,1,8,0:0:0:0:
193,122,81639,1,0,1:0:0:0:
347,297,81791,1,8,0:0:0:0:
334,60,81941,1,2,1:0:0:0:
315,48,82017,1,0,0:0:0:0:
294,42,82093,1,8,0:0:0:0:
272,42,82168,1,0,0:0:0:0:
251,47,82244,5,2,1:0:0:0:
141,196,82395,1,8,0:0:0:0:
347,297,82546,1,0,1:0:0:0:
193,122,82697,1,10,0:0:0:0:
118,342,82848,2,0,P|157:361|235:343,1,88,2|8,1:0|0:0,0:0:0:0:
219,272,83075,1,2,0:0:0:0:
219,272,83151,2,0,P|197:270|176:274,1,44,0|0,1:0|1:0,0:0:0:0:
334,379,83302,2,0,P|355:381|377:377,1,44,10|8,0:0|0:0,0:0:0:0:
301,185,83453,6,0,L|290:267,1,44,6|0,1:0|0:0,0:0:0:0:
347,297,83604,1,8,0:0:0:0:
376,295,83680,1,8,0:0:0:0:
403,284,83755,1,8,0:0:0:0:
425,265,83831,1,8,0:0:0:0:
440,240,83906,1,10,0:0:0:0:
447,212,83982,1,8,0:0:0:0:
444,183,84057,6,0,L|438:139,1,44,4|0,1:0|1:0,0:0:0:0:
386,30,84208,2,0,L|380:73,1,44,0|0,1:0|1:0,0:0:0:0:
347,297,84360,2,0,L|420:288,1,44,2|0,1:0|1:0,0:0:0:0:
295,87,84511,2,0,L|222:96,1,44,2|0,1:0|1:0,0:0:0:0:
233,359,84662,6,0,L|306:350,1,44,12|0,0:0|0:0,0:0:0:0:
181,149,84813,1,10,0:0:0:0:
138,157,84889,1,8,0:0:0:0:
108,188,84964,1,8,0:0:0:0:
100,231,85040,1,8,0:0:0:0:
117,270,85115,1,10,0:0:0:0:
154,293,85191,1,8,0:0:0:0:
197,291,85266,1,4,1:0:0:0:
232,265,85342,1,0,1:0:0:0:
266,237,85418,1,2,1:0:0:0:
307,223,85493,1,0,1:0:0:0:
351,225,85569,1,10,0:0:0:0:
391,242,85644,1,8,0:0:0:0:
422,273,85720,1,10,0:0:0:0:
440,313,85795,1,8,0:0:0:0:
442,357,85871,5,4,1:0:0:0:
376,108,86022,1,8,0:0:0:0:
326,342,86173,5,0,1:0:0:0:
136,108,86324,1,8,0:0:0:0:
186,342,86476,5,0,1:0:0:0:
256,60,86627,1,8,0:0:0:0:
41,183,86778,5,2,1:0:0:0:
48,226,86853,1,0,0:0:0:0:
55,270,86929,1,10,0:0:0:0:
62,313,87004,1,0,0:0:0:0:
70,357,87080,6,0,L|186:365,1,88,0|0,1:0|0:0,0:0:0:0:
300,148,87383,2,0,B|256:128|256:128|212:148,1,96.8000029541017,10|0,0:0|0:0,0:0:0:0:
354,363,87685,2,0,L|442:357,1,88,2|0,1:0|0:0,0:0:0:0:
256,220,87987,2,0,L|256:288,1,66.0000025177003,10|0,0:0|0:0,0:0:0:0:
256,48,88289,5,14,0:0:0:0:
