osu file format v14

[General]
AudioFilename: audio.mp3
AudioLeadIn: 0
PreviewTime: 51035
Countdown: 0
SampleSet: Soft
StackLeniency: 0.5
Mode: 0
LetterboxInBreaks: 0
WidescreenStoryboard: 1

[Editor]
DistanceSpacing: 1.3
BeatDivisor: 4
GridSize: 4
TimelineZoom: 2.4

[Metadata]
Title:distance (NARUTO Ver.)
TitleUnicode:distance (NARUTO Ver.)
Artist:LONG SHOT PARTY
ArtistUnicode:LONG SHOT PARTY
Creator:Monstrata
Version:Akitoshi's Hard
Source:NARUTO -ナルト- 疾風伝
Tags:iyiyo gero akitoshi corinn natsu snownino_ naruto uzumaki sasuke uchiha sakura haruno kakashi hatake shippuuden shipuuden shippuden shipuden opening two 2 tv size anime
BeatmapID:1342593
BeatmapSetID:632130

[Difficulty]
HPDrainRate:5
CircleSize:3.7
OverallDifficulty:6
ApproachRate:8
SliderMultiplier:1.38
SliderTickRate:1

[Events]
//Background and Video events
0,0,"789346.png",0,0
//Break Periods
//Storyboard Layer 0 (Background)
//Storyboard Layer 1 (Fail)
//Storyboard Layer 2 (Pass)
//Storyboard Layer 3 (Foreground)
//Storyboard Sound Samples

[TimingPoints]
1252,302.267002518892,4,2,0,80,1,0
1252,-90.9090909090909,4,2,0,80,0,1
18178,-100,4,2,0,60,0,0
20597,-125,4,2,0,50,0,0
30269,-100,4,2,0,60,0,0
35105,-100,4,2,0,70,0,0
38718,302.267002518892,4,2,0,70,1,0
47181,-111.111111111111,4,2,0,70,0,0
49599,-100,4,2,0,70,0,0
52017,-90.9090909090909,4,2,0,80,0,1
71362,-100,4,2,0,80,0,0
81035,-90.9090909090909,4,2,0,80,0,1
88289,-100,4,2,0,80,0,0

[Colours]
Combo1 : 152,194,158
Combo2 : 255,170,255
Combo3 : 255,175,96
Combo4 : 170,170,213

[HitObjects]
59,309,1252,6,0,B|87:238|19:229|66:145,1,151.800004632568,6|2,0:0|0:0,0:0:0:0:
96,71,1705,1,0,1:0:0:0:
96,71,1856,2,0,L|-1:62,1,75.9000023162842,2|0,0:0|1:0,0:0:0:0:
154,149,2158,2,0,L|251:140,1,75.9000023162842,2|0,0:0|1:0,0:0:0:0:
313,88,2461,6,0,P|362:68|463:112,1,151.800004632568,2|2,0:0|0:0,0:0:0:0:
491,194,2914,1,0,1:0:0:0:
491,194,3065,2,0,L|479:329,2,113.850003474426,2|0|0,0:0|0:0|1:0,0:0:0:0:
399,232,3670,6,0,B|345:251|345:251|220:235,1,151.800004632568,2|2,0:0|0:0,0:0:0:0:
157,268,4123,1,0,1:0:0:0:
65,303,4274,2,0,P|53:269|36:204,1,75.9000023162842,2|0,0:0|1:0,0:0:0:0:
108,157,4576,2,0,P|119:123|137:58,1,75.9000023162842,2|0,0:0|1:0,0:0:0:0:
209,24,4879,6,0,P|220:57|238:123,1,75.9000023162842,2|0,0:0|1:0,0:0:0:0:
313,151,5181,1,2,0:0:0:0:
400,106,5332,2,0,P|433:94|499:77,1,75.9000023162842,0|2,1:0|0:0,0:0:0:0:
377,196,5634,2,0,P|343:184|278:167,1,75.9000023162842,0|2,1:0|0:0,0:0:0:0:
211,206,5937,1,0,1:0:0:0:
240,315,6088,6,0,P|293:341|389:314,1,151.800004632568,6|2,0:0|0:0,0:0:0:0:
452,253,6541,1,0,1:0:0:0:
452,253,6692,2,0,P|454:211|460:173,1,75.9000023162842,2|0,0:0|1:0,0:0:0:0:
493,84,6995,1,2,0:0:0:0:
405,38,7146,6,0,P|348:26|253:60,1,151.800004632568,0|0,1:0|1:0,0:0:0:0:
191,124,7599,2,0,P|151:122|106:118,1,75.9000023162842,2|0,0:0|1:0,0:0:0:0:
30,169,7901,2,0,P|14:227|42:294,2,113.850003474426,2|0|0,0:0|0:0|1:0,0:0:0:0:
112,224,8506,6,0,B|170:243|170:243|289:223,1,151.800004632568,2|2,0:0|0:0,0:0:0:0:
356,208,8959,1,0,1:0:0:0:
299,126,9110,2,0,P|259:118|212:129,1,75.9000023162842,2|0,0:0|1:0,0:0:0:0:
150,57,9413,2,0,P|110:65|63:54,1,75.9000023162842,2|0,0:0|1:0,0:0:0:0:
17,138,9715,6,0,L|27:232,1,75.9000023162842,6|0,0:0|1:0,0:0:0:0:
45,309,10017,1,2,0:0:0:0:
137,273,10168,2,0,P|177:288|213:290,1,75.9000023162842,0|2,1:0|0:0,0:0:0:0:
293,236,10471,2,0,P|333:221|369:219,1,75.9000023162842,0|2,1:0|0:0,0:0:0:0:
449,270,10773,1,0,0:0:0:0:
489,163,10924,6,0,P|453:79|390:45,1,151.800004632568,6|2,0:0|0:0,0:0:0:0:
308,73,11377,1,0,1:0:0:0:
308,73,11529,2,0,P|264:68|225:62,1,75.9000023162842,2|0,0:0|1:0,0:0:0:0:
172,141,11831,2,0,P|215:145|255:152,1,75.9000023162842,2|0,0:0|1:0,0:0:0:0:
273,245,12133,6,0,P|262:312|170:367,1,151.800004632568,2|2,0:0|0:0,0:0:0:0:
101,346,12587,1,0,1:0:0:0:
23,284,12738,2,0,L|27:152,2,113.850003474426,2|0|0,0:0|0:0|1:0,0:0:0:0:
134,264,13342,6,0,P|140:228|134:186,1,75.9000023162842,6|0,0:0|1:0,0:0:0:0:
98,97,13644,2,0,L|85:13,2,75.9000023162842,2|0|2,0:0|1:0|0:0,0:0:0:0:
195,113,14098,1,0,1:0:0:0:
273,53,14249,2,0,P|329:66|368:65,1,75.9000023162842,2|0,0:0|1:0,0:0:0:0:
453,27,14551,5,6,0:0:0:0:
496,132,14702,2,0,L|483:222,1,75.9000023162842,0|2,1:0|0:0,0:0:0:0:
379,162,15005,2,0,L|392:252,1,75.9000023162842,0|2,1:0|0:0,0:0:0:0:
283,196,15307,2,0,L|270:286,1,75.9000023162842,0|2,1:0|0:0,0:0:0:0:
192,329,15609,1,0,1:0:0:0:
97,266,15760,6,0,P|79:222|109:117,1,151.800004632568,6|2,0:0|0:0,0:0:0:0:
183,66,16214,1,0,1:0:0:0:
183,66,16365,2,0,L|273:72,1,75.9000023162842,2|0,0:0|1:0,0:0:0:0:
310,155,16667,2,0,L|220:161,1,75.9000023162842,2|0,0:0|1:0,0:0:0:0:
172,255,16969,6,0,P|209:309|309:319,1,151.800004632568,6|2,0:0|0:0,0:0:0:0:
386,299,17423,1,0,0:0:0:0:
420,206,17574,2,0,L|406:124,1,75.9000023162842,8|8,3:0|3:0,0:0:0:0:
322,80,17876,2,0,L|308:162,1,75.9000023162842,8|8,3:0|3:0,0:0:0:0:
202,106,18178,5,4,1:2:0:0:
256,192,18254,12,8,19690,3:0:0:0:
295,190,19992,6,0,L|365:176,2,69,8|8|8,3:0|3:0|3:0,0:0:0:0:
130,211,20597,6,0,P|109:162|121:98,1,110.4,6|0,0:0|0:0,0:0:0:0:
170,44,21050,2,0,P|219:65|283:53,1,110.4,2|0,0:0|0:0,0:0:0:0:
349,23,21503,1,2,0:0:0:0:
485,117,21806,6,0,L|466:289,1,165.6,2|0,0:0|0:0,0:0:0:0:
407,339,22410,2,0,P|369:348|349:348,1,55.2,2|0,0:0|0:0,0:0:0:0:
285,300,22712,2,0,P|247:291|227:291,1,55.2
164,340,23015,6,0,P|180:306|161:220,1,110.4,2|0,0:0|0:0,0:0:0:0:
99,194,23468,2,0,P|83:160|102:74,1,110.4,2|0,0:0|0:0,0:0:0:0:
151,31,23922,1,2,0:0:0:0:
285,127,24224,6,0,P|338:168|442:162,1,165.6,2|0,0:0|0:0,0:0:0:0:
491,107,24828,2,0,L|485:48,2,55.2,2|0|0,0:0|0:0|0:0,0:0:0:0:
502,272,25433,6,0,P|448:281|396:310,1,110.4,2|0,0:0|0:0,0:0:0:0:
332,355,25886,2,0,P|283:328|229:319,1,110.4,2|0,0:0|0:0,0:0:0:0:
147,332,26340,1,2,0:0:0:0:
27,217,26642,6,0,B|51:170|51:170|40:116|40:116|73:53,1,165.6,2|0,0:0|0:0,0:0:0:0:
138,23,27246,2,0,P|174:40|201:43,1,55.2,2|0,0:0|0:0,0:0:0:0:
259,86,27549,2,0,P|295:69|322:66,1,55.2
387,95,27851,6,0,L|382:209,1,110.4,2|0,0:0|0:0,0:0:0:0:
254,311,28456,2,0,L|249:197,1,110.4,0|0,3:3|0:0,0:0:0:0:
155,64,29060,6,0,P|107:52|38:81,1,110.4,2|0,0:0|0:0,0:0:0:0:
3,138,29513,1,2,0:0:0:0:
60,198,29665,2,0,L|67:322,1,110.4,0|0,3:0|0:0,0:0:0:0:
145,358,30118,1,8,3:0:0:0:
145,358,30194,1,0,3:0:0:0:
145,358,30269,6,0,P|180:364|240:356,1,69,6|0,0:0|0:0,0:0:0:0:
292,320,30571,2,0,L|433:341,2,138,0|2|0,3:0|0:0|3:0,0:0:0:0:
232,252,31327,1,0,0:0:0:0:
297,190,31478,6,0,P|305:145|268:58,1,138,0|0,3:0|3:0,0:0:0:0:
190,35,31932,1,0,0:0:0:0:
190,35,32083,2,0,L|186:106,1,69
106,144,32385,2,0,L|110:215,1,69,0|0,3:0|0:0,0:0:0:0:
128,300,32687,6,0,P|184:308|211:301,1,69,2|0,0:0|0:0,0:0:0:0:
276,265,32990,2,0,L|434:287,2,138,0|2|0,3:0|0:0|3:0,0:0:0:0:
220,194,33745,1,0,0:0:0:0:
155,131,33896,6,0,P|78:115|7:149,1,138,0|0,3:0|0:0,0:0:0:0:
7,223,34350,1,0,0:0:0:0:
49,308,34501,1,0,3:0:0:0:
49,308,34652,2,0,L|138:294,2,69,0|0|0,0:0|3:0|0:0,0:0:0:0:
193,354,35105,6,0,P|209:281|176:224,1,138,6|0,0:0|1:0,0:0:0:0:
110,171,35559,2,0,P|183:187|240:154,1,138,2|0,0:0|0:0,0:0:0:0:
291,87,36012,2,0,L|379:92,1,69,0|0,1:0|0:0,0:0:0:0:
444,149,36314,6,0,B|420:214|420:214|444:287,1,138,6|0,0:0|1:0,0:0:0:0:
496,350,36768,2,0,P|444:316|344:329,1,138,2|0,0:0|0:0,0:0:0:0:
288,354,37221,2,0,L|220:345,1,69,0|0,1:0|0:0,0:0:0:0:
118,322,37524,6,0,B|95:258|147:250|111:175,1,138,6|0,0:0|1:0,0:0:0:0:
51,125,37977,2,0,P|107:147|199:126,1,138,2|0,0:0|0:0,0:0:0:0:
258,87,38430,2,0,L|247:1,1,69,0|0,1:0|0:0,0:0:0:0:
358,114,38718,6,0,L|347:200,1,69,0|0,1:0|0:0,0:0:0:0:
463,94,39020,2,0,L|452:180,1,69,0|0,1:0|0:0,0:0:0:0:
445,265,39322,1,0,1:0:0:0:
356,212,39473,1,0,1:0:0:0:
179,314,39776,6,0,L|35:291,1,138,6|0,0:0|0:0,0:0:0:0:
10,208,40229,2,0,P|4:170|14:125,1,69,0|0,1:0|0:0,0:0:0:0:
75,80,40531,2,0,P|113:74|158:84,1,69,2|0,0:0|0:0,0:0:0:0:
213,134,40833,1,0,1:0:0:0:
307,90,40985,6,0,L|298:18,1,69,6|0,0:0|0:0,0:0:0:0:
384,45,41287,1,0,0:0:0:0:
465,7,41438,2,0,L|474:79,1,69,0|0,1:0|0:0,0:0:0:0:
490,168,41740,1,2,0:0:0:0:
490,168,41891,1,0,0:0:0:0:
423,229,42043,2,0,P|387:236|346:230,1,69,0|0,1:0|0:0,0:0:0:0:
279,162,42345,6,0,P|302:207|287:299,1,138,6|0,0:0|1:0,0:0:0:0:
213,335,42798,1,0,0:0:0:0:
116,297,42949,2,0,L|34:307,2,69,6|0|0,0:0|0:0|1:0,0:0:0:0:
178,213,43403,6,0,B|184:159|184:159|175:129|175:129|184:57,1,138,6|0,0:0|0:0,0:0:0:0:
93,58,43856,2,0,L|80:147,1,69,0|0,1:0|0:0,0:0:0:0:
8,175,44158,2,0,L|21:264,1,69,2|0,0:0|0:0,0:0:0:0:
39,330,44461,2,0,P|72:334|112:326,1,69,0|0,1:0|0:0,0:0:0:0:
195,274,44763,6,0,B|281:268|281:268|337:296,1,138,6|0,0:0|1:0,0:0:0:0:
487,211,45367,2,0,P|493:174|490:135,1,69,2|0,0:0|0:0,0:0:0:0:
487,53,45670,1,0,1:0:0:0:
394,98,45821,6,0,P|348:78|251:90,1,138,6|0,0:0|0:0,0:0:0:0:
185,131,46274,2,0,L|98:123,1,69,0|0,1:0|0:0,0:0:0:0:
38,170,46577,1,2,0:0:0:0:
94,253,46728,1,8,3:0:0:0:
94,253,46803,1,0,3:0:0:0:
94,253,46879,2,0,L|181:261,1,69,8|0,3:0|0:0,0:0:0:0:
250,227,47181,6,0,P|286:207|409:267,1,186.299994314575,6|0,0:0|0:0,0:0:0:0:
435,337,47786,2,0,L|440:144,1,186.299994314575,4|0,1:2|0:0,0:0:0:0:
444,57,48390,6,0,B|348:33|354:97|244:68,1,186.299994314575,6|0,0:0|0:0,0:0:0:0:
197,22,48995,2,0,P|222:55|187:187,1,186.299994314575,4|0,1:2|0:0,0:0:0:0:
91,214,49599,6,0,L|3:204,1,69,0|0,1:0|0:0,0:0:0:0:
171,281,49901,2,0,L|259:271,1,69,0|0,1:0|3:0,0:0:0:0:
342,256,50204,1,0,1:0:0:0:
419,187,50355,2,0,P|423:151|411:107,1,69,0|0,1:0|0:0,0:0:0:0:
347,42,50657,5,0,1:0:0:0:
185,170,50959,1,0,3:0:0:0:
268,204,51111,1,0,3:0:0:0:
268,204,52017,6,0,B|218:195|218:195|167:203|167:203|101:192,1,151.800004632568,6|2,0:0|0:0,0:0:0:0:
24,180,52471,1,0,1:0:0:0:
24,180,52622,2,0,P|22:139|42:87,1,75.9000023162842,2|0,0:0|1:0,0:0:0:0:
109,45,52924,2,0,P|150:43|202:63,1,75.9000023162842,2|0,0:0|1:0,0:0:0:0:
260,113,53226,6,0,B|311:124|311:124|419:107,1,151.800004632568,2|2,0:0|0:0,0:0:0:0:
495,158,53680,1,0,1:0:0:0:
438,238,53831,2,0,P|417:293|449:362,2,113.850003474426,2|0|0,0:0|0:0|1:0,0:0:0:0:
495,158,54435,6,0,P|507:102|436:12,1,151.800004632568,2|2,0:0|0:0,0:0:0:0:
361,18,54889,1,0,1:0:0:0:
290,86,55040,2,0,P|251:82|203:74,1,75.9000023162842,2|0,0:0|1:0,0:0:0:0:
145,145,55342,2,0,P|106:149|58:157,1,75.9000023162842,2|0,0:0|1:0,0:0:0:0:
15,237,55645,6,0,P|13:274|25:313,1,75.9000023162842,2|0,0:0|1:0,0:0:0:0:
105,366,55947,1,2,0:0:0:0:
177,299,56098,2,0,P|220:290|257:285,1,75.9000023162842,0|2,1:0|0:0,0:0:0:0:
368,215,56400,2,0,P|325:206|288:201,1,75.9000023162842,0|2,1:0|0:0,0:0:0:0:
195,189,56702,1,0,1:0:0:0:
254,91,56854,6,0,P|322:76|412:76,1,151.800004632568,6|2,0:0|0:0,0:0:0:0:
493,129,57307,1,0,1:0:0:0:
493,129,57458,2,0,L|486:224,1,75.9000023162842,2|0,0:0|1:0,0:0:0:0:
446,294,57760,1,2,0:0:0:0:
347,292,57912,6,0,P|280:274|191:317,1,151.800004632568,0|0,1:0|1:0,0:0:0:0:
128,364,58365,2,0,L|51:355,1,75.9000023162842,2|0,0:0|1:0,0:0:0:0:
16,263,58667,2,0,P|12:209|56:145,2,113.850003474426,2|0|0,0:0|0:0|1:0,0:0:0:0:
108,228,59272,6,0,B|198:204|173:255|269:232,1,151.800004632568,2|2,0:0|0:0,0:0:0:0:
340,180,59725,1,0,1:0:0:0:
296,91,59876,2,0,L|208:81,1,75.9000023162842,2|0,0:0|1:0,0:0:0:0:
141,22,60179,2,0,L|53:32,1,75.9000023162842,2|0,0:0|1:0,0:0:0:0:
8,111,60481,6,0,P|4:152|17:194,1,75.9000023162842,2|0,0:0|1:0,0:0:0:0:
78,258,60783,1,2,0:0:0:0:
170,223,60934,2,0,P|209:216|246:212,1,75.9000023162842,0|2,1:0|0:0,0:0:0:0:
291,299,61237,2,0,P|330:306|367:310,1,75.9000023162842,0|2,1:0|0:0,0:0:0:0:
438,243,61539,1,0,1:0:0:0:
409,132,61690,6,0,B|366:125|366:125|304:132|304:132|248:119,1,151.800004632568,6|2,0:0|0:0,0:0:0:0:
168,99,62143,1,0,1:0:0:0:
168,99,62294,2,0,P|160:145|153:175,1,75.9000023162842,2|0,0:0|1:0,0:0:0:0:
65,218,62597,2,0,P|73:264|80:294,1,75.9000023162842,2|0,0:0|1:0,0:0:0:0:
154,356,62899,6,0,P|227:343|312:338,1,151.800004632568,2|2,0:0|0:0,0:0:0:0:
402,344,63352,1,0,1:0:0:0:
470,272,63504,2,0,L|482:140,2,113.850003474426,2|0|0,0:0|0:0|1:0,0:0:0:0:
356,266,64108,6,0,L|373:84,1,151.800004632568,6|2,0:0|0:0,0:0:0:0:
291,56,64561,1,0,1:0:0:0:
210,113,64712,2,0,L|127:104,1,75.9000023162842,2|0,0:0|1:0,0:0:0:0:
36,118,65015,1,2,0:0:0:0:
1,210,65166,1,0,0:0:0:0:
56,298,65317,5,6,0:0:0:0:
56,298,65468,2,0,L|144:306,1,75.9000023162842,0|2,1:0|0:0,0:0:0:0:
90,197,65771,2,0,L|178:205,1,75.9000023162842,0|2,1:0|0:0,0:0:0:0:
125,97,66073,2,0,L|213:105,1,75.9000023162842,0|2,1:0|0:0,0:0:0:0:
278,163,66375,1,0,1:0:0:0:
338,66,66526,6,0,P|393:50|484:98,1,151.800004632568,6|2,0:0|0:0,0:0:0:0:
508,187,66980,1,0,1:0:0:0:
508,187,67131,2,0,L|500:275,1,75.9000023162842,2|0,0:0|1:0,0:0:0:0:
413,307,67433,2,0,L|405:219,1,75.9000023162842,2|0,0:0|1:0,0:0:0:0:
311,168,67735,6,0,B|231:150|248:196|161:177,1,151.800004632568,6|2,0:0|0:0,0:0:0:0:
72,136,68189,1,0,1:0:0:0:
128,54,68340,2,0,L|218:46,1,75.9000023162842,2|0,0:0|1:0,0:0:0:0:
294,10,68642,2,0,L|383:18,1,75.9000023162842,0|0,3:0|0:0,0:0:0:0:
452,95,68944,6,0,P|483:157|448:244,1,151.800004632568,6|2,0:0|0:0,0:0:0:0:
372,280,69398,1,0,0:0:0:0:
286,231,69549,2,0,L|296:143,2,75.9000023162842,0|8|8,1:0|3:0|3:0,0:0:0:0:
195,270,70002,1,0,0:0:0:0:
100,240,70153,6,0,P|81:206|78:162,1,75.9000023162842,2|0,0:0|0:0,0:0:0:0:
103,74,70456,2,0,B|137:55|137:55|181:52,1,75.9000023162842,0|0,1:0|0:0,0:0:0:0:
267,82,70758,2,0,B|286:116|286:116|289:160,1,75.9000023162842,0|0,1:0|0:0,0:0:0:0:
266,249,71060,2,0,B|232:268|232:268|188:271,1,75.9000023162842,0|0,1:0|0:0,0:0:0:0:
100,240,71362,6,0,P|103:308|167:366,1,138,6|0,0:0|1:0,0:0:0:0:
237,372,71816,2,0,L|391:353,1,138,2|0,0:0|0:0,0:0:0:0:
447,304,72269,2,0,P|451:263|438:221,1,69,0|0,1:0|0:0,0:0:0:0:
366,191,72572,6,0,B|346:131|399:120|363:45,1,138,2|0,0:0|1:0,0:0:0:0:
281,33,73025,2,0,P|244:54|152:40,1,138,2|0,0:0|0:0,0:0:0:0:
69,8,73478,2,0,L|60:94,1,69,0|0,1:0|0:0,0:0:0:0:
4,146,73781,6,0,L|19:294,1,138,2|0,0:0|1:0,0:0:0:0:
32,371,74234,2,0,P|105:370|172:324,1,138,2|0,0:0|0:0,0:0:0:0:
209,263,74687,1,0,1:0:0:0:
209,263,74839,1,0,0:0:0:0:
280,316,74990,6,0,P|347:305|424:295,1,138,2|0,0:0|1:0,0:0:0:0:
467,206,75443,2,0,P|433:200|395:195,1,69,2|0,0:0|0:0,0:0:0:0:
347,106,75745,2,0,P|380:100|419:95,1,69,2|0,0:0|1:0,0:0:0:0:
504,110,76048,1,0,0:0:0:0:
467,206,76199,6,0,P|438:281|456:358,1,138,6|0,0:0|1:0,0:0:0:0:
369,383,76652,2,0,P|318:320|242:297,1,138,2|0,0:0|0:0,0:0:0:0:
182,332,77106,2,0,L|88:319,1,69,0|0,1:0|0:0,0:0:0:0:
38,273,77408,6,0,P|28:221|70:135,1,138,2|0,0:0|1:0,0:0:0:0:
145,112,77861,1,0,0:0:0:0:
145,112,78012,2,0,L|135:5,2,103.5,2|0|0,0:0|0:0|0:0,0:0:0:0:
207,177,78617,6,0,P|269:196|356:163,1,138,2|0,0:0|1:0,0:0:0:0:
414,131,79070,1,0,0:0:0:0:
414,131,79221,2,0,P|423:168|428:214,1,69,2|0,0:0|0:0,0:0:0:0:
503,246,79524,2,0,P|494:283|489:329,1,69,0|0,1:0|0:0,0:0:0:0:
414,361,79826,6,0,P|376:359|335:340,1,69,2|0,0:0|0:0,0:0:0:0:
281,295,80128,1,0,1:0:0:0:
281,295,80279,1,0,0:0:0:0:
203,339,80430,2,0,L|147:332,3,34.5,0|0|0|0,3:0|3:0|3:0|3:0,3:0:0:0:
149,305,80733,2,0,L|57:316,1,69,0|0,3:0|1:0,0:0:0:0:
20,216,81035,6,0,P|25:138|98:74,1,151.800004632568,6|2,0:0|0:0,0:0:0:0:
168,127,81488,1,0,1:0:0:0:
168,127,81640,2,0,L|269:141,1,75.9000023162842,2|0,0:0|1:0,0:0:0:0:
299,218,81942,2,0,L|198:232,1,75.9000023162842,2|0,0:0|1:0,0:0:0:0:
189,320,82244,6,0,P|243:351|344:334,1,151.800004632568,2|2,0:0|0:0,0:0:0:0:
391,266,82697,1,0,1:0:0:0:
403,167,82849,2,0,P|456:148|512:156,2,113.850003474426,2|0|0,0:0|0:0|1:0,0:0:0:0:
296,206,83453,6,0,L|127:190,1,151.800004632568,6|2,0:0|0:0,0:0:0:0:
46,182,83907,1,0,1:0:0:0:
113,90,84058,2,0,P|111:54|101:2,1,75.9000023162842,6|0,0:0|1:0,0:0:0:0:
215,40,84360,2,0,P|213:75|203:128,1,75.9000023162842,2|0,0:0|1:0,0:0:0:0:
186,227,84662,6,0,P|247:264|329:264,1,151.800004632568,6|2,0:0|0:0,0:0:0:0:
405,207,85116,1,0,1:0:0:0:
337,116,85267,2,0,L|329:40,1,75.9000023162842,6|0,0:0|1:0,0:0:0:0:
215,40,85569,2,0,L|207:118,1,75.9000023162842,2|0,0:0|1:0,0:0:0:0:
186,227,85871,6,0,B|110:243|111:201|30:221,1,151.800004632568,6|2,0:0|0:0,0:0:0:0:
1,312,86325,1,0,1:0:0:0:
78,373,86476,2,0,L|170:360,1,75.9000023162842,2|0,0:0|1:0,0:0:0:0:
235,307,86778,2,0,L|327:320,1,75.9000023162842,2|0,0:0|1:0,0:0:0:0:
422,334,87080,6,0,B|437:278|437:278|426:241|426:241|439:175,1,151.800004632568,6|2,0:0|0:0,0:0:0:0:
457,89,87534,1,0,1:0:0:0:
362,117,87685,1,8,3:0:0:0:
267,88,87836,1,8,3:0:0:0:
190,26,87987,2,0,P|152:23|102:35,1,75.9000023162842,8|8,3:0|3:0,0:0:0:0:
28,113,88289,5,4,1:2:0:0:
