osu file format v14

[General]
AudioFilename: audio.mp3
AudioLeadIn: 0
PreviewTime: 51035
Countdown: 0
SampleSet: None
StackLeniency: 0.5
Mode: 0
LetterboxInBreaks: 0
WidescreenStoryboard: 1

[Editor]
DistanceSpacing: 1
BeatDivisor: 4
GridSize: 4
TimelineZoom: 3.399999

[Metadata]
Title:distance (NARUTO Ver.)
TitleUnicode:distance (NARUTO Ver.)
Artist:LONG SHOT PARTY
ArtistUnicode:LONG SHOT PARTY
Creator:Monstrata
Version:Insane
Source:NARUTO -ナルト- 疾風伝
Tags:iyiyo gero akitoshi corinn natsu snownino_ naruto uzumaki sasuke uchiha sakura haruno kakashi hatake shippuuden shipuuden shippuden shipuden opening two 2 tv size anime
BeatmapID:1431005
BeatmapSetID:632130

[Difficulty]
HPDrainRate:6
CircleSize:4
OverallDifficulty:8
ApproachRate:9.2
SliderMultiplier:1.7
SliderTickRate:1

[Events]
//Background and Video events
0,0,"789346.png",0,0
//Break Periods
//Storyboard Layer 0 (Background)
//Storyboard Layer 1 (Fail)
//Storyboard Layer 2 (Pass)
//Storyboard Layer 3 (Foreground)
//Storyboard Sound Samples

[TimingPoints]
1252,302.267002518892,4,3,2,70,1,0
1252,-100,4,3,2,70,0,1
18178,-133.333333333333,4,3,22,70,0,0
19690,-133.333333333333,4,3,0,70,0,0
20597,-133.333333333333,4,2,0,70,0,0
30269,-100,4,3,22,70,0,0
38718,302.267002518892,4,3,22,70,1,0
50657,-100,4,3,22,70,0,0
51262,-133.333333333333,4,3,22,70,0,0
52017,-100,4,3,2,70,0,1
71362,-100,4,3,2,70,0,0
81035,-100,4,3,2,70,0,1
88289,-133.333333333333,4,3,2,70,0,0

[Colours]
Combo1 : 152,194,158
Combo2 : 255,170,255
Combo3 : 255,175,96
Combo4 : 170,170,213

[HitObjects]
127,252,1252,6,0,L|223:242,1,85,6|0,1:3|0:0,0:0:0:0:
295,234,1554,1,0,1:0:0:0:
245,165,1705,1,8,0:0:0:0:
284,88,1856,2,0,P|315:115|329:155,1,85,0|0,1:0|0:0,0:0:0:0:
159,169,2158,2,0,P|167:127|194:95,1,85,2|0,1:0|0:0,0:0:0:0:
295,234,2461,6,0,P|352:239|399:203,1,85,6|8,1:0|0:0,0:0:0:0:
245,165,2763,1,0,1:0:0:0:
211,243,2914,1,8,0:0:0:0:
303,318,3065,2,0,L|294:233,1,85,2|0,1:0|0:0,0:0:0:0:
218,326,3292,1,0,0:0:0:0:
218,326,3367,2,0,L|133:334,1,85,0|10,1:0|0:0,0:0:0:0:
117,188,3670,6,0,P|150:214|166:278,1,85,6|0,1:0|0:0,0:0:0:0:
49,344,3972,1,0,1:0:0:0:
83,266,4123,1,10,0:0:0:0:
218,326,4274,2,0,L|302:334,1,85,2|0,1:0|0:0,0:0:0:0:
353,250,4576,1,0,1:0:0:0:
268,258,4727,1,8,0:0:0:0:
387,326,4879,6,0,P|430:282|431:228,1,85,4|8,1:0|0:0,0:0:0:0:
424,176,5181,1,2,1:0:0:0:
257,173,5332,2,0,L|271:281,1,85,10|0,0:0|1:0,0:0:0:0:
424,175,5634,2,0,L|413:90,1,85,10|0,0:0|1:0,0:0:0:0:
247,89,5937,1,10,0:0:0:0:
353,250,6088,6,0,L|342:165,1,85,6|0,1:0|0:0,0:0:0:0:
331,80,6390,1,0,1:0:0:0:
247,89,6541,1,8,0:0:0:0:
172,183,6692,2,0,L|256:172,1,85,0|0,1:0|0:0,0:0:0:0:
120,115,6995,1,2,1:0:0:0:
88,194,7146,1,10,0:0:0:0:
67,47,7297,6,0,P|119:29|162:40,1,85,4|8,1:0|0:0,0:0:0:0:
172,183,7599,1,0,1:0:0:0:
120,115,7750,1,10,0:0:0:0:
286,91,7901,2,0,P|319:116|337:154,1,85,2|10,1:0|0:0,0:0:0:0:
307,234,8128,1,0,0:0:0:0:
307,234,8204,2,0,P|273:208|255:170,1,85,0|0,1:0|0:0,0:0:0:0:
390,220,8506,6,0,L|497:202,1,85,6|0,1:0|0:0,0:0:0:0:
369,76,8808,1,0,1:0:0:0:
338,155,8959,1,10,0:0:0:0:
506,131,9110,2,0,P|487:87|435:57,1,85,6|8,1:0|0:0,0:0:0:0:
285,88,9413,1,0,1:0:0:0:
338,155,9564,1,8,0:0:0:0:
316,9,9715,6,0,P|261:7|216:37,1,85,4|8,1:0|0:0,0:0:0:0:
253,167,10017,1,2,1:0:0:0:
369,76,10168,2,0,P|424:74|469:104,1,85,14|0,0:0|1:0,0:0:0:0:
284,246,10471,2,0,P|229:248|184:218,1,85,10|0,0:0|0:0,0:0:0:0:
285,88,10773,1,2,0:0:0:0:
363,276,10924,6,0,P|378:315|373:357,1,85,4|8,1:0|0:0,0:0:0:0:
133,285,11226,2,0,P|118:245|123:204,1,85,0|8,1:0|0:0,0:0:0:0:
285,88,11529,1,0,1:0:0:0:
338,155,11680,1,8,0:0:0:0:
222,247,11831,1,2,1:0:0:0:
253,167,11982,1,8,0:0:0:0:
391,222,12133,6,0,L|495:206,1,85,6|0,1:0|0:0,0:0:0:0:
285,88,12435,1,0,1:0:0:0:
200,100,12586,1,10,0:0:0:0:
338,155,12738,2,0,P|364:121|364:60,1,85,2|0,1:0|0:0,0:0:0:0:
316,8,12964,1,0,0:0:0:0:
316,8,13040,2,0,P|273:2|220:32,1,85,0|0,1:0|0:0,0:0:0:0:
169,180,13342,6,0,P|211:185|264:155,1,85,6|8,1:0|0:0,0:0:0:0:
115,112,13644,1,0,1:0:0:0:
100,234,13796,2,0,L|87:346,1,85,10|0,0:0|1:0,0:0:0:0:
260,254,14098,1,10,0:0:0:0:
249,169,14249,1,2,1:0:0:0:
192,307,14400,5,10,0:0:0:0:
328,201,14551,1,4,1:0:0:0:
169,136,14702,2,0,L|56:149,1,85,2|0,1:0|1:0,0:0:0:0:
339,286,15005,2,0,L|423:275,1,85,10|0,0:0|0:0,0:0:0:0:
180,222,15307,2,0,P|141:237|114:269,1,85,10|0,0:0|0:0,0:0:0:0:
328,201,15609,1,2,0:0:0:0:
239,85,15760,5,12,0:0:0:0:
249,169,15911,1,8,0:0:0:0:
393,149,16063,1,0,1:0:0:0:
316,116,16214,1,8,0:0:0:0:
261,252,16365,1,0,1:0:0:0:
328,201,16516,1,8,0:0:0:0:
170,137,16667,1,2,1:0:0:0:
182,222,16818,1,10,0:0:0:0:
316,116,16969,6,0,P|317:59|293:22,1,85,4|8,1:0|0:0,0:0:0:0:
105,191,17272,2,0,P|104:248|128:285,1,85,8|10,0:0|3:0,0:0:0:0:
328,201,17574,1,10,0:0:0:0:
170,137,17725,1,8,0:0:0:0:
261,252,17876,1,8,0:0:0:0:
239,85,18027,1,10,0:0:0:0:
194,303,18178,6,0,P|237:333|318:313,1,127.500004863739,4|0,0:0|0:0,0:0:0:0:
328,201,18632,1,0,0:0:0:0:
175,158,18783,2,0,L|181:221,1,63.7500024318696,0|0,1:0|0:0,0:0:0:0:
97,129,19085,2,0,L|83:213,1,63.7500024318696,0|0,0:0|0:0,0:0:0:0:
29,80,19388,6,0,L|-5:158,1,63.7500024318696,8|0,0:0|0:0,0:0:0:0:
161,75,19690,2,0,P|195:77|237:101,1,63.7500024318696,8|0,0:0|0:0,0:0:0:0:
236,172,19992,2,0,P|202:170|160:146,1,63.7500024318696,4|4,0:0|0:0,0:0:0:0:
300,117,20294,2,0,P|329:104|360:103,1,63.7500024318696,8|0,0:0|0:0,0:0:0:0:
340,228,20597,6,0,L|360:102,1,127.500004863739,6|0,0:0|0:0,0:0:0:0:
423,48,21050,1,2,0:0:0:0:
485,102,21201,2,0,L|495:165,1,63.7500024318696,0|0,0:0|0:0,0:0:0:0:
413,268,21503,2,0,L|424:206,1,63.7500024318696,2|0,0:0|0:0,0:0:0:0:
490,302,21806,6,0,P|464:336|367:336,1,127.500004863739,2|0,0:0|0:0,0:0:0:0:
329,283,22259,1,2,0:0:0:0:
249,307,22410,2,0,L|238:369,1,63.7500024318696,2|0,0:0|0:0,0:0:0:0:
329,283,22712,2,0,L|318:220,1,63.7500024318696,2|0,0:0|0:0,0:0:0:0:
179,250,23015,6,0,L|158:375,1,127.500004863739,6|0,0:0|0:0,0:0:0:0:
249,307,23468,1,2,0:0:0:0:
192,168,23619,2,0,P|152:171|115:196,1,63.7500024318696,2|0,0:0|0:0,0:0:0:0:
256,220,23922,2,0,P|273:183|270:139,1,63.7500024318696,0|0,3:0|0:0,0:0:0:0:
171,42,24224,6,0,L|191:167,1,127.500004863739,2|0,0:0|0:0,0:0:0:0:
178,249,24677,1,2,0:0:0:0:
98,253,24828,2,0,P|100:221|115:193,1,63.7500024318696,2|2,0:0|0:0,0:0:0:0:
258,245,25131,2,0,P|255:276|240:304,1,63.7500024318696,0|2,3:0|0:0,0:0:0:0:
191,167,25433,6,0,L|316:146,1,127.500004863739,6|0,0:0|0:0,0:0:0:0:
381,94,25886,1,2,0:0:0:0:
293,0,26037,2,0,L|304:62,1,63.7500024318696,0|0,0:0|0:0,0:0:0:0:
381,94,26340,2,0,L|391:31,1,63.7500024318696,2|0,0:0|0:0,0:0:0:0:
224,78,26642,6,0,L|98:98,1,127.500004863739,2|0,0:0|0:0,0:0:0:0:
48,164,27095,1,2,0:0:0:0:
98,229,27246,2,0,L|161:239,1,63.7500024318696,2|0,0:0|0:0,0:0:0:0:
160,322,27549,2,0,L|98:333,1,63.7500024318696,0|2,3:0|0:0,0:0:0:0:
232,281,27851,6,0,L|378:282,1,127.500004863739,0|0,3:0|0:0,0:0:0:0:
317,186,28304,1,2,0:0:0:0:
215,265,28456,2,0,L|361:266,1,127.500004863739,0|0,3:0|0:0,0:0:0:0:
300,170,28908,1,2,0:0:0:0:
198,249,29060,2,0,L|344:250,1,127.500004863739,0|2,3:0|0:0,0:0:0:0:
283,154,29513,1,2,0:0:0:0:
181,233,29665,6,0,L|253:233,1,63.7500024318696,4|0,3:0|0:0,0:0:0:0:
234,82,29967,2,0,L|170:82,1,63.7500024318696,8|0,3:0|0:0,0:0:0:0:
283,154,30269,6,0,P|320:91|266:0,1,170,6|8,1:0|0:0,0:0:0:0:
197,161,30723,2,0,P|215:210|277:239,1,85,0|0,0:0|1:0,0:0:0:0:
324,232,31025,1,0,0:0:0:0:
410,239,31176,2,0,P|392:288|330:317,1,85,8|0,0:0|0:0,0:0:0:0:
287,154,31478,6,0,P|338:145|394:184,1,85,0|0,1:0|1:0,0:0:0:0:
324,232,31780,1,8,0:0:0:0:
237,225,31932,1,2,0:0:0:0:
187,296,32083,2,0,L|123:388,1,85,2|0,1:0|0:0,0:0:0:0:
152,217,32385,2,0,L|236:224,1,85,10|2,0:0|0:0,0:0:0:0:
101,286,32687,6,0,P|73:251|117:138,1,170,6|8,1:0|0:0,0:0:0:0:
192,149,33141,1,2,0:0:0:0:
240,79,33292,2,0,P|182:63|141:81,1,85,2|0,1:0|0:0,0:0:0:0:
276,155,33594,2,0,P|319:112|324:67,1,85,8|0,0:0|0:0,0:0:0:0:
192,149,33896,6,0,L|215:330,1,170,0|8,1:0|0:0,0:0:0:0:
134,285,34350,1,2,0:0:0:0:
282,265,34501,2,0,L|376:253,1,85,2|2,1:0|1:0,0:0:0:0:
192,149,34803,2,0,L|97:137,1,85,8|2,0:0|0:0,0:0:0:0:
282,265,35105,6,0,L|303:96,1,170,4|8,1:0|0:0,0:0:0:0:
313,11,35559,1,2,0:0:0:0:
208,169,35710,2,0,L|396:193,1,170,2|10,1:0|0:0,0:0:0:0:
218,84,36163,1,0,0:0:0:0:
199,255,36314,6,0,L|11:278,1,170,4|8,1:0|0:0,0:0:0:0:
124,159,36768,1,2,0:0:0:0:
284,266,36919,2,0,L|377:277,1,85,2|2,1:0|1:0,0:0:0:0:
218,84,37221,2,0,L|133:73,1,85,10|2,0:0|0:0,0:0:0:0:
284,266,37524,6,0,L|307:78,1,170,4|8,1:0|0:0,0:0:0:0:
124,159,37977,1,2,1:0:0:0:
273,350,38128,2,0,L|357:361,1,85,0|2,0:0|1:0,0:0:0:0:
113,243,38430,2,0,L|28:253,1,85,10|0,0:0|0:0,0:0:0:0:
368,276,38718,6,0,L|381:172,1,85,2|0,0:0|1:0,0:0:0:0:
134,74,39020,2,0,L|123:158,1,85,14|0,0:0|0:0,0:0:0:0:
366,13,39322,5,10,0:0:0:0:
134,74,39473,1,8,0:0:0:0:
307,317,39775,6,0,P|375:272|378:191,1,170,6|0,1:0|1:0,0:0:0:0:
221,196,40229,2,0,P|215:237|229:278,1,85,8|0,0:0|0:0,0:0:0:0:
302,231,40531,2,0,P|307:189|294:149,1,85,2|0,1:0|1:0,0:0:0:0:
219,110,40833,1,10,0:0:0:0:
53,218,40985,6,0,L|242:193,1,170,6|0,1:0|0:0,0:0:0:0:
134,121,41438,2,0,L|50:132,1,85,8|0,0:0|0:0,0:0:0:0:
139,291,41740,2,0,L|223:279,1,85,2|0,1:0|1:0,0:0:0:0:
303,98,42042,2,0,L|218:109,1,85,10|2,0:0|0:0,0:0:0:0:
307,267,42345,6,0,L|391:256,1,85,6|2,1:0|0:0,0:0:0:0:
250,203,42647,2,0,P|226:237|223:279,1,85,10|0,0:0|0:0,0:0:0:0:
447,320,42949,2,0,P|471:285|474:244,1,85,2|2,1:0|1:0,0:0:0:0:
420,177,43252,1,10,0:0:0:0:
279,347,43403,6,0,L|194:358,1,85,6|0,1:0|0:0,0:0:0:0:
307,267,43705,1,2,1:0:0:0:
447,320,43856,2,0,L|531:331,1,85,8|2,0:0|0:0,0:0:0:0:
420,177,44158,2,0,L|335:188,1,85,2|0,1:0|1:0,0:0:0:0:
471,244,44461,2,0,P|504:188|493:138,1,85,10|0,0:0|0:0,0:0:0:0:
283,120,44763,6,0,P|250:176|261:226,1,85,6|0,1:0|0:0,0:0:0:0:
384,253,45065,2,0,P|351:196|302:181,1,85,8|0,0:0|0:0,0:0:0:0:
219,274,45367,2,0,L|114:287,1,85,2|0,1:0|1:0,0:0:0:0:
82,217,45670,1,10,0:0:0:0:
139,80,45821,6,0,L|152:184,1,85,6|0,1:0|0:0,0:0:0:0:
71,131,46123,1,2,1:0:0:0:
217,112,46274,2,0,L|301:100,1,85,8|0,0:0|0:0,0:0:0:0:
417,9,46576,1,0,1:0:0:0:
333,21,46728,1,2,1:0:0:0:
437,154,46879,1,10,0:0:0:0:
469,76,47031,1,0,0:0:0:0:
353,166,47181,6,0,P|387:225|493:218,1,170,6|0,1:0|0:0,0:0:0:0:
469,76,47634,1,2,0:0:0:0:
301,100,47786,2,0,L|202:110,1,85,0|0,0:0|0:0,0:0:0:0:
277,319,48088,2,0,L|376:309,1,85,2|0,1:0|0:0,0:0:0:0:
333,22,48390,6,0,L|129:1,1,170,10|0,0:0|0:0,0:0:0:0:
216,108,48843,1,2,1:0:0:0:
374,242,48995,2,0,L|382:157,1,85,8|2,0:0|0:0,0:0:0:0:
138,142,49297,2,0,L|129:226,1,85,8|2,0:0|0:0,0:0:0:0:
365,326,49599,6,0,P|410:317|451:274,1,85,14|0,0:0|0:0,0:0:0:0:
147,58,49901,2,0,P|101:66|61:110,1,85,10|0,0:0|0:0,0:0:0:0:
374,242,50204,1,10,0:0:0:0:
225,24,50355,1,10,0:0:0:0:
39,279,50657,6,0,P|128:256|200:300,1,170,10|0,0:0|0:0,0:0:0:0:
240,363,51110,1,10,0:0:0:0:
190,124,52017,6,0,L|303:111,1,85,6|8,1:3|0:0,0:0:0:0:
391,26,52320,1,0,1:0:0:0:
307,36,52471,1,8,0:0:0:0:
324,181,52622,1,0,1:0:0:0:
358,104,52773,1,8,0:0:0:0:
241,191,52924,2,0,P|266:240|306:263,1,85,0|0,1:0|0:0,0:0:0:0:
455,241,53226,6,0,P|413:236|374:251,1,85,4|8,1:0|0:0,0:0:0:0:
340,331,53529,1,0,1:0:0:0:
424,320,53680,1,8,0:0:0:0:
289,262,53831,2,0,P|255:319|263:367,1,85,0|8,1:0|0:0,0:0:0:0:
373,251,54058,1,0,0:0:0:0:
373,251,54133,2,0,P|340:193|295:175,1,85,0|10,1:0|0:0,0:0:0:0:
124,153,54435,6,0,L|108:255,1,85,0|8,1:0|0:0,0:0:0:0:
203,122,54738,1,0,1:0:0:0:
138,70,54889,1,10,0:0:0:0:
268,174,55040,1,0,1:0:0:0:
280,91,55191,1,8,0:0:0:0:
254,255,55342,1,0,1:0:0:0:
332,224,55493,1,8,0:0:0:0:
190,205,55644,6,0,P|174:258|190:308,1,85,4|8,1:0|0:0,0:0:0:0:
318,305,55947,1,0,1:0:0:0:
203,122,56098,2,0,P|149:131|113:173,1,85,10|0,0:0|1:0,0:0:0:0:
332,224,56400,2,0,P|386:215|421:172,1,85,10|0,0:0|1:0,0:0:0:0:
280,91,56702,1,8,0:0:0:0:
190,205,56854,6,0,P|174:258|190:308,1,85,6|8,1:0|0:0,0:0:0:0:
346,143,57156,1,0,1:0:0:0:
268,174,57307,1,8,0:0:0:0:
318,305,57458,1,0,1:0:0:0:
332,224,57609,1,8,0:0:0:0:
203,122,57760,1,0,1:0:0:0:
190,205,57911,1,10,0:0:0:0:
358,59,58063,6,0,P|394:72|429:120,1,85,4|8,1:0|0:0,0:0:0:0:
268,174,58365,1,0,1:0:0:0:
296,12,58516,1,10,0:0:0:0:
346,143,58667,2,0,L|357:249,1,85,0|10,1:0|0:0,0:0:0:0:
276,261,58894,1,0,0:0:0:0:
276,261,58969,2,0,L|175:304,1,85,0|8,1:0|0:0,0:0:0:0:
189,140,59272,6,0,L|290:183,1,85,6|8,1:0|0:0,0:0:0:0:
121,191,59574,1,0,1:0:0:0:
179,56,59725,1,10,0:0:0:0:
267,173,59876,1,6,1:0:0:0:
246,4,60027,1,8,0:0:0:0:
189,140,60178,1,0,1:0:0:0:
325,37,60330,1,8,0:0:0:0:
347,207,60481,6,0,P|395:183|418:142,1,85,0|8,1:0|0:0,0:0:0:0:
337,123,60783,1,2,1:0:0:0:
197,223,60934,2,0,P|141:207|113:173,1,85,14|0,0:0|1:0,0:0:0:0:
325,37,61236,2,0,P|375:46|412:78,1,85,8|0,0:0|1:0,0:0:0:0:
275,256,61539,1,8,0:0:0:0:
175,53,61690,6,0,P|127:77|104:118,1,85,4|8,1:0|0:0,0:0:0:0:
347,207,61992,2,0,L|335:104,1,85,0|8,1:0|0:0,0:0:0:0:
189,140,62294,1,0,1:0:0:0:
275,256,62445,1,8,0:0:0:0:
261,91,62597,1,0,1:0:0:0:
197,223,62748,1,8,0:0:0:0:
353,289,62899,6,0,P|401:268|424:237,1,85,0|8,1:0|0:0,0:0:0:0:
189,140,63201,2,0,P|141:161|118:192,1,85,0|8,1:0|0:0,0:0:0:0:
347,207,63503,1,0,1:0:0:0:
261,91,63655,1,8,0:0:0:0:
197,223,63806,1,0,1:0:0:0:
337,122,63957,1,8,0:0:0:0:
353,289,64108,6,0,L|362:407,1,85,4|8,1:0|0:0,0:0:0:0:
203,307,64410,1,0,1:0:0:0:
347,206,64561,2,0,P|388:213|423:245,1,85,10|0,0:0|1:0,0:0:0:0:
197,223,64864,1,8,0:0:0:0:
337,122,65015,1,0,1:0:0:0:
353,289,65166,1,8,0:0:0:0:
261,91,65317,5,0,0:0:0:0:
275,256,65468,1,2,1:0:0:0:
337,122,65619,1,0,0:0:0:0:
197,223,65770,1,10,0:0:0:0:
185,60,65922,1,12,0:0:0:0:
347,206,66073,1,0,0:0:0:0:
249,9,66224,1,0,1:0:0:0:
197,223,66375,1,10,0:0:0:0:
325,40,66526,6,0,P|373:48|409:84,1,85,4|8,1:0|0:0,0:0:0:0:
275,256,66828,1,0,1:0:0:0:
261,91,66979,1,8,0:0:0:0:
197,223,67131,1,0,1:0:0:0:
337,122,67282,1,8,0:0:0:0:
286,337,67433,1,0,1:0:0:0:
272,172,67584,1,8,0:0:0:0:
122,274,67735,6,0,P|153:301|195:314,1,85,4|8,1:0|0:0,0:0:0:0:
265,81,68037,2,0,P|225:94|193:124,1,85,8|10,0:0|3:0,0:0:0:0:
353,289,68340,1,10,0:0:0:0:
413,154,68491,1,8,0:0:0:0:
275,256,68642,1,8,0:0:0:0:
335,121,68793,1,10,0:0:0:0:
431,322,68944,6,0,P|434:262|408:224,1,85,4|0,1:0|0:0,0:0:0:0:
345,206,69246,1,8,0:0:0:0:
275,256,69398,1,0,0:0:0:0:
353,289,69549,1,8,0:0:0:0:
335,121,69700,1,0,1:0:0:0:
197,223,69851,1,0,1:0:0:0:
257,88,70002,1,8,0:0:0:0:
275,256,70153,6,0,P|241:296|192:308,1,85,8|0,0:0|1:0,0:0:0:0:
179,55,70456,2,0,P|213:15|262:3,1,85,8|0,0:0|1:0,0:0:0:0:
126,311,70758,2,0,L|41:316,1,85,8|0,0:0|1:0,0:0:0:0:
257,88,71060,2,0,L|341:82,1,85,8|0,0:0|0:0,0:0:0:0:
197,223,71362,6,0,L|159:47,1,170,6|8,1:0|0:0,0:0:0:0:
276,252,71816,2,0,P|252:286|135:281,1,170,2|0,1:0|1:0,0:0:0:0:
261,168,72269,2,0,P|302:171|347:205,1,85,10|0,0:0|0:0,0:0:0:0:
477,165,72571,6,0,P|398:141|337:195,1,170,2|8,1:0|0:0,0:0:0:0:
417,222,73025,1,2,1:0:0:0:
461,63,73176,2,0,L|489:-36,1,85,2|0,0:0|1:0,0:0:0:0:
314,112,73478,2,0,L|337:193,1,85,8|2,0:0|0:0,0:0:0:0:
374,55,73780,6,0,P|295:31|234:85,1,170,2|8,1:0|0:0,0:0:0:0:
242,168,74234,1,2,1:0:0:0:
128,219,74385,2,0,P|206:194|268:248,1,170,2|10,0:0|0:0,0:0:0:0:
189,280,74838,1,0,0:0:0:0:
46,242,74990,6,0,L|28:140,1,85,2|0,1:0|0:0,0:0:0:0:
96,104,75292,1,8,0:0:0:0:
224,104,75443,2,0,L|209:187,1,85,2|0,1:0|1:0,0:0:0:0:
159,49,75745,2,0,P|193:23|235:18,1,85,2|8,1:0|0:0,0:0:0:0:
303,74,76047,1,10,0:0:0:0:
130,217,76199,6,0,L|145:134,1,85,6|0,1:0|0:0,0:0:0:0:
224,104,76501,1,8,0:0:0:0:
194,271,76652,2,0,P|158:297|50:237,1,170,2|0,1:0|1:0,0:0:0:0:
208,187,77105,2,0,L|291:202,1,85,8|2,0:0|0:0,0:0:0:0:
444,137,77408,6,0,P|380:87|305:118,1,170,2|8,1:0|0:0,0:0:0:0:
208,187,77861,1,2,1:0:0:0:
353,255,78012,2,0,L|368:172,1,85,10|0,0:0|1:0,0:0:0:0:
223,270,78314,2,0,L|238:353,1,85,8|2,0:0|1:0,0:0:0:0:
271,133,78617,6,0,P|196:103|132:153,1,170,10|8,0:0|0:0,0:0:0:0:
208,187,79070,1,2,1:0:0:0:
335,80,79221,2,0,L|436:89,1,85,10|0,0:0|1:0,0:0:0:0:
369,222,79524,2,0,L|285:215,1,85,10|0,0:0|1:0,0:0:0:0:
308,0,79826,6,0,L|409:9,1,85,14|0,0:0|0:0,0:0:0:0:
446,167,80128,1,14,0:0:0:0:
285,215,80279,1,2,0:0:0:0:
419,87,80430,1,8,0:0:0:0:
377,230,80581,1,10,0:0:0:0:
377,230,80657,1,8,0:0:0:0:
377,230,80733,1,8,0:0:0:0:
334,145,80884,1,10,0:0:0:0:
236,285,81035,6,0,L|131:276,1,85,4|8,1:0|0:0,0:0:0:0:
163,130,81337,1,0,1:0:0:0:
249,137,81488,1,8,0:0:0:0:
114,200,81639,1,0,1:0:0:0:
77,123,81791,1,8,0:0:0:0:
198,207,81942,2,0,L|302:215,1,85,2|8,1:0|0:0,0:0:0:0:
126,53,82244,6,0,L|41:45,1,85,2|8,1:0|0:0,0:0:0:0:
114,200,82546,1,0,1:0:0:0:
163,130,82697,1,10,0:0:0:0:
28,192,82848,2,0,P|35:234|60:268,1,85,2|8,1:0|0:0,0:0:0:0:
150,277,83075,1,2,0:0:0:0:
150,277,83151,2,0,P|182:249|199:211,1,85,0|10,1:0|0:0,0:0:0:0:
252,72,83453,6,0,L|266:155,1,85,6|8,1:0|0:0,0:0:0:0:
346,183,83680,1,8,0:0:0:0:
346,183,83755,2,0,L|420:190,1,42.5,8|8,0:0|0:0,0:0:0:0:
382,101,83906,2,0,L|339:96,1,42.5,10|8,0:0|0:0,0:0:0:0:
281,239,84058,6,0,L|295:322,1,85,4|0,1:0|0:0,0:0:0:0:
375,350,84285,1,0,1:0:0:0:
375,350,84360,2,0,L|449:357,1,42.5,2|0,1:0|1:0,0:0:0:0:
411,268,84511,2,0,L|368:263,1,42.5,2|0,1:0|1:0,0:0:0:0:
207,297,84662,6,0,L|85:308,1,85,12|10,0:0|0:0,0:0:0:0:
64,242,84889,1,8,0:0:0:0:
64,242,84964,2,0,L|50:174,1,42.5,8|8,0:0|0:0,0:0:0:0:
154,181,85115,2,0,L|146:223,1,42.5,10|8,0:0|0:0,0:0:0:0:
57,166,85267,2,0,L|43:98,1,42.5,4|0,1:0|1:0,0:0:0:0:
147,105,85418,2,0,L|138:146,1,42.5,2|0,1:0|1:0,0:0:0:0:
49,89,85569,2,0,L|35:21,1,42.5,10|8,0:0|0:0,0:0:0:0:
139,28,85720,2,0,L|130:69,1,42.5,10|8,0:0|0:0,0:0:0:0:
64,242,85871,5,4,1:0:0:0:
228,204,86022,1,8,0:0:0:0:
88,161,86173,1,0,1:0:0:0:
204,285,86325,1,8,0:0:0:0:
252,123,86476,1,0,1:0:0:0:
146,223,86627,1,8,0:0:0:0:
310,185,86778,1,2,1:0:0:0:
194,61,86929,1,10,0:0:0:0:
204,285,87080,6,0,L|219:371,1,85,0|0,1:0|0:0,0:0:0:0:
335,104,87382,2,0,L|320:20,1,85,10|0,0:0|0:0,0:0:0:0:
131,139,87685,2,0,L|146:225,1,85,2|0,1:0|0:0,0:0:0:0:
408,250,87987,2,0,L|393:164,1,85,10|0,0:0|0:0,0:0:0:0:
120,302,88289,5,14,0:0:0:0:
