osu file format v14

[General]
AudioFilename: audio.mp3
AudioLeadIn: 0
PreviewTime: 26686
Countdown: 0
SampleSet: Normal
StackLeniency: 0.7
Mode: 3
LetterboxInBreaks: 0
SpecialStyle: 0
WidescreenStoryboard: 0

[Editor]
Bookmarks: 34085,59410,84052,121358
DistanceSpacing: 1.2
BeatDivisor: 4
GridSize: 32
TimelineZoom: 0.6999999

[Metadata]
Title:All I wanna do is touch your power points
TitleUnicode:All I wanna do is touch your power points
Artist:LOLI RIPE
ArtistUnicode:LOLI RIPE
Creator:laughingcomet
Version:Easy
Source:
Tags:Lolicore Speedcore Electronic Little Sweet Dolores
BeatmapID:1014447
BeatmapSetID:474288

[Difficulty]
HPDrainRate:7
CircleSize:4
OverallDifficulty:6.5
ApproachRate:5
SliderMultiplier:1.4
SliderTickRate:1

[Events]
//Background and Video events
0,0,"BG.jpg",0,0
//Break Periods
//Storyboard Layer 0 (Background)
//Storyboard Layer 1 (Fail)
//Storyboard Layer 2 (Pass)
//Storyboard Layer 3 (Foreground)
//Storyboard Sound Samples

[TimingPoints]
13829,389.61038961039,4,1,1,50,1,0
21621,-100,4,1,1,50,0,1
34088,-100,4,1,1,50,0,0
59023,-100,4,1,1,50,0,1
83764,-100,4,1,1,50,0,0
121361,-100,4,1,1,50,0,1
133439,-100,4,1,1,50,0,0

[HitObjects]
448,192,13439,5,0,0:0:0:50:
192,192,13828,1,0,0:0:0:50:
64,192,14218,1,2,0:0:0:50:
192,192,14413,1,2,0:0:0:50:
320,192,14608,128,0,14997:0:0:0:50:
448,192,14997,1,0,0:0:0:0:
192,192,15387,1,0,0:0:0:50:
64,192,15777,1,2,0:0:0:50:
192,192,15971,1,2,0:0:0:50:
448,192,16166,1,0,0:0:0:50:
64,192,16556,1,2,0:0:0:50:
320,192,16945,1,0,0:0:0:50:
64,192,17335,1,2,0:0:0:50:
192,192,17530,1,2,0:0:0:50:
448,192,17725,128,0,18114:0:0:0:50:
64,192,18114,1,0,0:0:0:0:
320,192,18504,1,0,0:0:0:50:
448,192,18893,1,2,0:0:0:50:
320,192,19088,1,2,0:0:0:50:
64,192,19283,1,0,0:0:0:50:
320,192,19673,1,2,0:0:0:50:
64,192,20062,1,0,0:0:0:50:
192,192,20452,1,0,2:0:0:50:
448,192,20452,128,0,20939:2:0:0:0:
64,192,20939,128,0,21621:2:0:0:0:
448,192,21621,1,14,0:0:0:50:
320,192,21621,1,0,0:0:0:0:
192,192,22010,1,2,0:0:0:50:
320,192,22400,1,2,0:0:0:50:
192,192,22692,1,2,0:0:0:50:
448,192,22984,1,2,0:0:0:50:
320,192,23179,1,2,0:0:0:50:
64,192,23569,1,2,0:0:0:50:
448,192,23861,1,2,0:0:0:50:
192,192,24056,1,2,0:0:0:50:
64,192,24348,1,2,0:0:0:50:
192,192,24543,1,2,0:0:0:50:
320,192,24738,1,2,0:0:0:50:
448,192,25127,1,2,0:0:0:50:
64,192,25517,1,2,0:0:0:50:
192,192,25809,1,2,0:0:0:50:
448,192,26101,1,2,0:0:0:50:
320,192,26296,1,2,0:0:0:50:
64,192,26491,1,0,0:0:0:50:
448,192,26686,128,0,27854:2:0:0:50:
64,192,27854,128,0,28244:2:0:0:50:
320,192,28244,1,14,0:0:0:50:
64,192,28634,1,2,0:0:0:50:
320,192,28926,1,2,0:0:0:50:
192,192,29218,1,2,0:0:0:50:
448,192,29413,1,2,0:0:0:50:
192,192,29803,1,2,0:0:0:50:
448,192,30095,1,2,0:0:0:50:
192,192,30290,1,2,0:0:0:50:
320,192,30582,1,2,0:0:0:50:
64,192,30777,1,2,0:0:0:50:
448,192,30971,1,2,0:0:0:50:
320,192,31361,1,2,0:0:0:50:
192,192,31751,1,2,0:0:0:50:
448,192,32043,1,2,0:0:0:50:
320,192,32335,1,2,0:0:0:50:
192,192,32530,1,2,0:0:0:50:
64,192,32919,1,2,0:0:0:50:
192,192,33309,128,0,33699:2:0:0:50:
448,192,33699,128,0,34088:2:0:0:50:
320,192,34088,1,14,0:0:0:50:
64,192,34088,1,0,0:0:0:0:
448,192,34478,1,2,0:0:0:50:
64,192,34867,1,2,0:0:0:50:
192,192,35160,1,2,0:0:0:50:
320,192,35452,1,2,0:0:0:50:
448,192,35647,1,2,0:0:0:50:
192,192,36036,1,2,0:0:0:50:
64,192,36329,1,2,0:0:0:50:
320,192,36523,1,2,0:0:0:50:
192,192,36816,1,2,0:0:0:50:
64,192,37010,1,2,0:0:0:50:
448,192,37205,1,2,0:0:0:50:
192,192,37595,1,2,0:0:0:50:
64,192,37984,1,2,0:0:0:50:
448,192,38277,1,2,0:0:0:50:
64,192,38569,1,2,0:0:0:50:
192,192,38764,1,2,0:0:0:50:
320,192,39153,1,2,0:0:0:50:
192,192,39445,1,2,0:0:0:50:
448,192,39640,1,2,0:0:0:50:
320,192,39932,128,0,40322:2:0:0:50:
192,192,40322,1,2,0:0:0:50:
64,192,40712,1,2,0:0:0:50:
320,192,41101,1,2,0:0:0:50:
192,192,41393,1,2,0:0:0:50:
448,192,41686,1,2,0:0:0:50:
320,192,41880,1,2,0:0:0:50:
64,192,42270,1,2,0:0:0:50:
448,192,42562,1,2,0:0:0:50:
320,192,42757,1,2,0:0:0:50:
192,192,43049,1,2,0:0:0:50:
320,192,43244,1,2,0:0:0:50:
192,192,43439,1,2,0:0:0:50:
64,192,43829,1,2,0:0:0:50:
448,192,44218,1,2,0:0:0:50:
192,192,44510,1,2,0:0:0:50:
64,192,44803,1,2,0:0:0:50:
192,192,44997,1,2,0:0:0:50:
320,192,45387,1,2,0:0:0:50:
192,192,45679,1,2,0:0:0:50:
448,192,46556,1,2,0:0:0:50:
320,192,46945,1,2,0:0:0:50:
192,192,47238,1,2,0:0:0:0:
320,192,47432,1,2,0:0:0:0:
64,192,47725,1,2,0:0:0:50:
192,192,47919,1,2,0:0:0:50:
448,192,48114,1,2,0:0:0:40:heavy-drum.wav
192,192,48504,1,2,0:0:0:40:heavy-drum.wav
448,192,48893,1,2,0:0:0:40:heavy-drum.wav
192,192,49283,1,2,0:0:0:40:heavy-drum.wav
320,192,49673,1,2,0:0:0:50:
192,192,50062,1,2,0:0:0:50:
320,192,50354,1,2,0:0:0:0:
192,192,50549,1,2,0:0:0:0:
448,192,50841,1,2,0:0:0:50:
192,192,51036,1,2,0:0:0:50:
64,192,51231,1,0,0:0:0:40:heavy-drum.wav
320,192,51426,1,0,0:0:0:40:heavy-drum.wav
64,192,51621,1,0,0:0:0:40:heavy-drum.wav
320,192,51913,1,0,0:0:0:40:heavy-drum.wav
64,192,52205,1,0,0:0:0:40:heavy-drum.wav
320,192,52400,1,0,0:0:0:40:heavy-drum.wav
448,192,52692,1,0,0:0:0:40:heavy-drum.wav
320,192,53179,1,2,0:0:0:50:
192,192,53471,1,2,0:0:0:0:
320,192,53666,1,2,0:0:0:0:
64,192,53958,1,2,0:0:0:50:
192,192,54153,1,2,0:0:0:50:
320,192,54348,1,0,0:0:0:40:heavy-drum.wav
64,192,54543,128,0,54738:0:0:0:40:heavy-drum.wav
448,192,54738,1,0,0:0:0:40:heavy-drum.wav
320,192,54932,128,0,55127:0:0:0:40:heavy-drum.wav
64,192,55127,1,0,0:0:0:40:heavy-drum.wav
192,192,55322,128,0,55517:0:0:0:40:heavy-drum.wav
448,192,55517,1,0,0:0:0:40:heavy-drum.wav
64,192,55712,1,0,0:0:0:40:heavy-drum.wav
192,192,55906,1,2,0:0:0:50:
320,192,56296,1,2,0:0:0:50:
64,192,56588,1,2,0:0:0:0:
320,192,56783,1,2,0:0:0:0:
64,192,57075,1,2,0:0:0:50:
192,192,57270,1,2,0:0:0:50:
320,192,57465,1,0,0:0:0:40:heavy-drum.wav
448,192,57757,1,0,0:0:0:40:heavy-drum.wav
320,192,58049,1,0,0:0:0:40:heavy-drum.wav
64,192,58244,1,0,0:0:0:40:heavy-drum.wav
320,192,58439,1,0,0:0:0:40:heavy-drum.wav
64,192,58634,128,0,59023:2:0:0:50:
192,192,59023,128,8,59413:0:0:0:50:
448,192,59413,1,14,0:0:0:50:
320,192,59803,1,2,0:0:0:50:
64,192,60095,1,2,0:0:0:50:
320,192,60387,1,2,0:0:0:50:
64,192,60582,1,2,0:0:0:50:
320,192,60971,1,2,0:0:0:50:
192,192,61264,1,2,0:0:0:50:
64,192,61458,1,2,0:0:0:50:
448,192,61751,1,2,0:0:0:50:
320,192,61945,1,2,0:0:0:50:
192,192,62140,1,2,0:0:0:50:
448,192,62530,1,2,0:0:0:50:
320,192,62919,1,2,0:0:0:50:
64,192,63212,1,2,0:0:0:50:
320,192,63504,1,2,0:0:0:50:
192,192,63699,1,2,0:0:0:50:
64,192,63893,1,0,0:0:0:50:
448,192,64088,128,0,65257:2:0:0:50:
192,192,65257,128,2,65647:0:0:0:50:
320,192,65647,1,2,0:0:0:50:
448,192,66036,1,2,0:0:0:50:
64,192,66329,1,2,0:0:0:50:
192,192,66621,1,2,0:0:0:50:
320,192,66816,1,2,0:0:0:50:
448,192,67205,1,2,0:0:0:50:
64,192,67497,1,2,0:0:0:50:
192,192,67692,1,2,0:0:0:50:
448,192,67984,1,2,0:0:0:50:
192,192,68179,1,2,0:0:0:50:
64,192,68374,1,2,0:0:0:50:
192,192,68764,1,2,0:0:0:50:
448,192,69153,1,2,0:0:0:50:
320,192,69445,1,2,0:0:0:50:
64,192,69738,1,2,0:0:0:50:
448,192,69932,1,4,0:0:0:50:
192,192,70322,1,4,0:0:0:50:
320,192,70712,1,4,0:0:0:50:
64,192,71101,1,4,0:0:0:50:
448,192,71491,1,4,0:0:0:50:
320,192,71880,1,2,0:0:0:50:
192,192,72270,1,2,0:0:0:50:
64,192,72562,1,2,0:0:0:50:
192,192,72854,1,2,0:0:0:50:
320,192,73049,1,2,0:0:0:50:
64,192,73439,1,2,0:0:0:50:
320,192,73731,1,2,0:0:0:50:
64,192,73926,1,2,0:0:0:50:
192,192,74218,1,2,0:0:0:50:
320,192,74413,1,2,0:0:0:50:
448,192,74608,1,2,0:0:0:50:
320,192,74997,1,2,0:0:0:50:
448,192,75387,1,2,0:0:0:50:
192,192,75679,1,2,0:0:0:50:
64,192,75971,1,2,0:0:0:50:
320,192,76166,1,2,0:0:0:50:
192,192,76361,1,0,0:0:0:0:
448,192,76556,128,0,77725:2:0:0:50:
192,192,77725,128,2,78114:0:0:0:50:
320,192,78114,1,2,0:0:0:50:
448,192,78504,1,2,0:0:0:50:
64,192,78796,1,2,0:0:0:50:
192,192,79088,1,2,0:0:0:50:
320,192,79283,1,2,0:0:0:50:
448,192,79673,1,2,0:0:0:50:
64,192,79965,1,2,0:0:0:50:
320,192,80160,1,2,0:0:0:50:
448,192,80452,1,2,0:0:0:50:
192,192,80647,1,2,0:0:0:50:
64,192,80841,1,2,0:0:0:50:
448,192,81231,1,2,0:0:0:50:
320,192,81621,1,2,0:0:0:50:
64,192,81913,1,2,0:0:0:50:
192,192,82205,1,2,0:0:0:50:
320,192,82400,1,4,0:0:0:50:
64,192,82790,1,4,0:0:0:50:
320,192,83082,1,4,0:0:0:50:
448,192,83277,1,4,0:0:0:50:
192,192,83569,1,4,0:0:0:50:
64,192,83764,1,2,0:0:0:50:
320,192,83958,1,0,0:0:0:20:normal-hitfinish.wav
192,192,84738,1,0,0:0:0:20:normal-hitfinish.wav
64,192,85517,1,0,0:0:0:20:normal-hitfinish.wav
448,192,86296,1,0,0:0:0:20:normal-hitfinish.wav
320,192,87075,1,0,0:0:0:20:normal-hitfinish.wav
192,192,87854,1,0,0:0:0:20:normal-hitfinish.wav
64,192,88634,1,0,0:0:0:20:normal-hitfinish.wav
448,192,89413,1,0,0:0:0:20:normal-hitfinish.wav
320,192,90192,1,0,0:0:0:20:normal-hitfinish.wav
192,192,90971,1,0,0:0:0:20:normal-hitfinish.wav
64,192,91751,1,0,0:0:0:20:normal-hitfinish.wav
448,192,92530,1,0,0:0:0:20:normal-hitfinish.wav
320,192,93309,1,0,0:0:0:20:normal-hitfinish.wav
192,192,94088,1,0,0:0:0:20:normal-hitfinish.wav
64,192,94867,1,0,0:0:0:20:normal-hitfinish.wav
320,192,95647,128,8,96426:0:0:0:50:
64,192,96426,1,6,0:0:0:50:
192,192,96816,1,2,0:0:0:50:
448,192,97205,1,2,0:0:0:50:
192,192,97497,1,2,0:0:0:50:
320,192,97790,1,2,0:0:0:50:
64,192,97984,1,2,0:0:0:50:
448,192,98374,1,2,0:0:0:50:
192,192,98666,128,0,99543:0:0:0:50:
448,192,99543,1,2,0:0:0:50:
320,192,99932,1,2,0:0:0:50:
64,192,100322,1,2,0:0:0:50:
192,192,100614,1,2,0:0:0:50:
448,192,100906,1,2,0:0:0:50:
320,192,101101,128,4,101880:0:0:0:50:
64,192,101880,1,2,0:0:0:50:
448,192,102270,1,2,0:0:0:50:
64,192,102465,1,2,0:0:0:50:
192,192,102660,1,2,0:0:0:50:
320,192,103049,1,2,0:0:0:50:
448,192,103439,1,2,0:0:0:50:
64,192,103731,1,2,0:0:0:50:
192,192,104023,1,2,0:0:0:50:
320,192,104218,1,2,0:0:0:50:
448,192,104608,1,2,0:0:0:50:
64,192,104900,1,2,0:0:0:50:
192,192,105095,1,2,0:0:0:50:
448,192,105387,1,2,0:0:0:50:
192,192,105582,1,2,0:0:0:50:
64,192,105777,1,2,0:0:0:50:
320,192,106166,1,2,0:0:0:50:
192,192,106556,1,2,0:0:0:50:
64,192,106848,1,2,0:0:0:50:
192,192,107140,1,2,0:0:0:50:
448,192,107335,1,8,0:0:0:50:
448,192,107725,1,8,0:0:0:50:
448,192,108114,1,8,0:0:0:50:
448,192,108504,1,8,0:0:0:50:
64,192,108893,1,6,0:0:0:50:
192,192,109283,1,2,0:0:0:50:
64,192,109673,1,2,0:0:0:50:
448,192,109965,1,2,0:0:0:50:
192,192,110257,1,2,0:0:0:50:
320,192,110452,1,0,0:0:0:40:heavy-drum.wav
320,192,110841,1,0,0:0:0:40:heavy-drum.wav
192,192,111231,1,0,0:0:0:40:heavy-drum.wav
192,192,111621,1,0,0:0:0:40:heavy-drum.wav
320,192,112010,1,2,0:0:0:50:
64,192,112400,1,2,0:0:0:50:
320,192,112790,1,2,0:0:0:50:
448,192,113082,1,2,0:0:0:50:
192,192,113374,1,2,0:0:0:50:
64,192,113569,1,0,0:0:0:40:heavy-drum.wav
448,192,113958,1,0,0:0:0:40:heavy-drum.wav
64,192,114348,1,0,0:0:0:40:heavy-drum.wav
448,192,114640,1,0,0:0:0:40:heavy-drum.wav
192,192,114932,1,0,0:0:0:40:heavy-drum.wav
64,192,115127,1,2,0:0:0:50:
448,192,115517,1,2,0:0:0:50:
64,192,115906,1,2,0:0:0:50:
320,192,116199,1,2,0:0:0:50:
192,192,116491,1,2,0:0:0:50:
64,192,116686,128,0,116880:0:0:0:40:heavy-drum.wav
320,192,116880,1,0,0:0:0:40:heavy-drum.wav
448,192,117075,1,0,0:0:0:40:heavy-drum.wav
192,192,117367,1,0,0:0:0:40:heavy-drum.wav
64,192,117660,1,0,0:0:0:40:heavy-drum.wav
320,192,117854,1,0,0:0:0:40:heavy-drum.wav
448,192,118244,1,2,0:0:0:50:
192,192,118634,1,2,0:0:0:50:
64,192,119023,1,2,0:0:0:50:
320,192,119316,1,2,0:0:0:50:
448,192,119608,1,2,0:0:0:50:
192,192,119803,1,4,0:0:0:50:
64,192,119997,128,0,120387:0:0:0:40:heavy-drum.wav
448,192,120387,1,0,0:0:0:40:heavy-drum.wav
320,192,120582,128,0,120777:0:0:0:40:heavy-drum.wav
192,192,120777,1,0,0:0:0:40:heavy-drum.wav
448,192,120971,128,0,121361:0:0:0:40:heavy-drum.wav
64,192,121361,1,14,0:0:0:50:
320,192,121751,1,2,0:0:0:50:
192,192,122140,1,2,0:0:0:50:
64,192,122432,1,2,0:0:0:50:
320,192,122725,1,2,0:0:0:50:
448,192,122919,1,2,0:0:0:50:
192,192,123309,1,2,0:0:0:50:
64,192,123601,1,2,0:0:0:50:
192,192,123796,1,2,0:0:0:50:
320,192,124088,1,2,0:0:0:50:
448,192,124283,1,2,0:0:0:50:
64,192,124478,1,2,0:0:0:50:
448,192,124867,1,2,0:0:0:50:
192,192,125257,1,2,0:0:0:50:
320,192,125549,1,2,0:0:0:50:
64,192,125841,1,2,0:0:0:50:
448,192,126036,1,2,0:0:0:50:
192,192,126231,1,0,0:0:0:50:
448,192,126426,128,0,127595:2:0:0:50:
320,192,127595,128,0,127984:0:0:0:50:
64,192,127984,1,2,0:0:0:50:
192,192,128374,1,2,0:0:0:50:
448,192,128666,1,2,0:0:0:50:
320,192,128958,1,2,0:0:0:50:
192,192,129153,1,2,0:0:0:50:
64,192,129543,1,2,0:0:0:50:
448,192,129835,1,2,0:0:0:50:
320,192,130030,1,2,0:0:0:50:
64,192,130322,1,2,0:0:0:50:
192,192,130517,1,2,0:0:0:50:
448,192,130712,1,2,0:0:0:50:
192,192,131101,1,2,0:0:0:50:
64,192,131491,1,2,0:0:0:50:
448,192,131783,1,2,0:0:0:50:
320,192,132075,1,2,0:0:0:50:
192,192,132270,1,2,0:0:0:50:
448,192,132660,1,2,0:0:0:50:
64,192,132952,128,2,133390:0:0:0:50:
