osu file format v14

[General]
AudioFilename: audio.mp3
AudioLeadIn: 0
PreviewTime: 27854
Countdown: 0
SampleSet: None
StackLeniency: 0.2
Mode: 1
LetterboxInBreaks: 0
WidescreenStoryboard: 1

[Editor]
Bookmarks: 21621,34088,59023,71491,83958,96426,121361
DistanceSpacing: 1.2
BeatDivisor: 12
GridSize: 32
TimelineZoom: 4.699997

[Metadata]
Title:All I wanna do is touch your power points
TitleUnicode:All I wanna do is touch your power points
Artist:LOLI RIPE
ArtistUnicode:LOLI RIPE
Creator:Jaye
Version:Muzukashii
Source:
Tags:Ex-Series
BeatmapID:1697628
BeatmapSetID:808558

[Difficulty]
HPDrainRate:6
CircleSize:2
OverallDifficulty:5
ApproachRate:10
SliderMultiplier:1.40232725849162
SliderTickRate:1

[Events]
//Background and Video events
0,0,"16. [Helen] evening-wallpaper.jpg",0,0
//Break Periods
//Storyboard Layer 0 (Background)
//Storyboard Layer 1 (Fail)
//Storyboard Layer 2 (Pass)
//Storyboard Layer 3 (Foreground)
//Storyboard Sound Samples

[TimingPoints]
13829,389.61038961039,4,1,0,20,1,0
14218,-100,4,1,0,25,0,0
14608,-100,4,1,0,30,0,0
14997,-100,4,1,0,35,0,0
15387,-100,4,1,0,40,0,0
15777,-100,4,1,0,45,0,0
16166,-100,4,1,0,50,0,0
16556,-100,4,1,0,55,0,0
16945,-100,4,1,0,60,0,0
17335,-100,4,1,0,65,0,0
17725,-100,4,1,0,70,0,0
18114,-100,4,1,0,75,0,0
18504,-100,4,1,0,80,0,0
18893,-100,4,1,0,85,0,0
19283,-100,4,1,0,90,0,0
19673,-100,4,1,0,95,0,0
20062,-100,4,1,0,100,0,0
20906,-80,4,1,0,100,0,0
21621,-66.6666666666667,4,1,0,100,0,1
27075,445.269016697588,4,1,0,100,1,1
27075,-58.4795321637427,4,1,0,100,0,1
27854,389.61038961039,4,1,0,100,1,1
27854,-66.6666666666667,4,1,0,100,0,1
34087,-66.6666666666667,4,1,0,100,0,0
34186,-100,4,1,0,85,0,0
48017,-50,4,1,0,85,0,0
49575,-100,4,1,0,85,0,0
51134,-50,4,1,0,85,0,0
52725,-100,4,1,0,85,0,0
54251,-50,4,1,0,85,0,0
55809,-100,4,1,0,85,0,0
57367,-50,4,1,0,85,0,0
58536,-80,4,1,0,85,0,0
58974,-66.6666666666667,4,1,0,100,0,1
64477,445.269016697588,4,1,0,100,1,1
64477,-58.4795321637427,4,1,0,100,0,1
65256,389.61038961039,4,1,0,100,1,1
65256,-66.6666666666667,4,1,0,100,0,1
76945,445.269016697588,4,1,0,100,1,1
76945,-58.4795321637427,4,1,0,100,0,1
77724,389.61038961039,4,1,0,100,1,1
77724,-66.6666666666667,4,1,0,100,0,1
83957,-66.6666666666667,4,1,0,100,0,0
84006,-80,4,1,0,90,0,0
85467,-100,4,1,0,80,0,0
86246,-111.111111111111,4,1,0,70,0,0
86977,-133.333333333333,4,1,0,70,0,0
87805,-142.857142857143,4,1,0,70,0,0
88584,-153.846153846154,4,1,0,70,0,0
89363,-166.666666666667,4,1,0,70,0,0
95597,-66.6666666666667,4,1,0,85,0,0
96474,-100,4,1,0,85,0,0
110402,-40,4,1,0,85,0,0
111961,-100,4,1,0,85,0,0
113519,-50,4,1,0,85,0,0
115077,-100,4,1,0,85,0,0
116636,-50,4,1,0,85,0,0
118194,-100,4,1,0,85,0,0
119753,-50,4,1,0,85,0,0
121360,-66.6666666666667,4,1,0,100,0,1
126814,445.269016697588,4,1,0,100,1,1
126814,-58.4795321637427,4,1,0,100,0,1
127593,389.61038961039,4,1,0,100,1,1
127593,-66.6666666666667,4,1,0,100,0,1
133437,-66.6666666666667,4,1,0,100,0,0

[HitObjects]
256,192,13828,5,0,0:0:0:0:
256,192,14023,1,0,0:0:0:0:
256,192,14218,1,0,0:0:0:0:
256,192,14608,1,0,0:0:0:0:
256,192,14803,1,0,0:0:0:0:
256,192,14997,1,8,0:0:0:0:
256,192,15387,1,0,0:0:0:0:
256,192,15484,1,0,0:0:0:0:
256,192,15582,1,0,0:0:0:0:
256,192,15777,1,0,0:0:0:0:
256,192,16166,1,0,0:0:0:0:
256,192,16264,1,0,0:0:0:0:
256,192,16361,1,0,0:0:0:0:
256,192,16556,1,8,0:0:0:0:
256,192,16945,1,0,0:0:0:0:
256,192,17043,1,0,0:0:0:0:
256,192,17140,1,0,0:0:0:0:
256,192,17335,1,0,0:0:0:0:
256,192,17530,1,0,0:0:0:0:
256,192,17725,1,0,0:0:0:0:
256,192,17822,1,0,0:0:0:0:
256,192,17919,1,0,0:0:0:0:
256,192,18114,1,8,0:0:0:0:
256,192,18504,1,0,0:0:0:0:
256,192,18699,1,0,0:0:0:0:
256,192,18893,1,0,0:0:0:0:
256,192,19088,1,0,0:0:0:0:
256,192,19283,1,0,0:0:0:0:
256,192,19380,1,0,0:0:0:0:
256,192,19478,1,0,0:0:0:0:
256,192,19673,1,8,0:0:0:0:
192,192,20062,2,0,L|352:192,2,140.232725849162
256,192,21036,1,8,0:0:0:0:
256,192,21231,1,8,0:0:0:0:
256,192,21426,1,8,0:0:0:0:
256,192,21523,1,8,0:0:0:0:
256,192,21621,1,8,0:0:0:0:
256,192,22010,1,0,0:0:0:0:
256,192,22205,1,8,0:0:0:0:
256,192,22400,1,0,0:0:0:0:
256,192,22497,1,0,0:0:0:0:
256,192,22594,1,0,0:0:0:0:
256,192,22790,1,0,0:0:0:0:
256,192,22984,1,8,0:0:0:0:
256,192,23179,1,0,0:0:0:0:
256,192,23569,1,0,0:0:0:0:
256,192,23764,1,8,0:0:0:0:
256,192,23958,1,8,0:0:0:0:
256,192,24056,1,8,0:0:0:0:
256,192,24153,1,8,0:0:0:0:
256,192,24348,1,0,0:0:0:0:
256,192,24543,1,8,0:0:0:0:
256,192,24738,1,0,0:0:0:0:
256,192,25127,1,0,0:0:0:0:
256,192,25322,1,8,0:0:0:0:
256,192,25517,1,0,0:0:0:0:
256,192,25614,1,0,0:0:0:0:
256,192,25712,1,0,0:0:0:0:
256,192,25907,1,8,0:0:0:0:
256,192,26101,1,0,0:0:0:0:
256,192,26491,1,8,0:0:0:0:
224,192,26686,2,0,L|384:192,1,157.761822598443
256,192,27075,1,8,0:0:0:0:
256,192,27854,1,8,0:0:0:0:
256,192,27951,1,8,0:0:0:0:
256,192,28048,1,8,0:0:0:0:
256,192,28244,1,0,0:0:0:0:
256,192,28633,1,0,0:0:0:0:
256,192,28730,1,0,0:0:0:0:
256,192,28827,1,0,0:0:0:0:
256,192,29022,1,8,0:0:0:0:
256,192,29217,1,8,0:0:0:0:
256,192,29412,1,0,0:0:0:0:
256,192,29802,1,0,0:0:0:0:
256,192,29997,1,8,0:0:0:0:
256,192,30191,1,0,0:0:0:0:
256,192,30289,1,0,0:0:0:0:
256,192,30386,1,0,0:0:0:0:
256,192,30581,1,8,0:0:0:0:
256,192,30776,1,8,0:0:0:0:
256,192,30971,1,0,0:0:0:0:
256,192,31360,1,0,0:0:0:0:
256,192,31555,1,8,0:0:0:0:
256,192,31750,1,0,0:0:0:0:
256,192,31847,1,0,0:0:0:0:
256,192,31945,1,0,0:0:0:0:
256,192,32139,1,0,0:0:0:0:
256,192,32334,1,8,0:0:0:0:
256,192,32529,1,8,0:0:0:0:
256,192,32919,1,8,0:0:0:0:
256,192,33309,1,8,0:0:0:0:
256,192,33504,1,0,0:0:0:0:
256,192,33699,1,8,0:0:0:0:
256,192,33795,1,8,0:0:0:0:
256,192,33893,1,8,0:0:0:0:
256,192,34088,1,0,0:0:0:0:
256,192,34478,1,0,0:0:0:0:
256,192,34673,1,8,0:0:0:0:
256,192,34867,1,0,0:0:0:0:
256,192,35257,1,8,0:0:0:0:
256,192,35452,1,8,0:0:0:0:
256,192,35647,1,0,0:0:0:0:
256,192,36035,1,0,0:0:0:0:
256,192,36329,1,0,0:0:0:0:
256,192,36426,1,0,0:0:0:0:
256,192,36523,1,0,0:0:0:0:
256,192,36717,1,8,0:0:0:0:
256,192,36816,1,8,0:0:0:0:
256,192,37205,1,8,0:0:0:0:
256,192,37595,1,0,0:0:0:0:
256,192,37790,1,8,0:0:0:0:
256,192,37984,1,0,0:0:0:0:
256,192,38374,1,0,0:0:0:0:
256,192,38568,1,8,0:0:0:0:
256,192,38764,1,8,0:0:0:0:
256,192,39153,1,0,0:0:0:0:
256,192,39445,1,0,0:0:0:0:
256,192,39640,1,0,0:0:0:0:
256,192,39738,1,0,0:0:0:0:
256,192,39932,12,8,40127,0:0:0:0:
256,192,40322,5,0,0:0:0:0:
256,192,40712,1,0,0:0:0:0:
256,192,40906,1,8,0:0:0:0:
256,192,41100,1,0,0:0:0:0:
256,192,41491,1,8,0:0:0:0:
256,192,41686,1,0,0:0:0:0:
256,192,41880,1,0,0:0:0:0:
256,192,42270,1,0,0:0:0:0:
256,192,42562,1,0,0:0:0:0:
256,192,42660,1,0,0:0:0:0:
256,192,42757,1,0,0:0:0:0:
256,192,42951,1,8,0:0:0:0:
256,192,43049,1,8,0:0:0:0:
256,192,43439,1,8,0:0:0:0:
256,192,43829,1,0,0:0:0:0:
256,192,44023,1,8,0:0:0:0:
256,192,44218,1,0,0:0:0:0:
256,192,44608,1,0,0:0:0:0:
256,192,44803,1,8,0:0:0:0:
256,192,44997,1,8,0:0:0:0:
256,192,45387,1,0,0:0:0:0:
256,192,45678,1,0,0:0:0:0:
256,192,45777,1,0,0:0:0:0:
256,192,45971,1,8,0:0:0:0:
256,192,46166,1,8,0:0:0:0:
256,192,46264,1,8,0:0:0:0:
256,192,46361,1,8,0:0:0:0:
256,192,46556,1,0,0:0:0:0:
256,192,46945,1,8,0:0:0:0:
256,192,47140,1,0,0:0:0:0:
256,192,47335,1,0,0:0:0:0:
256,192,47725,1,0,0:0:0:0:
256,192,47919,1,8,0:0:0:0:
256,192,48114,1,12,0:0:0:0:
256,192,48504,1,12,0:0:0:0:
256,192,48893,1,12,0:0:0:0:
256,192,49283,1,12,0:0:0:0:
256,192,49673,1,0,0:0:0:0:
256,192,50062,1,8,0:0:0:0:
256,192,50257,1,0,0:0:0:0:
256,192,50452,1,8,0:0:0:0:
256,192,50841,1,0,0:0:0:0:
256,192,51036,1,8,0:0:0:0:
256,192,51231,1,12,0:0:0:0:
256,192,51426,1,12,0:0:0:0:
256,192,51621,1,12,0:0:0:0:
256,192,51913,1,12,0:0:0:0:
256,192,52205,1,12,0:0:0:0:
256,192,52400,1,12,0:0:0:0:
256,192,52692,1,12,0:0:0:0:
256,192,52984,1,0,0:0:0:0:
256,192,53179,1,8,0:0:0:0:
256,192,53569,1,0,0:0:0:0:
256,192,53764,1,0,0:0:0:0:
256,192,53958,1,0,0:0:0:0:
256,192,54153,1,8,0:0:0:0:
256,192,54348,1,12,0:0:0:0:
256,192,54738,1,12,0:0:0:0:
256,192,55127,1,12,0:0:0:0:
256,192,55517,1,12,0:0:0:0:
256,192,55906,1,8,0:0:0:0:
256,192,56296,1,0,0:0:0:0:
256,192,56491,1,0,0:0:0:0:
256,192,56880,1,8,0:0:0:0:
256,192,57075,1,0,0:0:0:0:
256,192,57270,1,8,0:0:0:0:
256,192,57465,1,12,0:0:0:0:
256,192,57757,1,12,0:0:0:0:
256,192,58049,1,12,0:0:0:0:
256,192,58244,1,12,0:0:0:0:
192,192,58633,2,0,L|288:192,1,87.6454536557262
256,192,59023,1,8,0:0:0:0:
256,192,59120,1,8,0:0:0:0:
256,192,59217,1,8,0:0:0:0:
256,192,59412,1,0,0:0:0:0:
256,192,59802,1,0,0:0:0:0:
256,192,59900,1,0,0:0:0:0:
256,192,59997,1,0,0:0:0:0:
256,192,60192,1,8,0:0:0:0:
256,192,60386,1,0,0:0:0:0:
256,192,60581,1,0,0:0:0:0:
256,192,60971,1,0,0:0:0:0:
256,192,61166,1,8,0:0:0:0:
256,192,61360,1,0,0:0:0:0:
256,192,61457,1,0,0:0:0:0:
256,192,61555,1,0,0:0:0:0:
256,192,61750,1,8,0:0:0:0:
256,192,61945,1,8,0:0:0:0:
256,192,62140,1,0,0:0:0:0:
256,192,62529,1,0,0:0:0:0:
256,192,62724,1,8,0:0:0:0:
256,192,62919,1,0,0:0:0:0:
256,192,63016,1,0,0:0:0:0:
256,192,63114,1,0,0:0:0:0:
256,192,63308,1,0,0:0:0:0:
256,192,63503,1,8,0:0:0:0:
256,192,63892,1,0,0:0:0:0:
192,192,64087,2,0,L|384:192,1,157.761822598443
256,192,64477,1,0,0:0:0:0:
256,192,65256,1,8,0:0:0:0:
256,192,65354,1,8,0:0:0:0:
256,192,65451,1,8,0:0:0:0:
256,192,65549,1,8,0:0:0:0:
256,192,65646,1,0,0:0:0:0:
256,192,66035,1,0,0:0:0:0:
256,192,66132,1,0,0:0:0:0:
256,192,66230,1,0,0:0:0:0:
256,192,66425,1,0,0:0:0:0:
256,192,66619,1,8,0:0:0:0:
256,192,66814,1,0,0:0:0:0:
256,192,67204,1,0,0:0:0:0:
256,192,67399,1,8,0:0:0:0:
256,192,67593,1,8,0:0:0:0:
256,192,67691,1,8,0:0:0:0:
256,192,67788,1,8,0:0:0:0:
256,192,67983,1,0,0:0:0:0:
256,192,68178,1,8,0:0:0:0:
256,192,68373,1,0,0:0:0:0:
256,192,68762,1,8,0:0:0:0:
256,192,68957,1,0,0:0:0:0:
256,192,69152,1,8,0:0:0:0:
256,192,69249,1,8,0:0:0:0:
256,192,69347,1,8,0:0:0:0:
256,192,69541,1,0,0:0:0:0:
256,192,69639,1,0,0:0:0:0:
256,192,69736,1,0,0:0:0:0:
256,192,69931,1,8,0:0:0:0:
256,192,70321,1,8,0:0:0:0:
256,192,70711,1,8,0:0:0:0:
256,192,71101,1,8,0:0:0:0:
256,192,71490,1,0,0:0:0:0:
256,192,71684,1,8,0:0:0:0:
256,192,71880,1,0,0:0:0:0:
256,192,72075,1,0,0:0:0:0:
256,192,72268,1,0,0:0:0:0:
256,192,72367,1,0,0:0:0:0:
256,192,72463,1,0,0:0:0:0:
256,192,72658,1,8,0:0:0:0:
256,192,72854,1,8,0:0:0:0:
256,192,73049,1,0,0:0:0:0:
256,192,73244,1,8,0:0:0:0:
256,192,73437,1,0,0:0:0:0:
256,192,73632,1,8,0:0:0:0:
256,192,73828,1,8,0:0:0:0:
256,192,73924,1,8,0:0:0:0:
256,192,74023,1,8,0:0:0:0:
256,192,74218,1,0,0:0:0:0:
256,192,74411,1,8,0:0:0:0:
256,192,74606,1,0,0:0:0:0:
256,192,74802,1,8,0:0:0:0:
256,192,74997,1,8,0:0:0:0:
256,192,75192,1,0,0:0:0:0:
256,192,75385,1,8,0:0:0:0:
256,192,75483,1,8,0:0:0:0:
256,192,75580,1,8,0:0:0:0:
256,192,75775,1,0,0:0:0:0:
256,192,75971,1,8,0:0:0:0:
256,192,76359,1,0,0:0:0:0:
192,192,76554,2,0,L|384:192,1,157.761822598443
256,192,76945,1,0,0:0:0:0:
256,192,77724,1,8,0:0:0:0:
256,192,77822,1,8,0:0:0:0:
256,192,77919,1,8,0:0:0:0:
256,192,78017,1,8,0:0:0:0:
256,192,78114,1,8,0:0:0:0:
256,192,78503,1,0,0:0:0:0:
256,192,78600,1,0,0:0:0:0:
256,192,78698,1,0,0:0:0:0:
256,192,78893,1,0,0:0:0:0:
256,192,79087,1,8,0:0:0:0:
256,192,79282,1,0,0:0:0:0:
256,192,79477,1,8,0:0:0:0:
256,192,79672,1,0,0:0:0:0:
256,192,79867,1,8,0:0:0:0:
256,192,80061,1,0,0:0:0:0:
256,192,80159,1,0,0:0:0:0:
256,192,80256,1,0,0:0:0:0:
256,192,80451,1,8,0:0:0:0:
256,192,80646,1,8,0:0:0:0:
256,192,80841,1,0,0:0:0:0:
256,192,81035,1,8,0:0:0:0:
256,192,81230,1,8,0:0:0:0:
256,192,81425,1,0,0:0:0:0:
256,192,81620,1,8,0:0:0:0:
256,192,81717,1,8,0:0:0:0:
256,192,81815,1,8,0:0:0:0:
256,192,82009,1,0,0:0:0:0:
256,192,82107,1,0,0:0:0:0:
256,192,82204,1,0,0:0:0:0:
256,192,82399,1,8,0:0:0:0:
256,192,82789,1,8,0:0:0:0:
256,192,83081,1,0,0:0:0:0:
256,192,83178,1,0,0:0:0:0:
256,192,83275,1,0,0:0:0:0:
256,192,83471,1,8,0:0:0:0:
256,192,83569,1,8,0:0:0:0:
256,192,83763,1,8,0:0:0:0:
256,192,83958,1,0,0:0:0:0:
256,192,84736,1,0,0:0:0:0:
256,192,85516,1,0,0:0:0:0:
256,192,86295,1,0,0:0:0:0:
256,192,87074,1,0,0:0:0:0:
256,192,87853,1,0,0:0:0:0:
256,192,88633,1,0,0:0:0:0:
256,192,89412,1,0,0:0:0:0:
256,192,90191,1,0,0:0:0:0:
256,192,90970,1,0,0:0:0:0:
256,192,91749,1,0,0:0:0:0:
256,192,92529,1,0,0:0:0:0:
256,192,93308,1,0,0:0:0:0:
256,192,94087,1,0,0:0:0:0:
256,192,94866,1,0,0:0:0:0:
256,192,95646,1,8,0:0:0:0:
256,192,95840,1,8,0:0:0:0:
256,192,95938,1,8,0:0:0:0:
256,192,96035,1,8,0:0:0:0:
256,192,96230,1,8,0:0:0:0:
256,192,96425,1,0,0:0:0:0:
256,192,96814,1,0,0:0:0:0:
256,192,97009,1,8,0:0:0:0:
256,192,97203,1,0,0:0:0:0:
256,192,97593,1,8,0:0:0:0:
256,192,97788,1,8,0:0:0:0:
256,192,97983,1,0,0:0:0:0:
256,192,98372,1,8,0:0:0:0:
256,192,98470,1,8,0:0:0:0:
256,192,98665,1,0,0:0:0:0:
256,192,98762,1,0,0:0:0:0:
256,192,98957,1,8,0:0:0:0:
256,192,99152,1,8,0:0:0:0:
256,192,99346,1,8,0:0:0:0:
256,192,99541,1,0,0:0:0:0:
256,192,99931,1,0,0:0:0:0:
256,192,100126,1,8,0:0:0:0:
256,192,100320,1,0,0:0:0:0:
256,192,100710,1,0,0:0:0:0:
256,192,101100,1,8,0:0:0:0:
256,192,101294,1,8,0:0:0:0:
256,192,101490,1,8,0:0:0:0:
256,192,101684,1,8,0:0:0:0:
256,192,101879,1,0,0:0:0:0:
256,192,101977,1,0,0:0:0:0:
256,192,102269,1,8,0:0:0:0:
256,192,102658,1,0,0:0:0:0:
256,192,103048,1,0,0:0:0:0:
256,192,103242,1,8,0:0:0:0:
256,192,103437,1,0,0:0:0:0:
256,192,103827,1,8,0:0:0:0:
256,192,104022,1,0,0:0:0:0:
256,192,104216,1,0,0:0:0:0:
256,192,104606,1,8,0:0:0:0:
256,192,104703,1,8,0:0:0:0:
256,192,104898,1,0,0:0:0:0:
256,192,104996,1,0,0:0:0:0:
256,192,105191,1,8,0:0:0:0:
256,192,105288,1,8,0:0:0:0:
256,192,105385,1,8,0:0:0:0:
256,192,105775,1,8,0:0:0:0:
256,192,106165,1,0,0:0:0:0:
256,192,106359,1,8,0:0:0:0:
256,192,106554,1,0,0:0:0:0:
256,192,106944,1,0,0:0:0:0:
256,192,107139,1,8,0:0:0:0:
256,192,107333,1,8,0:0:0:0:
256,192,107723,1,8,0:0:0:0:
256,192,108113,1,8,0:0:0:0:
256,192,108502,1,8,0:0:0:0:
256,192,108892,1,0,0:0:0:0:
256,192,109281,1,8,0:0:0:0:
256,192,109477,1,0,0:0:0:0:
256,192,109671,1,0,0:0:0:0:
256,192,110061,1,8,0:0:0:0:
256,192,110255,1,0,0:0:0:0:
256,192,110451,1,12,0:0:0:0:
256,192,110840,1,12,0:0:0:0:
256,192,111230,1,12,0:0:0:0:
256,192,111620,1,12,0:0:0:0:
256,192,112009,1,0,0:0:0:0:
256,192,112399,1,8,0:0:0:0:
256,192,112594,1,0,0:0:0:0:
256,192,112788,1,0,0:0:0:0:
256,192,113178,1,0,0:0:0:0:
256,192,113373,1,0,0:0:0:0:
256,192,113568,1,12,0:0:0:0:
256,192,113957,1,12,0:0:0:0:
256,192,114347,1,12,0:0:0:0:
256,192,114639,1,12,0:0:0:0:
256,192,114931,1,12,0:0:0:0:
256,192,115126,1,0,0:0:0:0:
256,192,115516,1,0,0:0:0:0:
256,192,115711,1,8,0:0:0:0:
256,192,115905,1,0,0:0:0:0:
256,192,116295,1,0,0:0:0:0:
256,192,116490,1,0,0:0:0:0:
256,192,116685,1,12,0:0:0:0:
256,192,116879,1,12,0:0:0:0:
256,192,117074,1,12,0:0:0:0:
256,192,117464,1,12,0:0:0:0:
256,192,117659,1,12,0:0:0:0:
256,192,117853,1,12,0:0:0:0:
256,192,118243,1,8,0:0:0:0:
256,192,118438,1,0,0:0:0:0:
256,192,118633,1,0,0:0:0:0:
256,192,118827,1,8,0:0:0:0:
256,192,119217,1,8,0:0:0:0:
256,192,119412,1,0,0:0:0:0:
256,192,119607,1,0,0:0:0:0:
256,192,119801,1,12,0:0:0:0:
256,192,119996,1,12,0:0:0:0:
256,192,120191,1,12,0:0:0:0:
256,192,120581,1,12,0:0:0:0:
256,192,120775,1,12,0:0:0:0:
256,192,120970,1,12,0:0:0:0:
256,192,121360,1,0,0:0:0:0:
256,192,121555,1,8,0:0:0:0:
256,192,121652,1,8,0:0:0:0:
256,192,121749,1,8,0:0:0:0:
256,192,121944,1,0,0:0:0:0:
256,192,122139,1,8,0:0:0:0:
256,192,122236,1,8,0:0:0:0:
256,192,122334,1,8,0:0:0:0:
256,192,122529,1,0,0:0:0:0:
256,192,122723,1,0,0:0:0:0:
256,192,122918,1,0,0:0:0:0:
256,192,123113,1,8,0:0:0:0:
256,192,123210,1,8,0:0:0:0:
256,192,123308,1,8,0:0:0:0:
256,192,123503,1,0,0:0:0:0:
256,192,123697,1,8,0:0:0:0:
256,192,123795,1,8,0:0:0:0:
256,192,123892,1,8,0:0:0:0:
256,192,124087,1,0,0:0:0:0:
256,192,124282,1,8,0:0:0:0:
256,192,124477,1,0,0:0:0:0:
256,192,124671,1,0,0:0:0:0:
256,192,124769,1,0,0:0:0:0:
256,192,124866,1,0,0:0:0:0:
256,192,125061,1,8,0:0:0:0:
256,192,125256,1,0,0:0:0:0:
256,192,125353,1,0,0:0:0:0:
256,192,125451,1,0,0:0:0:0:
256,192,125645,1,0,0:0:0:0:
256,192,125840,1,8,0:0:0:0:
256,192,126230,1,8,0:0:0:0:
192,192,126425,2,0,L|352:192,1,157.761822598443
256,192,126814,1,0,0:0:0:0:
256,192,127593,1,8,0:0:0:0:
256,192,127690,1,8,0:0:0:0:
256,192,127787,1,0,0:0:0:0:
256,192,127885,1,8,0:0:0:0:
256,192,127983,1,0,0:0:0:0:
256,192,128372,1,8,0:0:0:0:
256,192,128469,1,8,0:0:0:0:
256,192,128567,1,8,0:0:0:0:
256,192,128762,1,0,0:0:0:0:
256,192,128956,1,0,0:0:0:0:
256,192,129151,1,0,0:0:0:0:
256,192,129346,1,8,0:0:0:0:
256,192,129443,1,8,0:0:0:0:
256,192,129541,1,8,0:0:0:0:
256,192,129736,1,8,0:0:0:0:
256,192,129930,1,0,0:0:0:0:
256,192,130028,1,0,0:0:0:0:
256,192,130125,1,0,0:0:0:0:
256,192,130320,1,0,0:0:0:0:
256,192,130515,1,8,0:0:0:0:
256,192,130710,1,0,0:0:0:0:
256,192,130904,1,0,0:0:0:0:
256,192,131002,1,0,0:0:0:0:
256,192,131099,1,0,0:0:0:0:
256,192,131294,1,8,0:0:0:0:
256,192,131489,1,8,0:0:0:0:
256,192,131586,1,8,0:0:0:0:
256,192,131684,1,8,0:0:0:0:
256,192,131878,1,0,0:0:0:0:
256,192,131976,1,0,0:0:0:0:
256,192,132073,1,0,0:0:0:0:
256,192,132268,1,8,0:0:0:0:
256,192,132658,1,8,0:0:0:0:
256,192,132853,1,0,0:0:0:0:
256,192,133048,1,8,0:0:0:0:
256,192,133373,1,8,0:0:0:0:
