osu file format v14

[General]
AudioFilename: audio.mp3
AudioLeadIn: 0
PreviewTime: 21538
Countdown: 0
SampleSet: Normal
StackLeniency: 0.7
Mode: 0
LetterboxInBreaks: 0
WidescreenStoryboard: 0

[Editor]
DistanceSpacing: 2.9
BeatDivisor: 8
GridSize: 4
TimelineZoom: 3.900004

[Metadata]
Title:All I Wanna Do Is Touch Your Power Points
TitleUnicode:All I Wanna Do Is Touch Your Power Points
Artist:LOLI RIPE
ArtistUnicode:LOLI RIPE
Creator:LyarTz
Version:All I wanna do
Source:
Tags:loli ripe all i wanna do is touch your power point
BeatmapID:3345409
BeatmapSetID:1639085

[Difficulty]
HPDrainRate:5
CircleSize:4
OverallDifficulty:9
ApproachRate:10
SliderMultiplier:1.4
SliderTickRate:1

[Events]
//Background and Video events
0,0,"bgg.jpg",0,0
//Break Periods
2,84076,92777
//Storyboard Layer 0 (Background)
//Storyboard Layer 1 (Fail)
//Storyboard Layer 2 (Pass)
//Storyboard Layer 3 (Foreground)
//Storyboard Layer 4 (Overlay)
//Storyboard Sound Samples

[TimingPoints]
500,194.805194805195,4,1,1,100,1,0
21538,-100,4,1,1,100,0,1
34006,-100,4,1,1,100,0,0
39850,-285.714285714284,4,1,1,100,0,0
40240,-100,4,1,1,100,0,0
46474,-100,4,1,1,100,0,1
48032,-76.9230769230769,4,1,1,100,0,1
48422,-76.9230769230769,4,1,1,100,0,1
48811,-66.6666666666667,4,1,1,100,0,1
49201,-58.8235294117647,4,1,1,100,0,1
49980,-100,4,1,1,100,0,1
50370,-66.6666666666667,4,1,1,100,0,1
50564,-100,4,1,1,100,0,1
51149,-66.6666666666667,4,1,1,100,0,1
53389,-100,4,1,1,100,0,1
54266,-66.6666666666667,4,1,1,100,0,1
55824,-100,4,1,1,100,0,0
57383,-66.6666666666667,4,1,1,100,0,0
58941,-100,4,1,1,100,0,0
59331,-100,4,1,1,100,0,1
83876,-100,4,1,1,100,0,0
95418,-100,4,1,1,100,0,0
103405,-100,4,1,1,100,0,0
121144,-100,4,1,1,100,0,1
133698,-100,4,1,1,100,0,0

[HitObjects]
256,192,18178,12,0,20760,0:0:0:0:
80,96,20954,5,0,0:0:0:0:
112,176,21051,1,0,0:0:0:0:
80,96,21149,5,0,0:0:0:0:
160,112,21246,1,0,0:0:0:0:
80,96,21344,5,0,0:0:0:0:
160,112,21441,1,0,0:0:0:0:
253,68,21538,6,0,L|330:50,1,70
452,179,21733,1,0,0:0:0:0:
362,191,21831,1,0,0:0:0:0:
272,194,21928,1,0,0:0:0:0:
273,337,22025,5,0,0:0:0:0:
182,343,22123,1,0,0:0:0:0:
103,302,22220,2,0,L|51:249,1,70
75,78,22415,5,0,0:0:0:0:
162,105,22512,1,0,0:0:0:0:
260,121,22610,2,0,L|330:98,1,70
478,233,22805,5,0,0:0:0:0:
397,285,22902,1,0,0:0:0:0:
303,263,23000,2,0,L|217:289,1,70
55,250,23194,5,0,0:0:0:0:
106,169,23292,1,0,0:0:0:0:
175,112,23389,2,0,P|233:79|253:50,1,70
401,97,23584,6,0,L|371:187,1,70
224,200,23779,2,0,P|237:237|281:265,1,70
356,319,23974,1,0,0:0:0:0:
448,230,24071,5,0,0:0:0:0:
488,145,24168,1,0,0:0:0:0:
421,71,24266,2,0,L|339:32,1,70
217,79,24461,6,0,P|173:82|131:109,1,70
19,156,24655,1,0,0:0:0:0:
55,254,24753,1,0,0:0:0:0:
140,302,24850,2,0,L|203:359,1,70
300,347,25045,5,0,0:0:0:0:
345,251,25142,1,0,0:0:0:0:
320,158,25240,1,0,0:0:0:0:
267,109,25337,6,0,L|295:43,1,70
480,148,25532,1,0,0:0:0:0:
495,246,25629,1,0,0:0:0:0:
449,328,25727,1,0,0:0:0:0:
350,336,25824,1,0,0:0:0:0:
262,317,25922,6,0,L|176:320,1,70
102,137,26116,1,0,0:0:0:0:
197,156,26214,1,0,0:0:0:0:
283,113,26311,6,0,L|363:81,1,70
441,145,26555,2,0,P|472:174|352:244,1,245
317,127,26993,5,0,0:0:0:0:
265,287,27090,1,0,0:0:0:0:
155,168,27188,1,0,0:0:0:0:
327,137,27285,5,0,0:0:0:0:
256,299,27383,1,0,0:0:0:0:
168,158,27480,1,0,0:0:0:0:
335,150,27577,5,0,0:0:0:0:
249,312,27675,1,0,0:0:0:0:
178,150,27772,1,0,0:0:0:0:
304,216,27821,2,0,L|344:248,7,35
406,314,28259,5,0,0:0:0:0:
455,231,28357,1,0,0:0:0:0:
447,140,28454,1,0,0:0:0:0:
364,94,28551,1,0,0:0:0:0:
280,72,28649,6,0,L|192:56,1,70
39,110,28844,1,0,0:0:0:0:
63,191,28941,1,0,0:0:0:0:
90,272,29038,1,0,0:0:0:0:
126,348,29136,1,0,0:0:0:0:
208,260,29233,6,0,L|255:183,1,70
321,285,29428,6,0,L|386:340,1,70
445,221,29623,1,0,0:0:0:0:
429,125,29720,1,0,0:0:0:0:
336,72,29818,2,0,P|266:104|248:104,1,70
31,87,30012,5,0,0:0:0:0:
107,140,30110,1,0,0:0:0:0:
71,233,30207,1,0,0:0:0:0:
143,305,30305,2,0,L|225:323,1,70
313,306,30500,1,0,0:0:0:0:
313,306,30597,5,0,0:0:0:0:
451,280,30694,1,0,0:0:0:0:
358,182,30792,1,0,0:0:0:0:
256,128,30889,5,0,0:0:0:0:
176,256,30987,1,0,0:0:0:0:
328,280,31084,1,0,0:0:0:0:
240,128,31181,5,0,0:0:0:0:
176,272,31279,1,0,0:0:0:0:
337,254,31376,1,0,0:0:0:0:
224,136,31474,5,0,0:0:0:0:
184,288,31571,1,0,0:0:0:0:
336,240,31668,1,0,0:0:0:0:
240,128,31766,5,0,0:0:0:0:
176,272,31863,1,0,0:0:0:0:
339,267,31961,1,0,0:0:0:0:
408,184,32058,2,0,L|496:152,1,70
395,40,32253,5,0,0:0:0:0:
312,47,32350,1,0,0:0:0:0:
221,55,32448,1,0,0:0:0:0:
130,68,32545,1,0,0:0:0:0:
23,154,32642,5,0,0:0:0:0:
83,214,32740,1,0,0:0:0:0:
86,307,32837,2,0,L|145:349,1,70
240,328,33032,6,0,L|280:256,1,70
304,176,33226,2,0,L|272:144,1,35
248,128,33324,2,0,L|200:120,12,35
258,224,34006,6,0,L|258:154,1,70
356,100,34201,5,0,0:0:0:0:
434,175,34298,1,0,0:0:0:0:
461,66,34396,1,0,0:0:0:0:
356,100,34493,1,0,0:0:0:0:
255,72,34590,6,0,L|114:55,1,140
68,183,34883,5,0,0:0:0:0:
68,183,34980,1,0,0:0:0:0:
68,183,35077,2,0,P|79:215|101:243,1,70
248,336,35272,6,0,L|160:320,2,70
344,345,35564,1,0,0:0:0:0:
437,311,35662,1,0,0:0:0:0:
471,222,35759,1,0,0:0:0:0:
425,125,35857,6,0,L|356:170,1,70
359,168,36051,5,0,0:0:0:0:
352,173,36149,1,0,0:0:0:0:
344,179,36246,6,0,L|321:248,2,70
325,72,36538,1,0,0:0:0:0:
231,34,36636,2,0,P|175:42|159:58,1,70
57,112,36831,5,0,0:0:0:0:
124,183,36928,1,0,0:0:0:0:
99,275,37025,1,0,0:0:0:0:
269,257,37123,6,0,P|252:227|256:193,1,70
225,124,37318,2,0,P|251:155|248:214,1,70
269,257,37512,2,0,P|256:215|265:175,1,70
366,168,37707,6,0,L|398:96,2,70
397,327,38000,1,0,0:0:0:0:
294,317,38097,1,0,0:0:0:0:
202,325,38194,2,0,L|120:346,1,70
244,220,38389,5,0,0:0:0:0:
181,145,38487,1,0,0:0:0:0:
98,105,38584,2,0,L|29:91,1,70
256,89,38779,5,0,0:0:0:0:
254,193,38876,1,0,0:0:0:0:
256,292,38974,1,0,0:0:0:0:
254,193,39071,1,0,0:0:0:0:
256,89,39168,1,0,0:0:0:0:
380,81,39266,6,0,L|454:107,1,70
384,230,39461,1,0,0:0:0:0:
318,297,39558,1,0,0:0:0:0:
226,330,39655,2,0,L|145:296,1,70
141,163,39850,6,0,P|147:120|186:138,1,97.9999970092774
246,267,40337,5,0,0:0:0:0:
334,225,40434,1,0,0:0:0:0:
358,139,40532,2,0,L|432:88,1,70
283,50,40727,5,0,0:0:0:0:
165,81,40824,1,0,0:0:0:0:
251,158,40922,1,0,0:0:0:0:
283,50,41019,1,0,0:0:0:0:
165,81,41116,1,0,0:0:0:0:
112,185,41214,6,0,L|112:255,2,70
227,317,41506,5,0,0:0:0:0:
235,325,41603,1,0,0:0:0:0:
241,332,41701,1,0,0:0:0:0:
248,338,41798,2,0,L|336:314,1,70
381,245,41993,6,0,L|465:220,1,70
413,90,42188,2,0,L|343:81,1,70
322,170,42383,2,0,L|235:193,1,70
142,301,42577,5,0,0:0:0:0:
142,301,42675,1,0,0:0:0:0:
142,301,42772,1,0,0:0:0:0:
142,301,42870,2,0,L|74:338,1,70
234,352,43064,5,0,0:0:0:0:
324,348,43162,1,0,0:0:0:0:
374,273,43259,1,0,0:0:0:0:
407,202,43357,2,0,L|495:242,2,70
273,177,43649,6,0,L|179:203,1,70
200,198,43844,1,0,0:0:0:0:
200,198,43941,1,0,0:0:0:0:
200,198,44038,2,0,L|175:281,2,70
123,96,44331,1,0,0:0:0:0:
39,183,44428,2,0,L|63:263,1,70
144,312,44720,6,0,L|228:337,1,70
346,336,44915,6,0,L|410:272,1,70
346,336,45110,2,0,L|402:280,1,70
474,219,45305,1,0,0:0:0:0:
473,118,45402,1,0,0:0:0:0:
393,53,45500,2,0,L|303:38,1,70
256,120,45694,1,0,0:0:0:0:
256,120,45792,6,0,L|256:216,5,70
256,190,46376,1,0,0:0:0:0:
422,217,46474,2,0,P|409:248|409:285,1,70
314,338,46669,1,0,0:0:0:0:
201,302,46766,2,0,P|194:259|177:228,1,70
90,144,46961,1,0,0:0:0:0:
90,144,47058,1,0,0:0:0:0:
90,144,47155,1,0,0:0:0:0:
114,46,47253,5,0,0:0:0:0:
202,103,47350,5,0,0:0:0:0:
202,103,47448,1,0,0:0:0:0:
202,103,47545,1,0,0:0:0:0:
173,205,47642,5,0,0:0:0:0:
248,276,47740,2,0,P|294:244|310:222,1,70
313,123,47935,1,0,0:0:0:0:
368,54,48032,1,0,0:0:0:0:
458,65,48129,6,0,P|460:117|416:163,1,90.9999958343508
379,244,48324,5,0,0:0:0:0:
379,246,48422,2,0,P|391:296|433:335,1,90.9999958343508
379,246,48616,5,0,0:0:0:0:
379,246,48714,2,0,P|349:298|299:320,1,90.9999958343508
379,246,48908,5,0,0:0:0:0:
379,246,49006,2,0,P|357:206|293:162,1,105.000004005432
231,118,49201,1,0,0:0:0:0:
123,127,49298,5,0,0:0:0:0:
65,209,49396,1,0,0:0:0:0:
104,314,49493,5,0,0:0:0:0:
104,314,49590,1,0,0:0:0:0:
104,314,49688,1,0,0:0:0:0:
222,299,49785,5,0,0:0:0:0:
238,181,49883,5,0,0:0:0:0:
238,181,49980,1,0,0:0:0:0:
238,181,50077,1,0,0:0:0:0:
308,114,50175,2,0,B|347:83|347:83|368:74,1,70
308,114,50370,2,0,B|380:99|380:99|451:132,1,105.000004005432
435,202,50564,5,0,0:0:0:0:
435,202,50662,1,0,0:0:0:0:
435,202,50759,1,0,0:0:0:0:
375,296,50857,5,0,0:0:0:0:
301,209,50954,1,0,0:0:0:0:
187,214,51051,1,0,0:0:0:0:
80,292,51149,6,0,B|119:329|119:329|209:327,1,105.000004005432
368,232,51344,2,0,B|342:276|342:276|270:301,1,105.000004005432
184,218,51538,2,0,L|137:120,1,105.000004005432
239,60,51733,6,0,B|300:66|300:66|347:126,1,105.000004005432
397,211,51928,6,0,B|396:272|396:272|427:302,1,105.000004005432
397,211,52123,2,0,B|397:272|397:272|342:325,1,105.000004005432
270,333,52318,1,0,0:0:0:0:
136,311,52415,6,0,B|81:280|81:280|61:216,1,105.000004005432
68,240,52610,1,0,0:0:0:0:
56,148,52707,1,0,0:0:0:0:
102,73,52805,1,0,0:0:0:0:
188,45,52902,1,0,0:0:0:0:
353,56,52999,5,0,0:0:0:0:
414,127,53097,1,0,0:0:0:0:
410,218,53194,2,0,B|418:286|418:286|459:314,1,105.000004005432
291,326,53389,5,0,0:0:0:0:
289,192,53487,1,0,0:0:0:0:
291,326,53584,5,0,0:0:0:0:
291,326,53681,1,0,0:0:0:0:
289,192,53779,1,0,0:0:0:0:
167,171,53876,5,0,0:0:0:0:
167,171,53974,1,0,0:0:0:0:
83,262,54071,2,0,L|51:199,1,70
94,117,54266,6,0,L|239:94,1,105.000004005432
412,127,54461,1,0,0:0:0:0:
412,127,54558,1,0,0:0:0:0:
412,127,54655,6,0,L|271:94,1,105.000004005432
255,37,54850,1,0,0:0:0:0:
255,37,54948,1,0,0:0:0:0:
255,37,55045,2,0,L|255:155,1,105.000004005432
125,256,55240,5,0,0:0:0:0:
125,256,55337,1,0,0:0:0:0:
125,256,55435,2,0,B|121:249|180:296|180:296|242:289,1,105.000004005432
387,256,55629,6,0,B|391:249|332:296|332:296|296:292,1,105.000004005432
394,320,55824,6,0,L|435:232,1,70
435,148,56019,1,0,0:0:0:0:
389,63,56116,1,0,0:0:0:0:
292,48,56214,1,0,0:0:0:0:
174,70,56311,6,0,L|93:111,1,70
81,304,56506,5,0,0:0:0:0:
163,262,56603,1,0,0:0:0:0:
258,251,56701,2,0,L|344:249,1,70
435,148,56896,5,0,0:0:0:0:
348,67,56993,1,0,0:0:0:0:
348,67,57090,1,0,0:0:0:0:
226,105,57188,5,0,0:0:0:0:
226,105,57285,1,0,0:0:0:0:
103,202,57383,6,0,B|137:266|137:266|203:306,1,105.000004005432
103,202,57577,1,0,0:0:0:0:
103,202,57675,1,0,0:0:0:0:
103,202,57772,2,0,B|137:266|137:266|192:298,1,105.000004005432
209,310,57967,5,0,0:0:0:0:
352,305,58064,2,0,B|407:263|407:263|412:204,1,105.000004005432
414,104,58259,5,0,0:0:0:0:
414,104,58357,1,0,0:0:0:0:
325,53,58454,2,0,B|252:54|252:54|221:97,1,105.000004005432
230,202,58649,6,0,B|167:206|167:206|207:140|207:140|255:212,1,210.000008010865
335,223,58941,2,0,L|333:188,7,35
317,95,59331,5,0,0:0:0:0:
215,56,59428,1,0,0:0:0:0:
112,86,59525,1,0,0:0:0:0:
91,194,59623,1,0,0:0:0:0:
149,282,59720,2,0,L|236:336,1,70
367,291,59915,2,0,L|305:224,1,70
367,291,60110,2,0,L|305:224,1,70
238,133,60305,5,0,0:0:0:0:
303,63,60402,1,0,0:0:0:0:
406,78,60500,1,0,0:0:0:0:
460,165,60597,2,0,L|468:264,1,70
333,185,60792,5,0,0:0:0:0:
242,186,60889,1,0,0:0:0:0:
150,191,60987,1,0,0:0:0:0:
57,193,61084,1,0,0:0:0:0:
164,322,61181,5,0,0:0:0:0:
271,324,61279,1,0,0:0:0:0:
368,284,61376,2,0,P|407:254|427:207,1,70
386,103,61571,5,0,0:0:0:0:
386,103,61668,1,0,0:0:0:0:
261,77,61765,1,0,0:0:0:0:
219,193,61863,1,0,0:0:0:0:
290,298,61961,6,0,P|257:333|217:343,1,70
88,262,62155,2,0,P|86:213|116:171,1,70
156,108,62350,1,0,0:0:0:0:
256,74,62448,1,0,0:0:0:0:
358,112,62545,1,0,0:0:0:0:
386,205,62642,1,0,0:0:0:0:
229,332,62740,5,0,0:0:0:0:
137,312,62837,1,0,0:0:0:0:
86,237,62935,1,0,0:0:0:0:
51,159,63032,2,0,L|49:61,1,70
161,65,63227,5,0,0:0:0:0:
161,65,63324,2,0,L|235:119,1,70
264,237,63519,1,0,0:0:0:0:
264,237,63616,2,0,L|331:194,1,70
417,142,63811,1,0,0:0:0:0:
354,46,64006,6,0,P|243:36|137:44,1,210
39,76,64396,1,0,0:0:0:0:
199,111,64493,1,0,0:0:0:0:
41,160,64590,1,0,0:0:0:0:
199,193,64688,1,0,0:0:0:0:
41,245,64785,1,0,0:0:0:0:
197,273,64883,1,0,0:0:0:0:
40,327,64980,1,0,0:0:0:0:
198,350,65077,1,0,0:0:0:0:
384,319,65175,6,0,L|420:347,2,35
427,214,65321,2,0,L|469:224,2,35
419,110,65467,2,0,L|459:92,2,35
301,66,65662,5,0,0:0:0:0:
195,55,65760,1,0,0:0:0:0:
112,104,65857,1,0,0:0:0:0:
48,246,65954,5,0,0:0:0:0:
132,295,66051,1,0,0:0:0:0:
223,322,66149,2,0,L|302:332,1,70
407,274,66344,5,0,0:0:0:0:
407,274,66441,1,0,0:0:0:0:
475,181,66538,1,0,0:0:0:0:
386,100,66636,1,0,0:0:0:0:
310,201,66733,5,0,0:0:0:0:
310,201,66831,1,0,0:0:0:0:
200,349,66928,5,0,0:0:0:0:
154,269,67025,1,0,0:0:0:0:
77,221,67123,2,0,L|46:135,1,70
185,59,67318,5,0,0:0:0:0:
246,115,67415,1,0,0:0:0:0:
327,143,67512,1,0,0:0:0:0:
407,131,67610,2,0,L|492:118,1,70
458,272,67805,5,0,0:0:0:0:
389,325,67902,1,0,0:0:0:0:
297,338,68000,1,0,0:0:0:0:
209,317,68097,2,0,L|148:272,1,70
159,169,68292,5,0,0:0:0:0:
312,104,68389,1,0,0:0:0:0:
281,266,68487,1,0,0:0:0:0:
159,158,68584,5,0,0:0:0:0:
319,111,68681,1,0,0:0:0:0:
275,272,68779,1,0,0:0:0:0:
158,149,68876,5,0,0:0:0:0:
326,120,68974,1,0,0:0:0:0:
269,279,69071,1,0,0:0:0:0:
158,139,69168,5,0,0:0:0:0:
330,129,69266,1,0,0:0:0:0:
269,279,69363,1,0,0:0:0:0:
158,130,69461,5,0,0:0:0:0:
334,145,69558,1,0,0:0:0:0:
262,286,69655,1,0,0:0:0:0:
256,192,69850,12,0,71409,0:0:0:0:
99,274,71506,5,0,0:0:0:0:
189,331,71603,1,0,0:0:0:0:
308,331,71701,1,0,0:0:0:0:
386,249,71798,1,0,0:0:0:0:
379,114,71896,2,0,L|303:60,1,70
136,58,72090,5,0,0:0:0:0:
136,58,72188,1,0,0:0:0:0:
136,58,72285,2,0,L|110:142,1,70
133,257,72480,6,0,L|194:307,1,70
303,301,72675,2,0,L|336:209,1,70
392,75,72870,6,0,L|308:105,1,70
327,99,73064,1,0,0:0:0:0:
327,99,73162,1,0,0:0:0:0:
327,99,73259,2,0,L|403:157,2,70
211,59,73551,5,0,0:0:0:0:
120,108,73649,1,0,0:0:0:0:
72,204,73746,1,0,0:0:0:0:
112,298,73844,1,0,0:0:0:0:
229,334,73941,2,0,L|319:320,1,70
420,262,74136,5,0,0:0:0:0:
330,181,74234,1,0,0:0:0:0:
330,181,74331,1,0,0:0:0:0:
325,68,74428,1,0,0:0:0:0:
183,67,74525,5,0,0:0:0:0:
189,186,74623,1,0,0:0:0:0:
189,186,74720,1,0,0:0:0:0:
113,286,74818,1,0,0:0:0:0:
253,307,74915,5,0,0:0:0:0:
350,286,75012,1,0,0:0:0:0:
420,219,75110,2,0,L|463:129,1,70
297,52,75305,5,0,0:0:0:0:
206,88,75402,1,0,0:0:0:0:
118,104,75500,2,0,L|33:102,1,70
83,327,75694,5,0,0:0:0:0:
181,334,75792,1,0,0:0:0:0:
266,278,75889,2,0,L|337:211,1,70
392,114,76084,5,0,0:0:0:0:
293,76,76181,1,0,0:0:0:0:
193,73,76279,1,0,0:0:0:0:
100,104,76376,1,0,0:0:0:0:
100,104,76474,2,0,B|61:151|61:151|85:273|85:273|129:296,1,210
248,297,76863,5,0,0:0:0:0:
372,203,76960,1,0,0:0:0:0:
228,141,77058,1,0,0:0:0:0:
211,262,77155,5,0,0:0:0:0:
369,265,77252,1,0,0:0:0:0:
283,116,77350,1,0,0:0:0:0:
173,215,77447,5,0,0:0:0:0:
334,293,77545,1,0,0:0:0:0:
337,128,77642,1,0,0:0:0:0:
282,98,77691,6,0,L|248:65,5,35
397,194,78032,5,0,0:0:0:0:
292,202,78129,1,0,0:0:0:0:
194,210,78227,1,0,0:0:0:0:
92,221,78324,1,0,0:0:0:0:
208,335,78422,5,0,0:0:0:0:
310,339,78519,1,0,0:0:0:0:
395,298,78616,2,0,L|459:251,1,70
414,77,78811,5,0,0:0:0:0:
321,89,78909,1,0,0:0:0:0:
239,64,79006,2,0,L|157:51,1,70
64,183,79201,5,0,0:0:0:0:
64,183,79298,1,0,0:0:0:0:
64,183,79396,1,0,0:0:0:0:
64,183,79493,2,0,B|82:217|82:217|131:228,1,70
303,280,79688,5,0,0:0:0:0:
303,280,79785,1,0,0:0:0:0:
303,280,79883,1,0,0:0:0:0:
303,280,79980,2,0,B|272:320|272:320|232:331,1,70
132,317,80175,5,0,0:0:0:0:
59,237,80272,1,0,0:0:0:0:
57,144,80370,1,0,0:0:0:0:
137,88,80467,1,0,0:0:0:0:
226,64,80564,2,0,L|323:64,1,70
428,96,80759,5,0,0:0:0:0:
428,96,80857,1,0,0:0:0:0:
441,222,80954,1,0,0:0:0:0:
301,195,81051,1,0,0:0:0:0:
301,195,81149,1,0,0:0:0:0:
301,195,81246,1,0,0:0:0:0:
264,290,81344,1,0,0:0:0:0:
159,333,81441,5,0,0:0:0:0:
124,239,81538,1,0,0:0:0:0:
126,146,81636,1,0,0:0:0:0:
175,60,81733,1,0,0:0:0:0:
337,60,81831,5,0,0:0:0:0:
386,146,81928,1,0,0:0:0:0:
388,239,82026,1,0,0:0:0:0:
353,333,82123,1,0,0:0:0:0:
160,324,82220,5,0,0:0:0:0:
140,235,82318,1,0,0:0:0:0:
73,174,82415,2,0,L|41:93,1,70
232,78,82610,5,0,0:0:0:0:
320,102,82707,1,0,0:0:0:0:
406,65,82804,2,0,L|490:46,1,70
454,192,83000,5,0,0:0:0:0:
417,282,83097,1,0,0:0:0:0:
338,340,83194,2,0,L|247:346,1,70
119,331,83389,6,0,L|68:255,1,70
118,124,83584,2,0,L|202:93,1,70
320,203,83779,2,0,L|290:277,1,70
256,192,93227,12,0,95370,0:0:0:0:
211,78,95564,6,0,L|147:84,1,35
211,78,95662,6,0,L|185:137,1,35
211,78,95759,6,0,L|252:105,1,35
211,78,95857,6,0,L|235:26,1,35
211,78,95954,6,0,L|150:55,1,35
211,78,96051,6,0,L|193:122,1,35
211,78,96149,2,0,L|262:96,1,35
211,78,96246,6,0,L|228:35,1,35
90,242,96344,1,0,0:0:0:0:
180,268,96441,1,0,0:0:0:0:
272,282,96538,1,0,0:0:0:0:
362,247,96636,2,0,L|329:163,1,70
309,80,96928,2,0,L|215:72,2,70
451,142,97220,5,0,0:0:0:0:
412,226,97318,1,0,0:0:0:0:
411,312,97415,1,0,0:0:0:0:
287,336,97512,2,0,P|244:329|206:291,1,70
95,104,97707,5,0,0:0:0:0:
172,68,97805,1,0,0:0:0:0:
258,61,97902,1,0,0:0:0:0:
347,74,98000,2,0,P|388:103|396:148,1,70
418,267,98194,5,0,0:0:0:0:
418,267,98291,1,0,0:0:0:0:
418,267,98389,1,0,0:0:0:0:
289,315,98487,6,0,L|205:287,1,70
289,315,98681,2,0,L|212:289,1,70
289,315,98876,2,0,L|214:288,1,70
289,315,99071,2,0,L|213:287,1,70
289,315,99266,2,0,L|208:286,1,70
104,198,99461,5,0,0:0:0:0:
104,198,99558,1,0,0:0:0:0:
104,198,99655,1,0,0:0:0:0:
182,127,99753,2,0,L|249:66,1,70
182,127,99948,1,0,0:0:0:0:
202,231,100045,1,0,0:0:0:0:
308,210,100142,1,0,0:0:0:0:
399,150,100240,6,0,L|423:64,2,70
372,245,100532,1,0,0:0:0:0:
294,307,100629,1,0,0:0:0:0:
192,318,100727,1,0,0:0:0:0:
127,218,100824,2,0,L|59:236,9,70
243,182,101798,6,0,L|327:205,1,70
244,183,102188,2,0,L|317:224,1,70
417,246,102383,5,0,0:0:0:0:
301,337,102481,1,0,0:0:0:0:
279,197,102577,1,0,0:0:0:0:
417,246,102676,1,0,0:0:0:0:
216,104,102772,6,0,P|241:132|230:186,1,70
273,270,102967,2,0,P|246:247|239:214,1,70
255,94,103162,5,0,0:0:0:0:
256,193,103259,1,0,0:0:0:0:
262,294,103357,1,0,0:0:0:0:
168,322,103454,2,0,L|109:247,1,70
359,324,103649,2,0,L|419:251,1,70
410,163,103844,5,0,0:0:0:0:
351,97,103941,1,0,0:0:0:0:
265,70,104038,1,0,0:0:0:0:
102,165,104136,5,0,0:0:0:0:
56,280,104233,1,0,0:0:0:0:
189,324,104331,1,0,0:0:0:0:
229,201,104428,1,0,0:0:0:0:
229,201,104525,5,0,0:0:0:0:
229,201,104623,1,0,0:0:0:0:
229,201,104720,1,0,0:0:0:0:
102,165,104818,1,0,0:0:0:0:
56,280,104915,1,0,0:0:0:0:
56,280,105012,1,0,0:0:0:0:
189,324,105110,1,0,0:0:0:0:
311,324,105207,6,0,L|403:293,1,70
432,209,105402,2,0,L|372:143,1,70
221,93,105597,1,0,0:0:0:0:
121,191,105694,1,0,0:0:0:0:
121,191,105792,1,0,0:0:0:0:
121,191,105889,1,0,0:0:0:0:
121,191,105987,1,0,0:0:0:0:
325,190,106084,5,0,0:0:0:0:
325,190,106181,1,0,0:0:0:0:
325,190,106279,1,0,0:0:0:0:
456,222,106376,5,0,0:0:0:0:
456,222,106474,1,0,0:0:0:0:
456,222,106571,1,0,0:0:0:0:
456,222,106668,2,0,L|450:140,1,70
224,123,106863,5,0,0:0:0:0:
195,278,106961,1,0,0:0:0:0:
352,228,107058,1,0,0:0:0:0:
224,123,107155,5,0,0:0:0:0:
195,278,107253,1,0,0:0:0:0:
352,228,107350,1,0,0:0:0:0:
224,123,107448,5,0,0:0:0:0:
224,123,107545,1,0,0:0:0:0:
224,123,107642,1,0,0:0:0:0:
195,278,107740,1,0,0:0:0:0:
352,228,107837,1,0,0:0:0:0:
195,278,107935,1,0,0:0:0:0:
224,123,108032,1,0,0:0:0:0:
195,278,108129,5,0,0:0:0:0:
195,278,108227,1,0,0:0:0:0:
195,278,108324,1,0,0:0:0:0:
352,228,108422,1,0,0:0:0:0:
224,123,108519,1,0,0:0:0:0:
195,278,108616,1,0,0:0:0:0:
352,228,108714,1,0,0:0:0:0:
224,123,108811,1,0,0:0:0:0:
99,124,108909,6,0,L|174:170,1,70
413,124,109103,6,0,L|338:170,1,70
254,192,109298,1,0,0:0:0:0:
190,271,109396,2,0,L|140:324,1,70
328,270,109590,2,0,L|383:321,1,70
256,245,109785,5,0,0:0:0:0:
255,175,109883,1,0,0:0:0:0:
256,105,109980,1,0,0:0:0:0:
155,98,110077,5,0,0:0:0:0:
71,177,110175,1,0,0:0:0:0:
151,252,110272,1,0,0:0:0:0:
454,343,110370,6,0,L|422:320,2,35
464,46,110759,2,0,L|430:70,2,35
43,43,111149,2,0,L|83:67,2,35
50,341,111538,2,0,L|87:322,2,35
430,89,111928,5,0,0:0:0:0:
432,177,112025,1,0,0:0:0:0:
434,262,112123,1,0,0:0:0:0:
365,330,112220,2,0,L|294:295,1,70
165,158,112415,5,0,0:0:0:0:
312,195,112512,1,0,0:0:0:0:
165,158,112610,1,0,0:0:0:0:
312,195,112707,1,0,0:0:0:0:
265,83,112805,5,0,0:0:0:0:
208,273,112902,1,0,0:0:0:0:
265,83,113000,1,0,0:0:0:0:
265,83,113097,1,0,0:0:0:0:
265,83,113194,1,0,0:0:0:0:
255,190,113292,6,0,L|255:280,1,70
137,294,113487,6,0,L|192:258,2,35
384,305,113876,2,0,L|361:271,2,35
391,80,114266,2,0,L|342:123,2,35
118,83,114558,2,0,L|154:111,2,35
257,198,114850,2,0,L|257:144,2,35
255,293,115045,5,0,0:0:0:0:
170,149,115142,1,0,0:0:0:0:
340,149,115240,1,0,0:0:0:0:
399,242,115337,2,0,L|349:331,1,70
163,317,115532,2,0,L|116:245,1,70
163,317,115727,2,0,L|120:253,1,70
98,171,115922,5,0,0:0:0:0:
134,88,116019,1,0,0:0:0:0:
213,48,116117,1,0,0:0:0:0:
254,151,116214,6,0,L|254:239,1,70
254,305,116409,1,0,0:0:0:0:
251,62,116506,1,0,0:0:0:0:
256,191,116603,2,0,L|209:192,4,35
256,191,116993,2,0,L|306:191,2,35
256,191,117334,2,0,L|255:135,2,35
256,191,117577,2,0,L|256:254,1,35
256,191,117772,2,0,L|256:246,1,35
82,77,118162,6,0,L|88:173,1,70
128,274,118357,1,0,0:0:0:0:
288,329,118454,1,0,0:0:0:0:
259,179,118551,1,0,0:0:0:0:
207,324,118649,6,0,L|302:336,1,70
408,328,118844,1,0,0:0:0:0:
453,176,118941,1,0,0:0:0:0:
311,222,119038,1,0,0:0:0:0:
434,217,119136,6,0,L|433:140,1,70
345,55,119331,1,0,0:0:0:0:
237,140,119428,1,0,0:0:0:0:
375,186,119525,1,0,0:0:0:0:
345,55,119623,1,0,0:0:0:0:
255,53,119720,6,0,L|255:113,2,35
89,195,119915,2,0,L|135:195,1,35
89,195,120012,2,0,L|90:144,1,35
89,195,120110,2,0,L|86:250,1,35
89,195,120207,2,0,L|44:195,1,35
398,193,120500,6,0,L|442:193,1,35
398,193,120597,2,0,L|335:195,1,35
398,193,120694,2,0,L|397:142,1,35
255,296,120889,2,0,L|255:260,1,35
255,296,120987,2,0,L|259:354,1,35
255,296,121084,2,0,L|190:298,1,35
130,72,121279,5,0,0:0:0:0:
82,149,121376,1,0,0:0:0:0:
93,237,121474,1,0,0:0:0:0:
152,309,121571,2,0,L|246:317,1,70
402,301,121766,5,0,0:0:0:0:
428,218,121863,1,0,0:0:0:0:
394,130,121961,1,0,0:0:0:0:
299,89,122058,2,0,L|272:180,1,70
226,280,122253,5,0,0:0:0:0:
96,322,122350,1,0,0:0:0:0:
103,190,122448,1,0,0:0:0:0:
235,145,122545,2,0,L|312:114,1,70
103,190,122740,5,0,0:0:0:0:
96,322,122837,1,0,0:0:0:0:
226,280,122935,1,0,0:0:0:0:
332,232,123032,2,0,L|403:197,1,70
254,71,123227,5,0,0:0:0:0:
257,184,123324,1,0,0:0:0:0:
255,304,123422,1,0,0:0:0:0:
375,273,123519,6,0,L|430:210,1,70
154,56,123714,2,0,L|94:124,1,70
124,259,123909,2,0,L|193:322,1,70
395,108,124103,2,0,L|328:53,1,70
228,58,124298,5,0,0:0:0:0:
147,102,124396,1,0,0:0:0:0:
93,185,124493,1,0,0:0:0:0:
225,343,124590,6,0,L|306:320,1,70
364,271,124785,1,0,0:0:0:0:
412,193,124883,1,0,0:0:0:0:
417,103,124980,1,0,0:0:0:0:
265,59,125077,6,0,L|189:89,1,70
117,168,125272,1,0,0:0:0:0:
174,232,125370,1,0,0:0:0:0:
246,285,125467,1,0,0:0:0:0:
257,73,125564,5,0,0:0:0:0:
256,177,125662,1,0,0:0:0:0:
256,177,125759,2,0,L|193:226,1,70
256,177,125954,2,0,L|256:269,1,70
256,177,126149,2,0,L|337:224,1,70
292,144,126344,2,0,B|262:115|190:128|186:184|217:238|276:232|313:186,1,210
251,98,126733,5,0,0:0:0:0:
145,235,126831,1,0,0:0:0:0:
328,265,126928,1,0,0:0:0:0:
328,265,127025,5,0,0:0:0:0:
145,235,127123,1,0,0:0:0:0:
251,98,127220,1,0,0:0:0:0:
251,98,127318,5,0,0:0:0:0:
145,235,127415,1,0,0:0:0:0:
328,265,127512,1,0,0:0:0:0:
251,98,127561,6,0,L|252:155,4,35
251,98,127853,2,0,L|251:150,1,35
125,306,128000,5,0,0:0:0:0:
216,311,128097,1,0,0:0:0:0:
310,310,128194,1,0,0:0:0:0:
403,245,128292,2,0,L|423:144,1,70
308,73,128487,5,0,0:0:0:0:
215,60,128584,1,0,0:0:0:0:
119,43,128681,1,0,0:0:0:0:
45,140,128779,2,0,L|52:220,1,70
304,345,128974,5,0,0:0:0:0:
382,276,129071,1,0,0:0:0:0:
435,189,129168,1,0,0:0:0:0:
419,92,129266,1,0,0:0:0:0:
316,61,129363,2,0,L|259:122,1,70
171,208,129558,5,0,0:0:0:0:
107,318,129655,1,0,0:0:0:0:
240,320,129753,1,0,0:0:0:0:
107,318,129850,1,0,0:0:0:0:
240,320,129948,1,0,0:0:0:0:
356,291,130045,2,0,L|403:214,1,70
396,137,130240,5,0,0:0:0:0:
327,82,130337,1,0,0:0:0:0:
202,82,130435,1,0,0:0:0:0:
132,134,130532,1,0,0:0:0:0:
165,264,130629,5,0,0:0:0:0:
284,313,130727,1,0,0:0:0:0:
270,188,130824,1,0,0:0:0:0:
143,68,130922,5,0,0:0:0:0:
73,204,131019,1,0,0:0:0:0:
222,180,131116,1,0,0:0:0:0:
370,156,131214,5,0,0:0:0:0:
481,84,131312,1,0,0:0:0:0:
359,33,131409,1,0,0:0:0:0:
250,80,131506,5,0,0:0:0:0:
254,189,131603,1,0,0:0:0:0:
257,296,131701,1,0,0:0:0:0:
257,296,131798,2,0,L|257:224,1,70
195,109,131993,5,0,0:0:0:0:
86,68,132090,1,0,0:0:0:0:
44,176,132188,1,0,0:0:0:0:
156,218,132285,1,0,0:0:0:0:
341,213,132383,5,0,0:0:0:0:
454,174,132480,1,0,0:0:0:0:
405,63,132577,1,0,0:0:0:0:
308,106,132675,1,0,0:0:0:0:
249,211,132772,6,0,L|250:297,1,70
252,294,132967,5,0,0:0:0:0:
253,298,133016,1,0,0:0:0:0:
254,304,133064,1,0,0:0:0:0:
255,310,133113,1,0,0:0:0:0:
257,317,133162,1,0,0:0:0:0:
258,323,133211,1,0,0:0:0:0:
259,329,133259,1,0,0:0:0:0:
261,336,133308,1,0,0:0:0:0:
263,344,133357,1,0,0:0:0:0:
