osu file format v14

[General]
AudioFilename: audio.mp3
AudioLeadIn: 0
PreviewTime: 21530
Countdown: 0
SampleSet: Normal
StackLeniency: 0.7
Mode: 0
LetterboxInBreaks: 0
WidescreenStoryboard: 0

[Editor]
Bookmarks: 21530,26594,27568,28153,33997,39841,39939,40231,45685,46465,48023,49581,50361,51140,52698,54257,55815,57374,58348,58542,58932,63997,65166,69841,71400,76465,77633,82309,83867,92828,95555,96335,101010,101789,107244,108802,110361,111919,113478,115036,116594,118153,119711,121270,126335,127504,132958,133348
DistanceSpacing: 1
BeatDivisor: 4
GridSize: 4
TimelineZoom: 3.999999

[Metadata]
Title:All I Wanna Do Is Touch Your Power Points
TitleUnicode:All I Wanna Do Is Touch Your Power Points
Artist:LOLI RIPE
ArtistUnicode:LOLI RIPE
Creator:Cubex
Version:BEX
Source:
Tags:
BeatmapID:2191965
BeatmapSetID:1048706

[Difficulty]
HPDrainRate:7
CircleSize:4
OverallDifficulty:7
ApproachRate:10
SliderMultiplier:1.8
SliderTickRate:1

[Events]
//Background and Video events
0,0,"All I Wanna Do.jpg",0,0
//Break Periods
2,84067,92378
//Storyboard Layer 0 (Background)
//Storyboard Layer 1 (Fail)
//Storyboard Layer 2 (Pass)
//Storyboard Layer 3 (Foreground)
//Storyboard Layer 4 (Overlay)
//Storyboard Sound Samples

[TimingPoints]
21530,194.805194805195,4,1,0,50,1,0
21530,-100,4,1,0,50,0,1
26594,-100,4,2,0,5,0,1
27763,-100,4,1,0,50,0,1
33997,-100,4,1,0,50,0,0
39841,-200,4,2,0,5,0,0
40231,-100,4,1,0,50,0,0
45685,-100,4,2,0,50,0,0
46465,-100,4,1,0,50,0,0
48607,-66.6666666666667,4,1,0,50,0,0
48705,-100,4,1,0,50,0,0
48997,-66.6666666666667,4,1,0,50,0,0
49094,-100,4,1,0,50,0,0
51530,-66.6666666666667,4,1,0,50,0,0
51724,-100,4,1,0,50,0,0
58542,-66.6666666666667,4,2,0,5,0,0
58932,-100,4,1,0,50,0,1
63997,-100,4,2,0,5,0,1
65166,-100,4,1,0,50,0,1
76465,-100,4,2,0,5,0,1
77633,-100,4,1,0,50,0,1
83867,-100,4,1,0,50,0,0
92828,-100,4,2,0,5,0,0
95555,-100,4,1,0,50,0,0
107633,-66.6666666666667,4,1,0,50,0,0
107731,-100,4,1,0,50,0,0
108413,-66.6666666666667,4,1,0,50,0,0
108510,-100,4,1,0,50,0,0
111140,-66.6666666666667,4,1,0,50,0,0
111237,-100,4,1,0,50,0,0
111530,-66.6666666666667,4,1,0,50,0,0
111627,-100,4,1,0,50,0,0
114549,-66.6666666666667,4,1,0,50,0,0
114646,-100,4,1,0,50,0,0
114841,-66.6666666666667,4,1,0,50,0,0
114939,-100,4,1,0,50,0,0
116984,-66.6666666666667,4,1,0,50,0,0
117276,-100,4,1,0,50,0,0
121270,-100,4,1,0,50,0,1
126335,-100,4,2,0,5,0,1
127504,-100,4,1,0,50,0,1
130620,-100,4,2,0,50,0,1
132958,-66.6666666666667,4,2,0,50,0,1
133348,-66.6666666666667,4,2,0,50,0,0

[Colours]
Combo1 : 112,157,226
Combo2 : 163,50,103

[HitObjects]
76,268,21530,6,0,P|120:256|164:268,1,90,4|0,0:0|0:0,0:0:0:0:
336,304,21724,2,0,L|356:216,1,90
376,128,21919,2,0,L|420:124,2,45
256,64,22114,2,0,L|212:68,2,45
268,152,22309,5,8,0:0:0:0:
188,192,22406,1,0,0:0:0:0:
108,148,22504,2,0,L|92:56,1,90,8|0,0:0|0:0,0:0:0:0:
40,232,22698,2,0,L|24:140,1,90,8|0,0:0|0:0,0:0:0:0:
112,348,22893,2,0,L|128:256,1,90,2|0,0:0|0:0,0:0:0:0:
188,192,23088,5,4,0:0:0:0:
204,184,23185,1,0,0:0:0:0:
220,176,23283,2,0,L|236:88,1,90
320,52,23478,2,0,L|364:44,2,45
440,116,23672,2,0,L|484:108,2,45
352,220,23867,6,0,P|360:172|352:132,1,90,8|0,0:0|0:0,0:0:0:0:
256,344,24062,2,0,P|248:296|256:256,1,90,8|0,0:0|0:0,0:0:0:0:
220,176,24257,1,8,0:0:0:0:
136,144,24354,1,0,0:0:0:0:
60,192,24452,1,2,0:0:0:0:
60,280,24549,1,0,0:0:0:0:
140,324,24646,6,0,L|152:232,1,90,4|0,0:0|0:0,0:0:0:0:
220,176,24841,2,0,L|232:84,1,90
320,52,25036,2,0,L|364:44,2,45
448,104,25231,2,0,L|492:96,2,45
384,224,25426,6,0,L|360:136,1,90,8|0,0:0|0:0,0:0:0:0:
429,302,25620,2,0,P|387:315|344:304,1,90,8|0,0:0|0:0,0:0:0:0:
272,248,25815,1,8,0:0:0:0:
264,232,25913,1,0,0:0:0:0:
256,216,26010,2,0,L|164:212,1,90,2|0,0:0|0:0,0:0:0:0:
360,136,26205,6,0,L|368:92,2,45,4|0|0,0:0|0:0|0:0,0:0:0:0:
166,212,26400,2,0,L|158:168,2,45
256,192,26594,12,0,27568,0:0:0:0:
332,192,27763,6,0,L|352:152,2,45,6|0|0,0:0|0:0|0:0,0:0:0:0:
340,284,27958,2,0,L|360:324,2,45,2|0|0,0:0|0:0|0:0,0:0:0:0:
168,252,28153,2,0,B|212:244|212:244|256:252,1,90
99,298,28348,2,0,P|87:254|99:210,1,90
80,124,28542,5,8,0:0:0:0:
148,64,28640,1,0,0:0:0:0:
232,96,28737,2,0,L|324:84,1,90,8|0,0:0|0:0,0:0:0:0:
256,252,28932,1,8,0:0:0:0:
252,236,29030,1,0,0:0:0:0:
248,220,29127,2,0,L|340:208,1,90,2|0,0:0|0:0,0:0:0:0:
428,196,29322,5,4,0:0:0:0:
476,120,29419,1,0,0:0:0:0:
432,40,29517,1,0,0:0:0:0:
344,40,29614,1,0,0:0:0:0:
296,116,29711,2,0,L|252:124,2,45
212,328,29906,2,0,L|256:320,2,45
132,288,30101,6,0,L|116:200,1,90,8|0,0:0|0:0,0:0:0:0:
288,252,30296,2,0,B|332:240|332:240|376:252,1,90,8|0,0:0|0:0,0:0:0:0:
456,288,30491,1,8,0:0:0:0:
460,272,30588,1,0,0:0:0:0:
464,256,30685,2,0,L|448:168,1,90,2|0,0:0|0:0,0:0:0:0:
296,116,30880,6,0,P|340:104|384:116,1,90,6|0,0:0|0:0,0:0:0:0:
220,200,31075,1,0,0:0:0:0:
212,184,31172,1,0,0:0:0:0:
204,168,31270,2,0,L|192:76,1,90,2|0,0:0|0:0,0:0:0:0:
136,252,31465,1,0,0:0:0:0:
64,196,31562,1,0,0:0:0:0:
92,112,31659,2,0,L|80:20,1,90,2|0,0:0|0:0,0:0:0:0:
204,168,31854,6,0,P|248:176|292:168,1,90
468,128,32049,2,0,P|424:120|380:128,1,90,2|0,0:0|0:0,0:0:0:0:
348,308,32244,2,0,L|364:220,1,90
204,168,32439,2,0,L|220:80,1,90,6|0,0:0|0:0,0:0:0:0:
308,56,32633,1,0,0:0:0:0:
324,48,32731,1,0,0:0:0:0:
340,40,32828,2,0,B|384:48|384:48|432:40,1,90,2|0,0:0|0:0,0:0:0:0:
476,216,33023,2,0,L|456:128,1,90,2|0,0:0|0:0,0:0:0:0:
404,276,33218,6,0,L|413:321,2,45,8|0|0,0:0|0:0|0:0,0:0:0:0:
256,172,33413,2,0,L|247:127,2,45,8|0|0,0:0|0:0|0:0,0:0:0:0:
488,304,33607,2,0,L|497:349,2,45,8|0|0,0:0|0:0|0:0,0:0:0:0:
172,144,33802,2,0,L|163:99,2,45,8|0|0,0:0|0:0|0:0,0:0:0:0:
96,192,33997,6,0,L|76:104,1,90,4|0,0:0|0:0,0:0:0:0:
136,276,34192,2,0,B|180:284|180:284|224:276,1,90
312,260,34387,1,2,0:0:0:0:
320,244,34484,1,0,0:0:0:0:
328,228,34581,2,0,L|420:220,1,90,2|0,0:0|0:0,0:0:0:0:
300,152,34776,6,0,P|308:104|300:64,1,90
96,192,34971,2,0,L|184:176,1,90,2|0,0:0|0:0,0:0:0:0:
417,220,35166,1,0,0:0:0:0:
413,204,35263,1,0,0:0:0:0:
409,188,35361,2,0,L|393:100,1,90,2|0,0:0|0:0,0:0:0:0:
381,291,35555,6,0,P|425:299|467:286,1,90
300,216,35750,2,0,P|256:208|214:221,1,90,2|0,0:0|0:0,0:0:0:0:
276,340,35945,2,0,L|264:296,2,45
224,120,36140,1,2,0:0:0:0:
220,104,36237,1,0,0:0:0:0:
216,88,36335,6,0,L|124:80,1,90
304,44,36530,2,0,L|396:52,1,90,8|0,0:0|0:0,0:0:0:0:
428,228,36724,2,0,P|436:180|428:140,1,90,8|0,0:0|0:0,0:0:0:0:
328,292,36919,1,0,0:0:0:0:
312,300,37017,1,0,0:0:0:0:
296,308,37114,6,0,L|280:220,1,90
204,172,37309,1,0,0:0:0:0:
128,220,37406,1,0,0:0:0:0:
174,297,37504,2,0,P|130:309|82:297,1,90,2|0,0:0|0:0,0:0:0:0:
204,172,37698,2,0,L|192:128,2,45,2|0|0,0:0|0:0|0:0,0:0:0:0:
280,220,37893,6,0,L|300:132,1,90
368,192,38088,1,2,0:0:0:0:
372,176,38185,1,0,0:0:0:0:
376,160,38283,2,0,L|396:72,1,90
448,248,38478,2,0,L|468:156,1,90,2|0,0:0|0:0,0:0:0:0:
364,316,38672,6,0,B|320:324|320:324|276:316,1,90
280,220,38867,1,0,0:0:0:0:
188,216,38965,1,0,0:0:0:0:
180,304,39062,2,0,L|132:300,2,45,8|0|0,0:0|0:0|0:0,0:0:0:0:
376,160,39257,2,0,L|424:164,2,45,8|0|0,0:0|0:0|0:0,0:0:0:0:
292,128,39452,6,0,L|280:36,1,90,8|0,0:0|0:0,0:0:0:0:
116,112,39646,2,0,P|160:104|204:112,1,90,8|0,0:0|0:0,0:0:0:0:
468,72,39841,2,2,L|424:76,1,45,4|2,0:0|0:0,0:0:0:0:
372,336,40231,6,0,L|392:248,1,90
376,160,40426,1,0,0:0:0:0:
304,108,40523,1,0,0:0:0:0:
232,160,40620,2,0,B|188:152|188:152|140:160,1,90,2|0,0:0|0:0,0:0:0:0:
204,328,40815,2,0,L|188:240,1,90,2|0,0:0|0:0,0:0:0:0:
156,60,41010,6,0,L|112:68,2,45
376,160,41205,2,0,L|420:152,2,45,2|0|0,0:0|0:0|0:0,0:0:0:0:
308,328,41400,2,0,L|324:240,1,90
356,64,41594,1,2,0:0:0:0:
340,72,41692,1,0,0:0:0:0:
324,80,41789,6,0,P|280:72|236:80,1,90
192,160,41984,1,2,0:0:0:0:
236,240,42081,1,0,0:0:0:0:
324,239,42179,2,0,L|368:231,2,45
164,324,42374,2,0,L|120:320,2,45,2|0|0,0:0|0:0|0:0,0:0:0:0:
344,340,42568,6,0,L|252:332,1,90
76,192,42763,2,0,L|168:200,1,90,8|0,0:0|0:0,0:0:0:0:
380,128,42958,2,0,P|388:84|380:40,1,90,8|0,0:0|0:0,0:0:0:0:
456,252,43153,2,0,L|448:344,1,90
248,236,43348,6,0,L|236:144,1,90
188,72,43542,1,0,0:0:0:0:
104,108,43640,1,0,0:0:0:0:
76,192,43737,2,0,L|24:188,2,45,2|0|0,0:0|0:0|0:0,0:0:0:0:
380,128,43932,2,0,L|428:132,2,45,2|0|0,0:0|0:0|0:0,0:0:0:0:
448,341,44127,6,0,L|440:249,1,90
264,300,44322,2,0,P|308:312|352:300,1,90,2|0,0:0|0:0,0:0:0:0:
308,220,44517,1,0,0:0:0:0:
300,204,44614,1,0,0:0:0:0:
292,188,44711,2,0,L|284:96,1,90,2|0,0:0|0:0,0:0:0:0:
368,64,44906,6,0,L|412:56,2,45,8|0|0,0:0|0:0|0:0,0:0:0:0:
192,112,45101,2,0,L|148:120,2,45,8|0|0,0:0|0:0|0:0,0:0:0:0:
416,152,45296,2,0,L|460:144,2,45,8|0|0,0:0|0:0|0:0,0:0:0:0:
196,208,45491,2,0,L|152:216,2,45,8|0|0,0:0|0:0|0:0,0:0:0:0:
416,248,45685,5,2,0:0:0:0:
328,244,45880,1,2,0:0:0:0:
256,300,46075,1,2,0:0:0:0:
168,292,46270,1,2,0:0:0:0:
128,116,46465,6,0,L|144:204,1,90
276,192,46659,1,0,0:0:0:0:
280,176,46757,1,0,0:0:0:0:
284,160,46854,2,0,L|376:152,1,90,2|0,0:0|0:0,0:0:0:0:
344,332,47049,2,0,B|360:260|360:260|348:276,1,90,2|0,0:0|0:0,0:0:0:0:
168,292,47244,6,0,P|212:300|256:292,1,90
212,116,47439,1,2,0:0:0:0:
216,100,47536,1,0,0:0:0:0:
220,84,47633,2,0,L|312:72,1,90
172,192,47828,2,0,L|80:204,1,90,2|0,0:0|0:0,0:0:0:0:
308,232,48023,6,0,L|352:224,2,45,8|0|0,0:0|0:0|0:0,0:0:0:0:
436,280,48218,2,0,L|452:192,1,90
172,192,48413,2,0,L|128:184,2,45,8|0|0,0:0|0:0|0:0,0:0:0:0:
428,108,48607,2,0,P|364:84|304:108,1,135.000005149842
436,280,48802,6,0,L|464:316,2,45,8|0|0,0:0|0:0|0:0,0:0:0:0:
168,328,48997,2,0,B|278:328|278:328|252:328,1,135.000005149842
428,108,49192,2,0,L|472:96,2,45,8|0|0,0:0|0:0|0:0,0:0:0:0:
336,264,49387,2,0,B|372:200|372:200|372:216,1,90
92,288,49581,6,0,L|80:196,1,90,4|0,0:0|0:0,0:0:0:0:
260,192,49776,2,0,P|216:202|173:190,1,90
220,112,49971,1,2,0:0:0:0:
228,96,50068,1,0,0:0:0:0:
236,80,50166,2,0,L|324:64,1,90,2|0,0:0|0:0,0:0:0:0:
472,172,50361,6,0,L|384:188,1,90
336,264,50555,1,2,0:0:0:0:
384,340,50653,1,0,0:0:0:0:
472,336,50750,2,0,L|480:292,2,45
472,172,50945,2,0,L|480:124,2,45,2|0|0,0:0|0:0|0:0,0:0:0:0:
256,232,51140,6,0,L|244:276,2,45,8|0|0,0:0|0:0|0:0,0:0:0:0:
256,96,51335,2,0,L|244:52,2,45,8|0|0,0:0|0:0|0:0,0:0:0:0:
76,192,51530,2,0,B|132:156|188:192|188:192|172:184,2,135.000005149842,8|0|0,0:0|0:0|0:0,0:0:0:0:
133,261,51822,1,8,0:0:0:0:
137,278,51919,6,0,L|149:322,1,45
416,276,52114,2,0,L|424:232,1,45,8|0,0:0|0:0,0:0:0:0:
76,192,52309,2,0,L|64:148,2,45,8|0|0,0:0|0:0|0:0,0:0:0:0:
440,144,52601,1,8,0:0:0:0:
264,116,52698,6,0,P|304:104|352:116,1,90,4|0,0:0|0:0,0:0:0:0:
320,296,52893,2,0,B|308:224|308:224|304:240,1,90
224,348,53088,1,2,0:0:0:0:
220,332,53185,1,0,0:0:0:0:
216,316,53283,2,0,L|124:308,1,90,2|0,0:0|0:0,0:0:0:0:
112,172,53478,5,0,0:0:0:0:
176,108,53575,1,0,0:0:0:0:
264,116,53672,2,0,P|304:104|352:116,1,90,2|0,0:0|0:0,0:0:0:0:
372,204,53867,1,0,0:0:0:0:
376,220,53965,1,0,0:0:0:0:
380,236,54062,2,0,L|472:240,1,90,2|0,0:0|0:0,0:0:0:0:
244,232,54257,5,8,0:0:0:0:
264,116,54452,1,8,0:0:0:0:
260,100,54549,1,8,0:0:0:0:
256,84,54646,1,8,0:0:0:0:
296,296,54841,1,8,0:0:0:0:
300,312,54938,1,8,0:0:0:0:
304,328,55035,5,8,0:0:0:0:
404,116,55231,1,8,0:0:0:0:
448,192,55328,1,8,0:0:0:0:
408,272,55426,1,8,0:0:0:0:
52,244,55620,2,0,L|40:200,2,45,8|0|0,0:0|0:0|0:0,0:0:0:0:
232,216,55815,6,0,B|188:224|188:224|144:216,1,90,8|0,0:0|0:0,0:0:0:0:
188,88,56010,1,0,0:0:0:0:
192,72,56107,1,0,0:0:0:0:
196,56,56205,2,0,L|288:52,1,90,2|0,0:0|0:0,0:0:0:0:
448,140,56400,2,0,P|404:128|360:140,1,90,2|0,0:0|0:0,0:0:0:0:
408,272,56594,5,0,0:0:0:0:
404,256,56692,1,0,0:0:0:0:
400,240,56789,2,0,L|308:244,1,90,2|0,0:0|0:0,0:0:0:0:
236,296,56984,1,0,0:0:0:0:
168,236,57081,1,0,0:0:0:0:
196,56,57179,2,0,B|216:132|216:132|213:120,1,90,2|0,0:0|0:0,0:0:0:0:
340,172,57374,6,0,L|316:84,2,90,8|0|0,0:0|0:0|0:0,0:0:0:0:
345,189,57666,1,8,0:0:0:0:
351,205,57763,1,0,0:0:0:0:
380,292,57861,1,0,0:0:0:0:
300,336,57958,2,0,B|256:328|256:328|212:336,1,90,8|0,0:0|0:0,0:0:0:0:
168,256,58153,6,0,L|152:212,1,45,8|0,0:0|0:0,0:0:0:0:
380,292,58348,2,0,L|396:336,1,45,8|0,0:0|0:0,0:0:0:0:
312,152,58542,2,0,P|268:60|244:168,1,270.000010299683
412,132,58932,6,0,L|428:88,2,45,6|0|0,0:0|0:0|0:0,0:0:0:0:
412,224,59127,2,0,L|428:268,2,45,2|0|2,0:0|0:0|0:0,0:0:0:0:
364,352,59322,2,0,L|336:264,1,90
156,240,59517,2,0,P|200:248|244:240,1,90
68,280,59711,6,0,L|84:192,1,90,8|0,0:0|0:0,0:0:0:0:
104,104,59906,1,8,0:0:0:0:
192,128,60004,1,0,0:0:0:0:
256,68,60101,2,0,B|300:60|300:60|344:68,1,90,8|0,0:0|0:0,0:0:0:0:
368,252,60296,1,2,0:0:0:0:
376,236,60393,1,0,0:0:0:0:
384,220,60491,6,0,L|476:208,1,90,4|0,0:0|0:0,0:0:0:0:
348,336,60685,2,0,L|256:348,1,90
88,292,60880,2,0,L|180:280,1,90
256,116,61075,2,0,P|264:160|256:204,1,90
120,192,61270,1,8,0:0:0:0:
124,176,61367,1,0,0:0:0:0:
128,160,61465,6,0,L|148:72,1,90,8|0,0:0|0:0,0:0:0:0:
368,40,61659,2,0,P|324:48|280:40,1,90,8|0,0:0|0:0,0:0:0:0:
324,260,61854,1,2,0:0:0:0:
320,244,61951,1,0,0:0:0:0:
316,228,62049,6,0,L|296:140,1,90,4|0,0:0|0:0,0:0:0:0:
128,160,62244,2,0,L|84:156,2,45
212,320,62439,2,0,L|256:324,2,45
432,272,62633,2,0,B|420:348|420:348|422:331,1,90
452,156,62828,6,0,B|464:80|464:80|462:97,1,90,8|0,0:0|0:0,0:0:0:0:
376,116,63023,1,8,0:0:0:0:
304,168,63120,1,0,0:0:0:0:
340,344,63218,2,0,L|324:256,1,90,8|0,0:0|0:0,0:0:0:0:
144,284,63413,2,0,B|188:292|188:292|232:284,1,90,2|0,0:0|0:0,0:0:0:0:
188,156,63607,6,0,L|180:112,2,45
376,116,63802,2,0,L|384:72,2,45
256,192,63997,12,0,64971,0:0:0:0:
72,312,65166,5,4,0:0:0:0:
76,296,65263,1,2,0:0:0:0:
80,280,65361,1,2,0:0:0:0:
84,264,65458,1,2,0:0:0:0:
88,248,65555,2,0,L|180:240,1,90
256,132,65750,2,0,L|164:140,1,90
280,212,65945,5,8,0:0:0:0:
288,228,66042,1,0,0:0:0:0:
296,244,66140,2,0,L|388:236,1,90,8|0,0:0|0:0,0:0:0:0:
476,224,66335,1,8,0:0:0:0:
496,136,66432,1,0,0:0:0:0:
424,80,66530,1,2,0:0:0:0:
352,136,66627,1,0,0:0:0:0:
166,139,66724,6,0,L|256:132,1,90,4|0,0:0|0:0,0:0:0:0:
84,188,66919,2,0,P|72:144|80:100,1,90
148,40,67114,2,0,L|192:36,2,45
364,40,67309,2,0,L|320:36,2,45
448,252,67504,6,0,L|416:168,1,90,8|0,0:0|0:0,0:0:0:0:
240,204,67698,2,0,B|284:212|284:212|328:204,1,90,8|0,0:0|0:0,0:0:0:0:
160,140,67893,2,0,B|116:132|116:132|72:140,1,90,8|0,0:0|0:0,0:0:0:0:
84,320,68088,1,2,0:0:0:0:
88,304,68185,1,0,0:0:0:0:
92,288,68283,6,0,B|112:212|112:212|108:232,1,90,2|0,0:0|0:0,0:0:0:0:
212,312,68478,2,0,P|256:320|300:312,1,90
424,180,68672,2,0,L|376:256,1,90,2|0,0:0|0:0,0:0:0:0:
364,120,68867,2,0,L|412:44,1,90
472,112,69062,5,2,0:0:0:0:
480,96,69159,1,0,0:0:0:0:
488,80,69257,1,0,0:0:0:0:
496,64,69354,1,0,0:0:0:0:
484,244,69452,2,0,L|463:284,2,45,2|0|0,0:0|0:0|0:0,0:0:0:0:
264,192,69646,2,0,L|243:152,2,45
196,76,69841,5,6,0:0:0:0:
348,300,70036,1,0,0:0:0:0:
188,84,70231,1,2,0:0:0:0:
360,292,70426,1,2,0:0:0:0:
92,320,70620,6,0,L|104:228,1,90,8|0,0:0|0:0,0:0:0:0:
264,192,70815,2,0,L|275:102,1,90,8|0,0:0|0:0,0:0:0:0:
102,85,71010,2,0,P|146:73|190:85,1,90,8|0,0:0|0:0,0:0:0:0:
360,292,71205,2,0,P|316:304|272:292,1,90,8|0,0:0|0:0,0:0:0:0:
448,248,71400,6,0,L|459:158,1,90,4|0,0:0|0:0,0:0:0:0:
472,68,71594,1,0,0:0:0:0:
392,28,71692,1,0,0:0:0:0:
324,88,71789,1,0,0:0:0:0:
360,172,71887,1,0,0:0:0:0:
184,212,71984,2,0,B|228:224|228:224|272:212,1,90
96,264,72179,6,0,L|88:172,1,90,8|0,0:0|0:0,0:0:0:0:
80,84,72374,1,8,0:0:0:0:
84,68,72471,1,0,0:0:0:0:
88,52,72568,2,0,L|180:44,1,90,8|0,0:0|0:0,0:0:0:0:
140,336,72763,2,0,P|96:348|52:336,1,90,2|0,0:0|0:0,0:0:0:0:
184,212,72958,6,0,L|208:124,1,90,4|0,0:0|0:0,0:0:0:0:
292,96,73153,2,0,L|336:108,2,45
420,136,73348,1,0,0:0:0:0:
424,152,73445,1,0,0:0:0:0:
428,168,73542,2,0,L|448:256,1,90
388,324,73737,6,0,B|344:316|344:316|300:324,1,90,8|0,0:0|0:0,0:0:0:0:
132,256,73932,2,0,B|176:264|176:264|220:256,1,90,8|0,0:0|0:0,0:0:0:0:
108,176,74127,1,8,0:0:0:0:
104,160,74224,1,0,0:0:0:0:
100,144,74322,2,0,L|192:136,1,90,2|0,0:0|0:0,0:0:0:0:
280,124,74517,6,0,L|324:120,2,45,4|0|0,0:0|0:0|0:0,0:0:0:0:
132,256,74711,2,0,L|88:260,2,45
360,268,74906,2,0,L|372:176,1,90
100,144,75101,1,0,0:0:0:0:
96,128,75198,1,0,0:0:0:0:
92,112,75296,6,0,L|184:104,1,90,8|0,0:0|0:0,0:0:0:0:
256,268,75491,2,0,P|264:220|256:176,1,90,8|0,0:0|0:0,0:0:0:0:
388,156,75685,1,8,0:0:0:0:
404,152,75783,1,0,0:0:0:0:
420,148,75880,2,0,L|452:64,1,90,2|0,0:0|0:0,0:0:0:0:
257,179,76075,2,0,L|289:95,1,90
224,264,76270,2,0,L|206:305,2,45
256,192,76465,12,0,77439,0:0:0:0:
360,296,77633,5,12,0:0:0:0:
356,280,77731,1,8,0:0:0:0:
352,264,77828,1,8,0:0:0:0:
348,248,77926,1,8,0:0:0:0:
344,232,78023,2,0,L|252:228,1,90
76,252,78218,2,0,P|120:260|164:252,1,90
216,80,78413,6,0,L|192:168,1,90,8|0,0:0|0:0,0:0:0:0:
416,192,78607,2,0,L|392:104,1,90,8|0,0:0|0:0,0:0:0:0:
436,280,78802,1,8,0:0:0:0:
424,292,78900,1,0,0:0:0:0:
412,304,78997,2,0,L|320:308,1,90,2|0,0:0|0:0,0:0:0:0:
268,236,79192,6,0,P|276:192|268:148,1,90,4|0,0:0|0:0,0:0:0:0:
88,132,79387,2,0,L|180:140,1,90
288,64,79581,2,0,L|332:60,2,45
268,236,79776,2,0,L|224:240,2,45
360,228,79971,6,0,L|376:136,1,90,8|0,0:0|0:0,0:0:0:0:
448,192,80166,2,0,L|464:100,1,90,8|0,0:0|0:0,0:0:0:0:
268,236,80361,1,8,0:0:0:0:
264,220,80458,1,0,0:0:0:0:
260,204,80555,2,0,B|180:200|180:200|196:200,1,90,2|0,0:0|0:0,0:0:0:0:
216,112,80750,5,6,0:0:0:0:
136,68,80848,1,0,0:0:0:0:
64,124,80945,1,0,0:0:0:0:
92,208,81042,1,0,0:0:0:0:
304,132,81140,2,0,L|348:116,2,45,2|0|0,0:0|0:0|0:0,0:0:0:0:
256,308,81335,2,0,L|212:324,2,45
340,276,81530,6,0,L|384:260,2,45,2|0|0,0:0|0:0|0:0,0:0:0:0:
92,208,81724,2,0,L|48:192,2,45
184,200,81919,2,0,L|216:116,1,90,2|0,0:0|0:0,0:0:0:0:
344,68,82114,1,0,0:0:0:0:
352,84,82211,1,0,0:0:0:0:
360,100,82309,6,0,B|404:108|404:108|452:100,1,90,2|0,0:0|0:0,0:0:0:0:
292,192,82504,2,0,B|248:184|248:184|200:192,1,90
380,208,82698,2,0,L|424:216,2,45,2|0|0,0:0|0:0|0:0,0:0:0:0:
300,320,82893,2,0,L|256:329,2,45,2|0|0,0:0|0:0|0:0,0:0:0:0:
120,292,83088,5,8,0:0:0:0:
116,276,83185,1,0,0:0:0:0:
112,260,83283,2,0,L|93:172,1,90,12|0,0:0|0:0,0:0:0:0:
256,88,83478,2,0,P|212:96|168:88,1,90,8|0,0:0|0:0,0:0:0:0:
348,68,83672,2,0,L|392:56,2,45,8|0|0,0:0|0:0|0:0,0:0:0:0:
384,244,83867,1,4,0:0:0:0:
256,192,92828,12,0,94776,0:0:0:0:
256,332,95555,5,8,0:0:0:0:
260,316,95653,1,8,0:0:0:0:
264,300,95750,1,8,0:0:0:0:
268,284,95848,1,8,0:0:0:0:
272,268,95945,2,0,L|364:260,1,90,8|8,0:0|0:0,0:0:0:0:
192,192,96140,2,0,L|100:184,1,90,8|8,0:0|0:0,0:0:0:0:
460,292,96335,6,0,L|444:204,1,90
424,112,96530,1,0,0:0:0:0:
420,96,96627,1,0,0:0:0:0:
416,80,96724,2,0,L|324:68,1,90,2|0,0:0|0:0,0:0:0:0:
256,236,96919,2,0,P|264:192|256:144,1,90,2|0,0:0|0:0,0:0:0:0:
80,192,97114,6,0,B|124:200|124:200|168:192,1,90
168,56,97309,2,0,B|124:48|124:48|80:56,1,90,2|0,0:0|0:0,0:0:0:0:
256,236,97504,2,0,L|300:228,2,45
460,292,97698,2,0,L|416:304,2,45,2|0|0,0:0|0:0|0:0,0:0:0:0:
472,204,97893,6,0,L|480:112,1,90
392,96,98088,1,2,0:0:0:0:
388,80,98185,1,0,0:0:0:0:
384,64,98283,2,0,L|292:60,1,90
256,236,98478,2,0,P|248:192|256:148,1,90,2|0,0:0|0:0,0:0:0:0:
296,324,98672,6,0,L|340:312,2,45
400,176,98867,2,0,L|356:188,2,45,8|0|0,0:0|0:0|0:0,0:0:0:0:
184,108,99062,2,0,P|188:84|184:60,2,45,8|0|0,0:0|0:0|0:0,0:0:0:0:
156,288,99257,2,0,P|152:312|156:336,2,45
96,220,99452,6,0,L|84:128,1,90,4|0,0:0|0:0,0:0:0:0:
256,272,99646,2,0,L|244:182,1,90
284,100,99841,1,2,0:0:0:0:
368,136,99939,1,0,0:0:0:0:
348,224,100036,1,2,0:0:0:0:
356,240,100133,1,0,0:0:0:0:
364,256,100231,6,0,L|456:248,1,90
256,272,100426,2,0,L|164:280,1,90,2|0,0:0|0:0,0:0:0:0:
100,220,100620,1,0,0:0:0:0:
92,204,100718,1,0,0:0:0:0:
84,188,100815,2,0,B|92:144|92:144|84:100,1,90,2|0,0:0|0:0,0:0:0:0:
172,72,101010,6,0,L|216:60,2,45,8|0|0,0:0|0:0|0:0,0:0:0:0:
352,72,101205,2,0,L|308:84,2,45,8|0|0,0:0|0:0|0:0,0:0:0:0:
216,192,101400,2,0,P|220:168|216:144,2,45,8|0|0,0:0|0:0|0:0,0:0:0:0:
356,304,101594,2,0,P|352:328|356:352,2,45,8|0|0,0:0|0:0|0:0,0:0:0:0:
416,236,101789,6,0,L|428:144,1,90,8|0,0:0|0:0,0:0:0:0:
104,304,102081,1,0,0:0:0:0:
124,324,102179,2,0,B|168:332|168:332|212:324,1,90,8|0,0:0|0:0,0:0:0:0:
152,152,102374,2,0,B|164:232|164:232|160:204,1,90,8|8,0:0|0:0,0:0:0:0:
340,200,102568,6,0,B|296:192|296:192|252:200,1,90,4|0,0:0|0:0,0:0:0:0:
380,72,102763,2,0,B|424:80|424:80|468:72,1,90
424,292,102958,1,2,0:0:0:0:
428,276,103055,1,0,0:0:0:0:
432,260,103153,2,0,L|452:172,1,90,2|0,0:0|0:0,0:0:0:0:
344,316,103348,6,0,P|300:304|256:316,1,90
228,140,103542,2,0,L|240:232,1,90,2|0,0:0|0:0,0:0:0:0:
176,292,103737,1,0,0:0:0:0:
96,248,103835,1,0,0:0:0:0:
116,160,103932,2,0,L|104:68,1,90,2|0,0:0|0:0,0:0:0:0:
284,52,104127,6,0,P|240:44|196:52,1,90
312,192,104322,2,0,P|356:200|400:192,1,90,2|0,0:0|0:0,0:0:0:0:
456,124,104517,1,0,0:0:0:0:
460,108,104614,1,0,0:0:0:0:
464,92,104711,2,0,L|376:72,1,90,2|0,0:0|0:0,0:0:0:0:
452,288,104906,6,0,L|476:200,1,90
292,332,105101,2,0,B|336:324|336:324|380:332,1,90,8|0,0:0|0:0,0:0:0:0:
224,244,105296,2,0,B|180:252|180:252|136:244,1,90,8|0,0:0|0:0,0:0:0:0:
92,164,105491,1,0,0:0:0:0:
84,148,105588,1,0,0:0:0:0:
76,132,105685,6,0,L|40:48,1,90,4|0,0:0|0:0,0:0:0:0:
40,232,105880,2,0,L|76:316,1,90
160,344,106075,2,0,P|180:340|204:344,2,45,2|0|0,0:0|0:0|0:0,0:0:0:0:
336,300,106270,2,0,P|316:304|292:300,2,45,2|0|0,0:0|0:0|0:0,0:0:0:0:
412,248,106465,6,0,B|420:204|420:204|412:160,1,90
332,116,106659,1,2,0:0:0:0:
328,100,106757,1,0,0:0:0:0:
324,84,106854,1,0,0:0:0:0:
320,68,106952,1,0,0:0:0:0:
316,52,107049,2,0,P|272:44|228:52,1,90,2|0,0:0|0:0,0:0:0:0:
252,232,107244,6,0,L|240:140,1,90,8|0,0:0|0:0,0:0:0:0:
196,300,107439,2,0,P|176:296|152:300,2,45
356,316,107633,2,0,L|338:183,1,135.000005149842,8|0,0:0|0:0,0:0:0:0:
432,336,107828,2,0,P|452:340|476:336,2,45
460,156,108023,6,0,L|448:248,1,90,8|0,0:0|0:0,0:0:0:0:
416,84,108218,2,0,L|422:40,2,45
192,104,108413,2,0,L|328:92,1,135.000005149842,8|0,0:0|0:0,0:0:0:0:
176,188,108607,2,0,L|170:232,2,45
344,256,108802,6,0,B|300:264|300:264|256:256,1,90
436,280,108997,2,0,B|452:204|452:204|448:224,1,90
372,168,109192,1,2,0:0:0:0:
368,152,109289,1,0,0:0:0:0:
364,136,109387,2,0,L|452:120,1,90,2|0,0:0|0:0,0:0:0:0:
288,52,109581,6,0,L|200:68,1,90
68,192,109776,2,0,L|156:176,1,90,2|0,0:0|0:0,0:0:0:0:
264,324,109971,2,0,P|252:280|264:232,1,90
436,280,110166,2,0,B|392:272|392:272|348:280,1,90,2|0,0:0|0:0,0:0:0:0:
476,196,110361,6,0,L|488:152,2,45,8|0|0,0:0|0:0|0:0,0:0:0:0:
344,72,110555,2,0,B|388:80|388:80|432:72,1,90
256,108,110750,2,0,L|244:64,2,45,8|0|0,0:0|0:0|0:0,0:0:0:0:
204,280,110945,2,0,L|232:192,1,90
128,316,111140,2,0,L|96:328,4,33.7500012874604,8|0|0|0|0,0:0|0:0|0:0|0:0|0:0,0:0:0:0:
347,280,111335,2,0,B|339:236|339:236|347:192,1,90
424,304,111530,2,0,L|456:292,4,33.7500012874604,8|0|0|0|0,0:0|0:0|0:0|0:0|0:0,0:0:0:0:
480,216,111724,6,0,L|492:124,1,90,4|0,0:0|0:0,0:0:0:0:
408,88,111919,1,0,0:0:0:0:
404,72,112017,1,0,0:0:0:0:
400,56,112114,2,0,B|360:48|360:48|312:56,1,90
224,40,112309,1,2,0:0:0:0:
168,108,112406,1,0,0:0:0:0:
216,184,112504,2,0,L|304:164,1,90,2|0,0:0|0:0,0:0:0:0:
168,280,112698,6,0,L|80:300,1,90
256,336,112893,2,0,L|344:316,1,90,2|0,0:0|0:0,0:0:0:0:
432,300,113088,1,0,0:0:0:0:
436,284,113185,1,0,0:0:0:0:
440,268,113283,2,0,L|456:180,1,90,2|0,0:0|0:0,0:0:0:0:
276,152,113478,6,0,B|320:144|320:144|364:152,1,90,8|0,0:0|0:0,0:0:0:0:
200,224,113672,2,0,B|156:232|156:232|112:224,1,90
256,336,113867,2,0,L|280:248,1,90,8|0,0:0|0:0,0:0:0:0:
388,65,114062,2,0,L|364:153,1,90
144,100,114257,2,0,B|188:92|188:92|232:100,2,90,8|0|0,0:0|0:0|0:0,0:0:0:0:
68,156,114549,2,0,L|48:184,3,33.7500012874604,8|0|0|0,0:0|0:0|0:0|0:0,0:0:0:0:
272,184,114841,2,0,L|288:152,3,33.7500012874604,8|0|0|0,0:0|0:0|0:0|0:0,0:0:0:0:
412,140,115036,6,0,B|456:132|456:132|500:140,1,90,4|0,0:0|0:0,0:0:0:0:
344,48,115231,2,0,B|300:56|300:56|256:48,1,90
140,188,115426,1,2,0:0:0:0:
144,172,115523,1,0,0:0:0:0:
148,156,115620,2,0,L|168:68,1,90,2|0,0:0|0:0,0:0:0:0:
256,228,115815,6,0,L|236:316,1,90
332,160,116010,2,0,P|376:148|420:160,1,90,2|0,0:0|0:0,0:0:0:0:
412,340,116205,1,0,0:0:0:0:
420,324,116302,1,0,0:0:0:0:
428,308,116400,2,0,B|460:236|460:236|456:248,1,90,2|0,0:0|0:0,0:0:0:0:
304,84,116594,5,8,0:0:0:0:
296,68,116692,1,8,0:0:0:0:
288,52,116789,2,0,L|197:46,1,90,8|0,0:0|0:0,0:0:0:0:
140,124,116984,2,0,P|56:208|176:136,1,405.000015449525,8|0,0:0|0:0,0:0:0:0:
206,172,117374,6,0,L|296:180,1,90,8|0,0:0|0:0,0:0:0:0:
476,196,117568,2,0,L|386:188,1,90,8|0,0:0|0:0,0:0:0:0:
220,260,117763,2,0,L|306:263,1,90,8|0,0:0|0:0,0:0:0:0:
464,104,117958,2,0,L|374:96,1,90,8|0,0:0|0:0,0:0:0:0:
220,260,118153,5,8,0:0:0:0:
224,244,118250,1,8,0:0:0:0:
228,228,118348,1,8,0:0:0:0:
288,60,118542,1,8,0:0:0:0:
284,76,118639,1,8,0:0:0:0:
280,92,118737,1,8,0:0:0:0:
384,340,118932,5,8,0:0:0:0:
380,324,119029,1,8,0:0:0:0:
376,308,119127,1,8,0:0:0:0:
372,292,119224,1,8,0:0:0:0:
368,276,119322,2,0,B|324:268|324:268|280:276,1,90,2|0,0:0|0:0,0:0:0:0:
120,192,119517,2,0,B|164:200|164:200|208:192,1,90,2|0,0:0|0:0,0:0:0:0:
296,164,119711,6,0,L|304:72,1,90,8|0,0:0|0:0,0:0:0:0:
392,48,119906,1,8,0:0:0:0:
452,116,120004,1,8,0:0:0:0:
400,188,120101,1,8,0:0:0:0:
404,204,120198,1,8,0:0:0:0:
408,220,120296,1,8,0:0:0:0:
64,324,120491,5,8,0:0:0:0:
60,308,120588,1,8,0:0:0:0:
56,292,120686,1,8,0:0:0:0:
176,52,120880,1,8,0:0:0:0:
152,140,120978,1,8,0:0:0:0:
224,192,121075,1,8,0:0:0:0:
296,140,121172,1,8,0:0:0:0:
268,52,121270,6,0,P|288:48|312:52,2,45,2|0|0,0:0|0:0|0:0,0:0:0:0:
444,100,121465,2,0,P|421:104|399:100,2,45,2|0|0,0:0|0:0|0:0,0:0:0:0:
472,276,121659,2,0,L|460:184,1,90
392,304,121854,2,0,L|380:212,1,90
40,276,122049,6,0,L|52:184,1,90,8|0,0:0|0:0,0:0:0:0:
120,304,122244,2,0,L|132:212,1,90,8|0,0:0|0:0,0:0:0:0:
144,124,122439,1,8,0:0:0:0:
152,108,122536,1,0,0:0:0:0:
160,92,122633,2,0,B|204:84|204:84|248:92,1,90,2|0,0:0|0:0,0:0:0:0:
300,268,122828,6,0,B|256:276|256:276|212:268,1,90,4|0,0:0|0:0,0:0:0:0:
380,214,123023,2,0,L|388:122,1,90
464,236,123218,2,0,L|472:144,1,90
444,60,123413,1,0,0:0:0:0:
356,44,123510,1,0,0:0:0:0:
300,116,123607,6,0,B|256:108|256:108|212:116,1,90,8|0,0:0|0:0,0:0:0:0:
176,296,123802,2,0,L|192:204,1,90,8|0,0:0|0:0,0:0:0:0:
124,40,123997,2,0,L|108:132,1,90,8|0,0:0|0:0,0:0:0:0:
80,260,124192,1,2,0:0:0:0:
84,244,124289,1,0,0:0:0:0:
176,296,124387,6,0,B|220:288|220:288|264:296,1,90,4|0,0:0|0:0,0:0:0:0:
412,192,124581,2,0,B|368:200|368:200|324:192,1,90
240,156,124776,1,0,0:0:0:0:
244,140,124874,1,0,0:0:0:0:
248,124,124971,2,0,L|268:36,1,90
104,192,125166,6,0,P|72:172|104:152,1,90,8|0,0:0|0:0,0:0:0:0:
412,192,125361,2,0,P|444:172|412:152,1,90,8|0,0:0|0:0,0:0:0:0:
124,276,125555,2,0,B|144:284|144:284|180:272|212:284,1,90,8|0,0:0|0:0,0:0:0:0:
388,276,125750,2,0,B|368:284|368:284|332:272|300:284,1,90,2|0,0:0|0:0,0:0:0:0:
388,76,125945,6,0,P|412:72|432:76,2,45,4|0|0,0:0|0:0|0:0,0:0:0:0:
256,104,126140,2,0,P|232:108|212:104,2,45
256,192,126335,12,0,127309,0:0:0:0:
308,92,127504,5,2,0:0:0:0:
312,108,127601,1,8,0:0:0:0:
316,124,127698,1,8,0:0:0:0:
320,140,127796,1,0,0:0:0:0:
324,156,127893,2,0,L|416:164,1,90,2|0,0:0|0:0,0:0:0:0:
256,252,128088,2,0,L|164:244,1,90
84,280,128283,5,8,0:0:0:0:
4,236,128380,1,0,0:0:0:0:
4,144,128478,1,8,0:0:0:0:
84,100,128575,1,0,0:0:0:0:
160,140,128672,2,0,L|252:148,1,90,8|0,0:0|0:0,0:0:0:0:
256,328,128867,1,2,0:0:0:0:
264,312,128965,1,0,0:0:0:0:
272,296,129062,6,0,B|316:288|316:288|360:296,1,90,4|0,0:0|0:0,0:0:0:0:
480,104,129257,2,0,B|436:112|436:112|392:104,1,90
436,340,129452,2,0,P|448:296|436:252,1,90
316,60,129646,2,0,P|304:104|316:148,1,90
92,192,129841,5,8,0:0:0:0:
88,176,129939,1,0,0:0:0:0:
84,160,130036,2,0,L|64:72,1,90,8|0,0:0|0:0,0:0:0:0:
176,216,130231,2,0,P|180:196|176:172,2,45,8|0|0,0:0|0:0|0:0,0:0:0:0:
56,276,130426,2,0,P|51:298|56:320,2,45,2|0|0,0:0|0:0|0:0,0:0:0:0:
272,332,130620,6,0,B|228:324|228:324|184:332,1,90,4|0,0:0|0:0,0:0:0:0:
364,304,130815,2,0,L|384:124,1,180
333,174,131205,2,0,P|421:185|316:106,1,360,2|0,0:0|0:0,0:0:0:0:
248,152,131692,1,0,0:0:0:0:
176,100,131789,2,0,B|112:144|48:100|48:100|68:140,1,180,8|0,0:0|0:0,0:0:0:0:
40,224,132081,1,0,0:0:0:0:
108,284,132179,6,0,B|152:276|152:276|196:284,1,90,4|0,0:0|0:0,0:0:0:0:
404,192,132374,2,0,B|360:200|360:200|316:192,1,90,4|0,0:0|0:0,0:0:0:0:
288,108,132568,2,0,L|276:64,2,45,4|0|0,0:0|0:0|0:0,0:0:0:0:
404,192,132763,2,0,L|448:204,2,45,4|0|0,0:0|0:0|0:0,0:0:0:0:
268,264,132958,2,2,L|244:292,16,33.7500012874604,6|2|2|2|2|2|2|2|2|2|2|2|2|2|2|2|2,0:0|0:0|0:0|0:0|0:0|0:0|0:0|0:0|0:0|0:0|0:0|0:0|0:0|0:0|0:0|0:0|0:0,0:0:0:0:
