osu file format v14

[General]
AudioFilename: audio.mp3
AudioLeadIn: 0
PreviewTime: 54234
Countdown: 0
SampleSet: Normal
StackLeniency: 0.7
Mode: 0
LetterboxInBreaks: 0
EpilepsyWarning: 1
WidescreenStoryboard: 1

[Editor]
Bookmarks: 7194,41514,56394,70314
DistanceSpacing: 1.3
BeatDivisor: 4
GridSize: 4
TimelineZoom: 1

[Metadata]
Title:Sluchaynaya
TitleUnicode:Случайная
Artist:LOBODA
ArtistUnicode:LOBODA
Creator:Chalwa
Version:Hard
Source:
Tags:shmiklak m_a_r_v_o_l_l_o marvollo gordon123 namki sieg vanucik krfawy russian disco female русский Светлана Сергеевна Світлана Сергіївна Лобода H2LO svetlana
BeatmapID:1427157
BeatmapSetID:673916

[Difficulty]
HPDrainRate:5
CircleSize:4
OverallDifficulty:6
ApproachRate:6.5
SliderMultiplier:1.25
SliderTickRate:1

[Events]
//Background and Video events
0,0,"230aa6c94fc7.jpg",0,0
//Break Periods
//Storyboard Layer 0 (Background)
//Storyboard Layer 1 (Fail)
//Storyboard Layer 2 (Pass)
//Storyboard Layer 3 (Foreground)
//Storyboard Sound Samples

[TimingPoints]
1194,480,4,1,1,50,1,0
16554,-100,4,1,1,50,0,0
31914,-100,4,1,1,70,0,0
47274,-100,4,1,1,50,0,0
47754,-100,4,1,1,50,0,0
54954,-83.3333333333333,4,1,1,90,0,1
70194,-83.3333333333333,4,1,1,90,0,0
70314,-83.3333333333333,4,1,1,90,0,1
85674,-100,4,1,1,5,0,0

[Colours]
Combo1 : 128,0,128
Combo2 : 92,0,185
Combo3 : 51,51,255
Combo4 : 108,108,255
Combo5 : 255,140,255
Combo6 : 126,0,253
SliderBorder : 150,0,255
SliderTrackOverride : 230,0,110

[HitObjects]
136,276,1194,5,4,2:1:0:0:
188,212,1434,2,0,P|196:176|176:88,2,125,4|4|4,2:0|2:0|2:0,0:0:0:0:
96,80,2874,2,0,P|88:116|108:204,2,125,4|4|4,2:0|2:0|2:0,0:0:0:0:
188,212,4314,2,0,L|324:204,1,125,4|4,2:0|2:0,0:0:0:0:
424,248,5034,5,4,2:1:0:0:
476,188,5274,2,0,B|504:136|504:136|504:68,2,125,4|4|4,2:0|2:0|2:0,0:0:0:0:
428,32,6714,2,0,B|400:84|400:84|400:152,2,125,4|4|4,2:0|2:0|2:0,0:0:0:0:
476,188,8154,2,0,L|476:328,1,125,4|4,2:0|2:0,0:0:0:0:
368,360,8874,5,4,2:1:0:0:
320,292,9114,2,0,P|260:264|192:280,2,125,4|4|4,2:0|2:0|2:0,0:0:0:0:
168,348,10554,2,0,P|228:376|296:360,2,125,4|4|4,2:0|2:0|2:0,0:0:0:0:
320,292,11994,2,0,L|320:164,1,125,4|4,2:0|2:0,0:0:0:0:
312,52,12714,5,4,2:1:0:0:
240,16,12954,2,0,P|176:4|104:28,2,125,4|4|4,2:0|2:0|2:0,0:0:0:0:
96,92,14394,2,0,P|160:104|232:80,2,125,4|0|4,2:0|0:0|2:0,0:0:0:0:
240,16,15834,1,4,2:0:0:0:
295,71,16074,2,0,P|290:116|260:152,1,93.75,2|0,2:1|0:0,0:0:0:0:
240,184,16554,6,0,L|252:324,1,125,4|0,0:0|0:0,0:0:0:0:
200,372,17274,1,4,0:2:0:0:
109,286,17514,2,0,P|141:284|172:288,1,62.5,0|4,0:0|0:2,0:0:0:0:
72,360,17994,1,0,0:0:0:0:
28,292,18234,1,4,0:2:0:0:
76,212,18474,6,0,L|72:144,2,62.5,2|4|2,0:2|0:2|0:2,0:0:0:0:
109,286,19194,2,0,P|157:266|229:278,1,125,4|4,0:2|0:2,0:0:0:0:
296,316,19914,1,2,0:2:0:0:
296,316,20394,6,0,B|304:280|304:280|296:188,1,125,0|0,0:0|0:0,0:0:0:0:
316,112,21114,1,4,0:2:0:0:
192,64,21354,2,0,L|255:58,1,62.5,0|4,0:0|0:2,0:0:0:0:
120,32,21834,1,0,0:0:0:0:
128,112,22074,1,4,0:2:0:0:
152,204,22314,6,0,P|160:256|132:324,1,125,2|2,0:2|0:2,0:0:0:0:
60,360,23034,2,0,P|112:352|180:380,1,125,4|4,0:2|0:2,0:0:0:0:
252,348,23754,1,2,0:2:0:0:
252,348,24234,6,0,P|304:356|372:328,1,125,4|0,0:0|0:0,0:0:0:0:
416,264,24954,1,4,0:2:0:0:
354,150,25194,2,0,P|347:181|352:212,1,62.5,0|4,0:0|0:2,0:0:0:0:
416,96,25674,1,0,0:0:0:0:
344,64,25914,1,4,0:2:0:0:
260,24,26154,6,0,L|184:16,2,62.5,2|4|2,0:2|0:2|0:2,0:0:0:0:
280,104,26874,1,4,0:2:0:0:
296,184,27114,1,2,0:2:0:0:
252,340,27594,2,0,P|208:352|160:336,1,93.75,2|0,0:2|0:0,0:0:0:0:
136,308,28074,6,0,L|132:184,1,125,0|0,0:0|0:0,0:0:0:0:
164,108,28794,1,4,0:2:0:0:
285,164,29034,2,0,P|254:168|224:164,1,62.5,0|4,0:0|0:2,0:0:0:0:
344,108,29514,1,0,0:0:0:0:
392,176,29754,1,4,0:2:0:0:
424,88,29994,6,0,P|400:44|312:32,1,125,10|2,0:2|0:2,0:0:0:0:
252,44,30714,1,4,0:2:0:0:
176,72,30954,1,4,0:0:0:0:
100,104,31194,1,2,0:2:0:0:
100,104,31314,1,0,0:0:0:0:
100,104,31434,2,0,L|92:176,1,62.5,12|6,1:0|2:0,0:0:0:0:
148,244,31914,6,0,P|212:232|276:248,2,125,4|8|2,0:0|0:2|0:2,0:0:0:0:
76,284,33114,1,4,0:2:0:0:
28,158,33354,2,0,P|24:189|28:220,1,62.5,8|4,0:2|0:2,0:0:0:0:
80,96,33834,2,0,P|84:61|80:33,1,62.5,2|4,0:2|0:2,0:0:0:0:
156,0,34314,1,8,0:2:0:0:
236,140,34794,1,2,0:2:0:0:
80,96,35274,1,8,0:2:0:0:
160,236,35754,6,0,P|220:268|288:252,2,125,0|8|0,0:0|0:2|0:0,0:0:0:0:
136,160,36954,1,4,0:2:0:0:
57,254,37194,2,0,L|64:192,1,62.5,8|4,0:2|0:2,0:0:0:0:
116,312,37674,2,0,L|122:374,1,62.5,2|4,0:2|0:2,0:0:0:0:
204,364,38154,1,8,0:2:0:0:
364,328,38634,1,2,0:2:0:0:
256,208,39114,1,8,0:2:0:0:
204,364,39594,6,0,L|72:380,2,125,4|8|0,0:0|0:2|0:0,0:0:0:0:
232,288,40794,1,0,0:0:0:0:
188,162,41034,2,0,P|180:192|180:224,1,62.5,8|4,0:2|0:2,0:0:0:0:
252,108,41514,2,0,P|260:77|260:46,1,62.5,2|4,0:2|0:2,0:0:0:0:
196,0,41994,1,8,0:2:0:0:
88,124,42474,1,2,0:2:0:0:
252,108,42954,1,8,0:2:0:0:
412,88,43434,6,0,L|428:236,1,125,0|8,0:0|0:2,0:0:0:0:
360,360,44394,1,0,0:0:0:0:
288,320,44634,1,4,0:2:0:0:
214,278,44874,2,0,P|183:272|154:280,1,62.5,8|4,0:2|0:2,0:0:0:0:
31,333,45354,2,0,P|62:339|92:332,1,62.5,2|4,0:2|0:2,0:0:0:0:
64,260,45834,1,8,0:2:0:0:
88,100,46314,1,2,0:2:0:0:
248,124,46794,1,8,0:2:0:0:
224,284,47274,5,4,0:0:0:0:
248,124,47754,2,0,L|264:196,1,62.5,4|0,2:0|2:0,0:0:0:0:
328,136,48234,2,0,L|344:208,1,62.5,4|0,2:0|2:0,0:0:0:0:
408,152,48714,2,0,L|424:224,1,62.5,4|0,2:0|2:0,0:0:0:0:
488,168,49194,1,4,2:0:0:0:
464,88,49434,2,0,P|432:52|352:32,2,125,2|2|2,2:0|2:0|2:0,0:0:0:0:
488,168,50634,2,0,L|496:248,1,62.5,4|2,2:0|2:0,0:0:0:0:
476,308,51114,5,4,0:0:0:0:
316,276,51594,1,4,2:0:0:0:
476,308,52074,1,4,2:0:0:0:
316,276,52554,1,2,2:0:0:0:
172,348,53034,5,8,0:2:0:0:
140,272,53274,1,12,2:0:0:0:
140,272,53394,1,8,2:0:0:0:
140,272,53514,2,0,P|136:252|136:236,3,31.25,8|0|4|4,0:2|2:0|2:0|2:0,0:0:0:0:
132,200,53994,2,0,P|131:184|127:169,3,31.25,8|0|4|0,0:2|2:0|0:0|0:0,0:0:0:0:
116,132,54474,1,8,0:0:0:0:
268,76,54954,6,0,P|320:96|376:88,2,112.499996566773,4|0|4,0:0|0:2|0:2,0:0:0:0:
180,36,55914,2,0,L|192:128,1,74.9999977111817,2|4,0:2|0:2,0:0:0:0:
277,150,56394,2,0,L|265:58,1,74.9999977111817,8|4,0:0|0:2,0:0:0:0:
208,192,56874,6,0,P|252:228|316:224,2,112.499996566773,2|0|4,0:2|0:0|0:2,0:0:0:0:
120,152,57834,1,2,0:2:0:0:
44,212,58074,1,4,0:2:0:0:
16,304,58314,2,0,L|20:384,1,74.9999977111817,8|4,0:0|0:2,0:0:0:0:
112,348,58794,6,0,P|152:336|196:344,1,74.9999977111817,2|4,0:2|0:2,0:0:0:0:
232,356,59154,1,0,0:0:0:0:
232,356,59274,2,0,P|272:368|316:360,1,74.9999977111817,8|4,0:0|0:2,0:0:0:0:
372,296,59754,2,0,L|368:204,1,74.9999977111817,2|4,0:2|0:2,0:0:0:0:
272,216,60234,2,0,L|276:308,1,74.9999977111817,8|4,0:0|0:2,0:0:0:0:
320,144,60714,6,0,P|272:128|204:160,2,112.499996566773,2|0|4,0:2|0:0|0:2,0:0:0:0:
388,216,61674,1,2,0:2:0:0:
460,284,61914,2,0,L|472:344,2,37.4999988555909,4|0|8,0:2|0:0|0:0,0:0:0:0:
500,196,62394,1,4,0:2:0:0:
432,128,62634,6,0,L|455:17,2,112.499996566773,4|0|4,0:0|0:0|0:2,0:0:0:0:
388,216,63594,2,0,P|344:228|296:216,1,74.9999977111817,2|4,0:2|0:2,0:0:0:0:
195,148,64074,2,0,P|230:136|268:140,1,74.9999977111817,8|4,0:0|0:2,0:0:0:0:
124,216,64554,6,0,P|63:232|-2:216,2,112.499996566773,2|0|4,0:2|0:0|0:2,0:0:0:0:
195,148,65514,2,0,L|207:228,1,74.9999977111817,2|4,0:2|0:2,0:0:0:0:
135,290,65994,2,0,L|123:210,1,74.9999977111817,8|4,0:0|0:2,0:0:0:0:
124,120,66474,6,0,P|148:88|264:116,1,149.999995422363,2|8,0:2|0:0,0:0:0:0:
316,172,67194,1,4,0:2:0:0:
384,244,67434,2,0,B|420:232|420:232|440:200,1,74.9999977111817,2|4,0:2|0:2,0:0:0:0:
371,128,67914,2,0,B|335:140|335:140|315:172,1,74.9999977111817,8|4,0:0|0:2,0:0:0:0:
304,268,68394,6,0,L|348:374,2,112.499996566773
211,207,69354,1,2,0:2:0:0:
112,232,69594,1,4,0:2:0:0:
112,232,69714,1,0,0:0:0:0:
112,232,69834,2,0,P|96:198|98:158,1,74.9999977111817,8|4,0:0|0:2,0:0:0:0:
120,68,70314,6,0,P|84:76|8:56,2,112.499996566773,4|0|0,0:0|0:0|0:0,0:0:0:0:
216,60,71274,2,0,L|230:133,1,74.9999977111817,2|4,0:2|0:2,0:0:0:0:
158,249,71754,2,0,L|144:176,1,74.9999977111817,8|4,0:0|0:2,0:0:0:0:
256,248,72234,6,0,L|281:373,2,112.499996566773,2|0|4,0:2|0:0|0:2,0:0:0:0:
320,176,73194,2,0,P|364:168|400:176,1,74.9999977111817,2|4,0:2|0:2,0:0:0:0:
489,204,73674,1,8,0:0:0:0:
443,113,73914,1,4,0:2:0:0:
324,36,74154,5,2,0:2:0:0:
235,16,74394,1,4,0:2:0:0:
235,16,74514,1,0,0:0:0:0:
235,16,74634,2,0,L|150:11,1,74.9999977111817,8|4,0:0|0:2,0:0:0:0:
108,88,75114,1,2,0:2:0:0:
75,175,75354,1,4,0:2:0:0:
40,268,75594,2,0,P|92:260|124:272,1,74.9999977111817,8|4,0:0|0:2,0:0:0:0:
212,256,76074,6,0,P|200:200|220:140,2,112.499996566773,2|0|4,0:2|0:0|0:2,0:0:0:0:
280,328,77034,2,0,L|372:340,1,74.9999977111817,2|4,0:2|0:2,0:0:0:0:
448,312,77514,1,8,0:0:0:0:
484,220,77754,1,4,0:2:0:0:
484,220,77874,1,0,0:0:0:0:
484,220,77994,6,0,L|476:104,1,112.499996566773
368,204,78714,1,4,0:2:0:0:
237,112,78954,2,0,L|312:124,1,74.9999977111817,2|4,0:2|0:2,0:0:0:0:
188,196,79434,1,8,0:0:0:0:
124,124,79674,1,4,0:2:0:0:
56,56,79914,6,0,P|28:112|36:168,1,112.499996566773
100,296,80634,1,4,0:2:0:0:
247,234,80874,2,0,B|212:224|212:224|176:236,1,74.9999977111817,2|4,0:2|0:2,0:0:0:0:
316,304,81354,1,8,0:0:0:0:
376,228,81594,1,4,0:2:0:0:
436,152,81834,6,0,P|448:108|436:68,1,74.9999977111817,2|0,0:2|0:0,0:0:0:0:
416,40,82194,1,0,0:0:0:0:
416,40,82314,2,0,L|324:32,1,74.9999977111817,8|4,0:0|0:2,0:0:0:0:
252,72,82794,1,2,0:2:0:0:
156,88,83034,1,4,0:2:0:0:
60,108,83274,2,0,L|48:200,1,74.9999977111817,8|4,0:0|0:2,0:0:0:0:
96,268,83754,6,0,P|144:256|212:272,1,112.499996566773,2|0,0:2|0:0,0:0:0:0:
248,292,84234,1,8,0:0:0:0:
332,340,84474,1,4,0:2:0:0:
376,252,84714,1,2,0:2:0:0:
428,168,84954,1,4,0:2:0:0:
428,168,85074,1,0,0:0:0:0:
428,168,85194,1,12,0:0:0:0:
340,124,85434,1,4,0:2:0:0:
256,192,85674,12,4,87594,0:0:0:0:
