osu file format v14

[General]
AudioFilename: audio.mp3
AudioLeadIn: 0
PreviewTime: 54234
Countdown: 0
SampleSet: Normal
StackLeniency: 0.5
Mode: 0
LetterboxInBreaks: 0
EpilepsyWarning: 1
WidescreenStoryboard: 1

[Editor]
Bookmarks: 7194,31914,41514,56394,70314
DistanceSpacing: 1.3
BeatDivisor: 4
GridSize: 4
TimelineZoom: 1.4

[Metadata]
Title:Sluchaynaya
TitleUnicode:Случайная
Artist:LOBODA
ArtistUnicode:LOBODA
Creator:Chalwa
Version:Collab Hard
Source:
Tags:shmiklak m_a_r_v_o_l_l_o marvollo gordon123 namki sieg vanucik krfawy russian disco female русский Светлана Сергеевна Світлана Сергіївна Лобода H2LO svetlana
BeatmapID:1429994
BeatmapSetID:673916

[Difficulty]
HPDrainRate:6
CircleSize:4
OverallDifficulty:6
ApproachRate:7.5
SliderMultiplier:1.35
SliderTickRate:1

[Events]
//Background and Video events
0,0,"230aa6c94fc7.jpg",0,0
//Break Periods
//Storyboard Layer 0 (Background)
//Storyboard Layer 1 (Fail)
//Storyboard Layer 2 (Pass)
//Storyboard Layer 3 (Foreground)
//Storyboard Sound Samples

[TimingPoints]
1194,480,4,1,1,50,1,0
16554,-100,4,1,1,50,0,0
31914,-100,4,1,1,70,0,0
47274,-100,4,1,1,50,0,0
47754,-100,4,1,1,50,0,0
54954,-83.3333333333333,4,1,1,90,0,1
70194,-83.3333333333333,4,1,1,90,0,0
70314,-83.3333333333333,4,1,1,90,0,1
85674,-100,4,1,1,5,0,0

[Colours]
Combo1 : 128,0,128
Combo2 : 92,0,185
Combo3 : 51,51,255
Combo4 : 108,108,255
Combo5 : 255,140,255
Combo6 : 126,0,253
SliderBorder : 150,0,255
SliderTrackOverride : 230,0,110

[HitObjects]
104,160,1194,6,0,P|102:193|96:244,2,67.5,4|0|0,2:1|0:0|0:0,0:0:0:0:
174,106,1914,2,0,P|177:169|184:246,1,135
334,330,2874,2,0,P|278:284|208:313,1,135,0|0,0:0|0:0,0:0:0:0:
411,378,3594,1,0,2:0:0:0:
411,378,3834,2,0,P|414:341|416:304,1,67.5,0|0,0:0|2:0,0:0:0:0:
463,237,4314,1,0,0:0:0:0:
463,237,4554,2,0,P|460:203|458:169,1,67.5,0|0,2:0|0:0,0:0:0:0:
406,98,5034,6,0,P|371:96|336:109,2,67.5,4|0|0,2:1|0:0|0:0,0:0:0:0:
378,181,5754,2,0,L|223:171,1,135,0|0,0:0|0:0,0:0:0:0:
119,48,6714,2,0,P|203:62|227:111,1,135,0|0,0:0|0:0,0:0:0:0:
165,164,7434,2,0,L|81:156,1,67.5,0|0,2:0|0:0,0:0:0:0:
50,231,7914,1,0,2:0:0:0:
50,231,8154,2,0,L|117:237,1,67.5,0|0,0:0|2:0,0:0:0:0:
197,271,8634,1,0,0:0:0:0:
269,320,8874,6,0,B|327:314|327:314|354:324|354:324|426:318,1,135,4|0,2:1|0:0,0:0:0:0:
487,300,9594,2,0,P|494:254|490:231,1,67.5,0|0,0:0|0:0,0:0:0:0:
442,160,10074,2,0,P|434:127|438:93,1,67.5,0|0,0:0|2:0,0:0:0:0:
498,29,10554,1,0,0:0:0:0:
354,129,11034,5,0,0:0:0:0:
354,129,11154,1,0,0:0:0:0:
354,129,11274,2,0,P|320:126|278:115,2,67.5,0|0|0,2:0|0:0|2:0,0:0:0:0:
385,211,11994,2,0,P|301:209|243:217,1,135,0|0,0:0|0:0,0:0:0:0:
205,291,12714,6,0,B|227:155|156:175|193:19,1,270,4|0,2:1|0:0,0:0:0:0:
278,11,13914,1,0,0:0:0:0:
278,11,14154,2,0,P|325:27|339:47,1,67.5,0|0,2:0|0:0,0:0:0:0:
395,104,14634,2,0,L|394:182,2,67.5,4|0|0,2:0|0:0|2:0,0:0:0:0:
474,66,15354,2,0,L|470:210,1,135,0|0,0:0|0:0,0:0:0:0:
424,275,16074,2,0,P|413:263|348:260,1,67.5,2|0,2:1|0:0,0:0:0:0:
297,309,16554,6,0,L|158:313,1,135,4|0,0:0|0:0,0:0:0:0:
74,312,17274,1,0,0:0:0:0:
124,240,17514,2,0,P|168:230|201:238,2,67.5,0|0|0,0:0|0:0|0:0,0:0:0:0:
274,228,18234,5,0,0:0:0:0:
274,228,18474,2,0,P|277:193|277:159,1,67.5,2|0,0:2|0:0,0:0:0:0:
268,72,18954,1,2,0:2:0:0:
375,134,19194,2,0,P|424:174|497:173,1,135
416,17,19914,2,0,P|382:21|344:15,1,67.5,2|0,0:2|0:0,0:0:0:0:
457,82,20394,5,0,0:0:0:0:
341,125,20874,1,0,0:0:0:0:
207,105,21354,1,0,0:0:0:0:
72,117,21834,1,0,0:0:0:0:
140,62,22074,5,0,0:0:0:0:
136,164,22314,2,0,P|120:196|128:244,1,67.5,2|0,0:2|0:0,0:0:0:0:
192,280,22794,2,0,L|272:278,1,67.5
328,228,23274,1,2,0:2:0:0:
400,272,23514,1,0,0:0:0:0:
472,220,23754,2,0,P|483:187|487:147,1,67.5
375,72,24234,6,0,P|339:69|307:80,1,67.5,4|0,0:0|0:0,0:0:0:0:
267,156,24714,1,0,0:0:0:0:
267,156,25194,2,0,P|230:156|193:147,1,67.5,0|0,0:0|0:0,0:0:0:0:
128,98,25674,1,0,0:0:0:0:
29,183,25914,5,0,0:0:0:0:
128,98,26154,2,0,P|90:95|46:109,1,67.5,2|0,0:2|0:0,0:0:0:0:
29,183,26634,1,0,0:0:0:0:
132,82,26874,2,0,P|200:76|279:101,1,135,0|0,0:0|0:0,0:0:0:0:
323,157,27594,2,0,P|323:195|327:232,1,67.5,2|0,0:2|0:0,0:0:0:0:
395,277,28074,5,0,0:0:0:0:
270,329,28554,1,0,0:0:0:0:
145,277,29034,1,0,0:0:0:0:
20,329,29514,1,0,0:0:0:0:
104,350,29754,5,0,0:0:0:0:
75,266,29994,2,0,P|32:247|5:250,1,67.5,10|0,0:2|0:0,0:0:0:0:
104,350,30474,2,0,L|173:348,1,67.5,2|0,0:2|0:0,0:0:0:0:
259,352,30954,1,4,0:0:0:0:
173,273,31194,1,0,0:0:0:0:
173,273,31314,1,0,0:0:0:0:
173,273,31434,2,0,L|96:276,1,67.5,12|0,1:0|0:0,0:0:0:0:
220,207,31914,6,0,P|296:199|358:200,1,135,4|8,0:0|0:2,0:0:0:0:
454,219,32634,1,0,0:0:0:0:
455,117,32874,2,0,P|419:121|383:117,1,67.5,2|0,0:2|0:0,0:0:0:0:
292,83,33354,1,8,0:2:0:0:
203,33,33594,5,0,0:0:0:0:
203,33,33834,2,0,L|200:102,1,67.5,2|0,0:2|0:0,0:0:0:0:
100,118,34314,2,0,L|110:191,1,67.5,8|0,0:2|0:0,0:0:0:0:
128,46,34794,2,0,P|85:42|23:120,1,135,2|8,0:2|0:2,0:0:0:0:
21,206,35514,1,0,0:0:0:0:
100,316,35754,6,0,P|91:255|116:172,1,135,0|8,0:0|0:2,0:0:0:0:
212,161,36474,1,0,0:0:0:0:
212,161,36714,1,0,0:0:0:0:
274,245,36954,2,0,L|288:325,1,67.5,0|8,0:0|0:2,0:0:0:0:
378,271,37434,6,0,L|392:351,1,67.5,0|2,0:0|0:2,0:0:0:0:
493,301,37914,1,0,0:0:0:0:
493,301,38034,1,0,0:0:0:0:
493,301,38154,2,0,L|507:381,1,67.5,0|0,0:0|0:0,0:0:0:0:
509,226,38634,2,0,L|488:85,1,135,2|8,0:2|0:2,0:0:0:0:
399,45,39354,1,0,0:0:0:0:
384,145,39594,6,0,L|396:224,1,67.5,4|0,0:0|0:0,0:0:0:0:
292,214,40074,2,0,P|308:275|280:347,1,135,8|0,0:2|0:0,0:0:0:0:
185,362,40794,1,0,0:0:0:0:
99,307,41034,1,8,0:2:0:0:
130,210,41274,5,0,0:0:0:0:
220,162,41514,2,0,L|208:83,1,67.5,2|0,0:2|0:0,0:0:0:0:
108,91,41994,1,8,0:2:0:0:
14,133,42234,2,0,P|9:70|51:4,1,135,0|0,0:0|0:0,0:0:0:0:
108,91,42954,2,0,L|118:157,1,67.5,8|0,0:2|0:0,0:0:0:0:
86,253,43434,5,0,0:0:0:0:
167,335,43674,1,0,0:0:0:0:
167,335,43794,1,0,0:0:0:0:
167,335,43914,2,0,P|232:310|315:313,1,135,0|0,0:0|0:0,0:0:0:0:
391,355,44634,1,0,0:0:0:0:
391,355,44874,1,8,0:2:0:0:
339,234,45114,5,0,0:0:0:0:
245,194,45354,2,0,L|236:121,1,67.5,2|0,0:2|0:0,0:0:0:0:
308,33,45834,2,0,L|317:106,1,67.5,0|0,0:0|0:0,0:0:0:0:
400,173,46314,1,2,0:2:0:0:
400,173,46434,1,0,0:0:0:0:
400,173,46554,2,0,P|469:163|508:107,1,135,0|0,0:0|0:0,0:0:0:0:
415,71,47274,5,4,0:0:0:0:
311,313,47754,2,0,B|311:272|289:228|235:224|235:224|310:177|301:98|271:63|232:45,1,337.5,4|0,2:0|0:0,0:0:0:0:
190,134,49194,2,0,P|214:245|86:293,1,270,0|4,0:0|2:0,0:0:0:0:
127,205,50394,1,0,0:0:0:0:
52,136,50634,2,0,L|47:49,1,67.5,4|0,2:0|0:0,0:0:0:0:
127,205,51114,5,4,0:0:0:0:
268,58,51594,1,4,2:0:0:0:
413,199,52074,1,4,2:0:0:0:
274,346,52554,1,0,0:0:0:0:
200,85,53034,1,8,0:2:0:0:
151,180,53274,1,0,0:0:0:0:
151,180,53394,1,0,0:0:0:0:
151,180,53514,2,0,L|145:263,1,67.5,8|0,0:2|0:0,0:0:0:0:
229,304,53994,2,0,L|223:360,2,33.75,8|0|0,0:2|0:0|0:0,0:0:0:0:
268,210,54474,1,8,0:0:0:0:
271,207,54594,1,0,0:0:0:0:
274,204,54714,1,0,0:0:0:0:
358,116,54954,6,0,P|420:64|504:71,1,161.999995056153,4|0,0:0|0:0,0:0:0:0:
380,34,55674,1,0,0:0:0:0:
267,79,55914,2,0,L|264:167,1,80.9999975280763,2|0,0:2|0:0,0:0:0:0:
263,291,56394,1,8,0:0:0:0:
153,356,56634,1,0,0:0:0:0:
198,238,56874,1,2,0:2:0:0:
88,303,57114,1,0,0:0:0:0:
88,303,57234,1,0,0:0:0:0:
88,303,57354,2,0,L|91:215,1,80.9999975280763,0|0,0:0|0:0,0:0:0:0:
154,116,57834,2,0,P|92:64|8:71,1,161.999995056153,2|8,0:2|0:0,0:0:0:0:
132,34,58554,5,0,0:0:0:0:
233,100,58794,1,2,0:2:0:0:
129,188,59034,1,0,0:0:0:0:
129,188,59154,1,0,0:0:0:0:
129,188,59274,2,0,P|131:233|121:284,1,80.9999975280763,0|0,0:0|0:0,0:0:0:0:
242,278,59754,1,2,0:2:0:0:
242,278,59874,1,0,0:0:0:0:
242,278,59994,2,0,P|240:328|246:375,1,80.9999975280763,0|8,0:0|0:0,0:0:0:0:
343,211,60474,6,0,P|348:257|347:309,1,80.9999975280763,0|2,0:0|0:2,0:0:0:0:
468,271,60954,1,0,0:0:0:0:
468,271,61074,1,0,0:0:0:0:
468,271,61194,2,0,P|470:321|464:368,1,80.9999975280763,0|0,0:0|0:0,0:0:0:0:
435,191,61674,2,0,P|426:113|459:26,1,161.999995056153,2|8,0:2|0:0,0:0:0:0:
330,29,62394,5,0,0:0:0:0:
236,106,62634,2,0,P|245:184|212:271,1,161.999995056153,4|0,0:0|0:0,0:0:0:0:
307,344,63354,1,0,0:0:0:0:
172,359,63594,2,0,L|86:368,1,80.9999975280763,2|0,0:2|0:0,0:0:0:0:
36,258,64074,1,8,0:0:0:0:
155,280,64314,1,0,0:0:0:0:
78,185,64554,5,2,0:2:0:0:
206,211,64794,1,0,0:0:0:0:
206,211,64914,1,0,0:0:0:0:
206,211,65034,2,0,L|292:202,1,80.9999975280763,0|0,0:0|0:0,0:0:0:0:
366,294,65514,2,0,P|328:246|372:145,1,161.999995056153,2|8,0:2|0:0,0:0:0:0:
423,55,66234,5,0,0:0:0:0:
263,36,66474,2,0,P|256:94|289:45,1,161.999995056153,2|8,0:2|0:0,0:0:0:0:
136,106,67194,1,0,0:0:0:0:
21,64,67434,2,0,L|34:2,2,40.4999987640381,2|0|0,0:2|0:0|0:0,0:0:0:0:
61,179,67914,2,0,P|74:256|45:356,1,161.999995056153,8|2,0:0|0:2,0:0:0:0:
179,332,68634,5,0,0:0:0:0:
179,332,68754,1,0,0:0:0:0:
179,332,68874,2,0,L|274:321,1,80.9999975280763,8|0,0:0|0:0,0:0:0:0:
190,222,69354,1,2,0:2:0:0:
198,214,69474,1,0,0:0:0:0:
210,214,69594,1,0,0:0:0:0:
217,223,69714,1,0,0:0:0:0:
216,234,69834,2,0,L|311:223,1,80.9999975280763,8|0,0:0|0:0,0:0:0:0:
392,88,70314,6,0,P|398:169|412:260,1,161.999995056153,4|0,0:0|0:0,0:0:0:0:
340,148,71034,1,0,0:0:0:0:
348,26,71274,2,0,P|387:10|428:22,1,80.9999975280763,2|0,0:2|0:0,0:0:0:0:
340,148,71754,1,8,0:0:0:0:
242,75,71994,1,0,0:0:0:0:
138,139,72234,6,0,P|139:184|145:221,1,80.9999975280763,2|0,0:2|0:0,0:0:0:0:
192,257,72594,1,0,0:0:0:0:
192,257,72714,1,8,0:0:0:0:
77,298,72954,1,0,0:0:0:0:
185,351,73194,2,0,B|274:364|260:328|352:342,1,161.999995056153,2|8,0:2|0:0,0:0:0:0:
462,372,73914,5,0,0:0:0:0:
453,358,74034,1,0,0:0:0:0:
454,340,74154,2,0,P|461:303|461:244,1,80.9999975280763,2|0,0:2|0:0,0:0:0:0:
335,168,74634,2,0,P|335:208|343:248,1,80.9999975280763,0|0,0:0|0:0,0:0:0:0:
480,98,75114,2,0,P|387:86|301:87,1,161.999995056153,2|0,0:2|0:0,0:0:0:0:
239,167,75834,5,0,0:0:0:0:
165,46,76074,2,0,P|214:27|253:26,1,80.9999975280763,2|0,0:2|0:0,0:0:0:0:
239,167,76554,1,8,0:0:0:0:
130,133,76794,1,0,0:0:0:0:
130,133,76914,1,0,0:0:0:0:
130,133,77034,2,0,P|89:128|53:112,1,80.9999975280763,2|0,0:2|0:0,0:0:0:0:
165,227,77514,5,8,0:0:0:0:
180,221,77634,1,0,0:0:0:0:
196,218,77754,1,0,0:0:0:0:
212,219,77874,1,0,0:0:0:0:
226,225,77994,2,0,P|247:271|354:258,1,161.999995056153,4|0,0:0|0:0,0:0:0:0:
231,311,78714,1,0,0:0:0:0:
370,185,78954,2,0,P|361:149|356:96,1,80.9999975280763,2|0,0:2|0:0,0:0:0:0:
512,266,79434,6,0,P|442:260|419:255,1,80.9999975280763,8|0,0:0|0:0,0:0:0:0:
340,176,79914,2,0,P|270:182|247:187,1,80.9999975280763,2|0,0:2|0:0,0:0:0:0:
159,254,80394,1,0,0:0:0:0:
277,280,80634,1,0,0:0:0:0:
151,168,80874,1,2,0:2:0:0:
131,343,81114,1,0,0:0:0:0:
131,343,81234,1,0,0:0:0:0:
131,343,81354,2,0,P|170:349|211:351,1,80.9999975280763,8|0,0:0|0:0,0:0:0:0:
437,262,81834,6,0,P|348:275|255:280,1,161.999995056153,2|0,0:2|0:0,0:0:0:0:
204,119,82554,1,0,0:0:0:0:
204,119,82794,2,0,P|228:149|250:184,1,80.9999975280763,2|0,0:2|0:0,0:0:0:0:
150,328,83274,2,0,P|163:292|183:255,1,80.9999975280763,8|0,0:0|0:0,0:0:0:0:
436,287,83754,6,0,P|355:281|275:269,1,161.999995056153,2|0,0:2|0:0,0:0:0:0:
191,181,84474,1,0,0:0:0:0:
312,171,84714,1,2,0:2:0:0:
178,288,84954,1,0,0:0:0:0:
178,288,85074,1,0,0:0:0:0:
178,288,85194,2,0,P|132:283|73:289,1,80.9999975280763,12|0,0:0|0:0,0:0:0:0:
256,192,85674,12,4,87594,0:0:0:0:
