osu file format v14

[General]
AudioFilename: audio.mp3
AudioLeadIn: 0
PreviewTime: 42808
Countdown: 0
SampleSet: Soft
StackLeniency: 0.3
Mode: 0
LetterboxInBreaks: 0
WidescreenStoryboard: 0

[Editor]
Bookmarks: 2458,12058,21658,31258,40858,43258,61858,62458,76858,86308
DistanceSpacing: 1
BeatDivisor: 4
GridSize: 32
TimelineZoom: 1

[Metadata]
Title:0 (zero) (TV Size)
TitleUnicode:0 (zero) (TV Size)
Artist:LMYK
ArtistUnicode:LMYK
Creator:eiri-
Version:Together
Source:ヴァニタスの手記
Tags:Ayyri honne BlastTheKidd Irohas MugiwaraSekai Esutarosa Esu The Case Study of Vanitas no Carte Karte Memoirs of Shuki Japanese English Anime Pop J-Pop JPop 0(zero)
BeatmapID:3122912
BeatmapSetID:1520433

[Difficulty]
HPDrainRate:5
CircleSize:4.5
OverallDifficulty:8.5
ApproachRate:9
SliderMultiplier:2
SliderTickRate:1

[Events]
//Background and Video events
0,0,"Vanitas 132.jpg",0,0
Video,-350,"ED.avi"
//Break Periods
//Storyboard Layer 0 (Background)
//Storyboard Layer 1 (Fail)
//Storyboard Layer 2 (Pass)
//Storyboard Layer 3 (Foreground)
//Storyboard Layer 4 (Overlay)
//Storyboard Sound Samples

[TimingPoints]
2458,600,4,2,1,50,1,0
21658,-80,4,2,1,60,0,0
40858,-200,4,2,1,70,0,0
42808,-50,4,2,1,50,0,0
43258,-57.1428571428571,4,2,1,80,0,1
61858,-57.1428571428571,4,2,1,80,0,0
62458,-57.1428571428571,4,2,1,80,0,1
76858,-66.6666666666667,4,2,1,70,0,0

[Colours]
Combo1 : 82,199,216
Combo2 : 183,219,255
Combo3 : 96,175,255
Combo4 : 176,231,238

[HitObjects]
480,352,2158,6,0,P|452:351|466:319,1,50,2|0,0:3|0:0,0:0:0:0:
476,328,2458,6,0,P|488:277|488:243,1,75,10|2,0:0|0:0,0:0:0:0:
488,254,2833,1,2,0:0:0:0:
327,205,3058,2,0,P|385:196|464:191,1,125,2|0,0:0|0:0,0:0:0:0:
451,191,3508,1,0,0:0:0:0:
376,129,3658,1,2,0:0:0:0:
504,100,3808,2,0,L|515:33,2,50,2|0|0,0:0|0:0|0:0,0:0:0:0:
431,8,4258,1,2,0:0:0:0:
429,0,4408,1,2,0:0:0:0:
83,384,4858,6,0,P|101:352|154:359,1,75,10|2,0:0|0:0,0:0:0:0:
136,347,5233,1,2,0:0:0:0:
84,187,5458,2,0,P|83:246|74:324,1,125,2|0,0:0|0:0,0:0:0:0:
76,311,5908,1,0,0:0:0:0:
8,369,6058,1,2,0:0:0:0:
8,369,6208,2,0,L|-2:307,2,50,2|0|0,0:0|0:0|0:0,0:0:0:0:
128,376,6658,1,2,0:0:0:0:
130,384,6808,1,2,0:0:0:0:
429,0,7258,6,0,P|396:12|395:62,1,75,10|2,0:0|0:0,0:0:0:0:
387,47,7633,1,2,0:0:0:0:
504,104,7858,2,0,P|446:118|369:142,1,125,2|0,0:0|0:0,0:0:0:0:
383,136,8308,1,0,0:0:0:0:
267,92,8458,1,2,0:0:0:0:
267,92,8608,2,0,P|277:127|259:154,2,50,2|0|0,0:0|0:0|0:0,0:0:0:0:
364,246,9058,2,0,P|352:200|353:110,1,125,2|0,0:0|0:0,0:0:0:0:
350,122,9508,1,2,0:0:0:0:
182,10,9658,6,0,P|207:70|293:48,1,150,10|0,0:0|0:0,0:0:0:0:
108,157,10258,1,2,0:0:0:0:
108,157,10408,2,0,P|160:148|228:142,1,100,2|2,0:0|0:0,0:0:0:0:
269,251,10858,1,2,0:0:0:0:
269,251,11008,2,0,P|245:228|249:204,2,50,2|0|0,0:0|0:0|0:0,0:0:0:0:
367,223,11458,1,2,0:0:0:0:
369,215,11608,1,2,0:0:0:0:
369,215,12058,5,10,0:0:0:0:
423,262,12208,2,0,P|408:199|401:143,1,116.666666666667,2|2,0:0|0:0,0:0:0:0:
259,122,12808,2,0,P|274:59|281:3,1,116.666666666667,2|2,0:0|0:0,0:0:0:0:
304,194,13408,1,2,0:0:0:0:
244,157,13558,1,2,0:0:0:0:
183,207,13708,1,0,0:0:0:0:
87,184,13858,1,2,0:0:0:0:
7,277,14008,2,0,P|17:315|21:341,1,50,2|0,0:0|0:0,0:0:0:0:
89,358,14308,1,2,0:0:0:0:
150,134,14533,6,0,P|119:143|94:146,1,50,10|0,0:0|0:0,0:0:0:0:
42,109,14758,2,0,P|45:75|108:48,1,100,2|2,0:0|0:0,0:0:0:0:
218,1,15208,2,0,P|251:56|222:116,1,125,2|0,0:0|0:0,0:0:0:0:
230,108,15658,1,2,0:0:0:0:
261,200,15808,2,0,L|328:211,1,50,2|0,0:0|0:0,0:0:0:0:
398,248,16108,1,0,0:0:0:0:
498,178,16258,1,2,0:0:0:0:
496,170,16408,1,2,0:0:0:0:
496,170,16933,6,0,P|504:130|505:78,1,75,10|2,0:0|0:0,0:0:0:0:
501,70,17308,1,2,0:0:0:0:
354,118,17533,2,0,P|323:111|248:87,1,100,2|0,0:0|0:0,0:0:0:0:
257,90,17908,1,2,0:0:0:0:
422,16,18133,2,0,B|448:46|436:93|417:154,1,125,2|2,0:0|0:0,0:0:0:0:
466,249,18733,2,0,P|462:208|374:213,1,150,2|2,0:0|0:0,0:0:0:0:
431,365,19408,6,0,P|465:352|514:341,1,75,10|0,0:0|0:0,0:0:0:0:
357,284,19783,1,2,0:0:0:0:
218,379,20008,2,0,P|200:341|197:272,1,100,2|0,0:0|0:0,0:0:0:0:
195,283,20383,1,2,0:0:0:0:
57,146,20608,2,0,P|98:211|166:196,1,150,2|2,0:0|0:0,0:0:0:0:
210,149,21208,1,2,0:0:0:0:
325,208,21358,2,0,L|320:248,2,33.3333333333333,0|0|0,3:0|3:0|3:0,0:0:0:0:
405,71,21658,6,0,P|384:40|375:9,1,62.5,10|0,0:0|0:0,0:0:0:0:
377,149,21958,2,0,P|428:137|467:135,1,62.5,8|0,0:0|0:0,0:0:0:0:
261,74,22258,2,0,P|255:141|231:216,1,125,2|0,3:2|3:0,0:0:0:0:
105,210,22658,1,0,3:0:0:0:
62,183,22758,1,0,3:0:0:0:
51,154,22858,2,0,P|105:143|179:137,1,125,2|0,1:2|3:0,0:0:0:0:
32,256,23458,1,10,0:0:0:0:
174,137,23758,1,0,0:0:0:0:
32,256,24058,6,0,P|99:264|114:334,1,125,10|0,0:0|3:0,0:0:0:0:
71,120,24658,1,8,0:0:0:0:
119,311,24958,1,0,3:0:0:0:
71,120,25258,2,0,P|124:96|107:29,1,125,2|0,1:2|3:0,0:0:0:0:
117,37,25633,1,2,0:0:0:0:
273,98,25858,2,0,P|210:108|147:122,1,125,10|0,0:0|3:0,0:0:0:0:
271,217,26258,1,0,3:0:0:0:
274,262,26358,1,0,3:0:0:0:
255,287,26458,6,0,P|228:265|186:273,1,62.5,10|0,0:0|0:0,0:0:0:0:
320,250,26758,2,0,P|342:223|334:181,1,62.5,8|0,0:0|0:0,0:0:0:0:
425,379,27058,2,0,B|349:380|376:316|290:325,1,125,2|0,3:2|3:0,0:0:0:0:
350,169,27658,1,0,1:0:0:0:
318,325,27958,1,0,3:0:0:0:
350,169,28258,6,0,P|357:204|370:244,1,71.4285714285714,10|2,0:0|0:0,0:0:0:0:
395,117,28600,5,2,0:0:0:0:
271,268,28858,6,0,P|338:259|416:253,2,125,2|0|10,3:2|1:0|0:0,0:0:0:0:
56,308,29833,1,2,0:0:0:0:
130,366,30058,2,0,P|171:338|155:259,1,125,2|0,1:2|3:0,0:0:0:0:
118,119,30658,2,0,B|156:114|156:114|170:120|170:120|223:112,2,83.3333333333333,2|0|0,3:2|3:0|3:0,0:0:0:0:
51,177,31258,6,0,P|20:145|27:117,1,62.5,10|0,0:0|0:0,0:0:0:0:
24,13,31558,2,0,P|55:45|48:73,1,62.5,8|0,0:0|0:0,0:0:0:0:
210,82,31858,2,0,P|117:107|78:148,1,125,2|0,3:2|3:0,0:0:0:0:
106,250,32258,1,0,3:0:0:0:
141,280,32358,1,0,3:0:0:0:
174,292,32458,2,0,P|236:283|288:250,1,125,2|0,1:2|3:0,0:0:0:0:
106,250,33058,1,10,0:0:0:0:
288,250,33358,1,0,3:0:0:0:
106,250,33658,6,0,P|132:320|147:401,1,125,2|0,0:0|3:0,0:0:0:0:
175,156,34258,1,10,0:0:0:0:
142,369,34558,1,0,3:0:0:0:
175,156,34858,2,0,P|123:178|95:184,1,62.5,2|0,1:2|0:0,0:0:0:0:
214,259,35158,2,0,P|266:281|294:287,1,62.5,2|0,3:2|0:0,0:0:0:0:
286,65,35458,2,0,P|230:82|152:90,1,125,10|0,0:0|3:0,0:0:0:0:
263,210,35858,1,0,3:0:0:0:
262,257,35958,1,0,3:0:0:0:
251,284,36058,6,0,L|236:197,1,62.5,10|2,0:0|0:0,0:0:0:0:
329,323,36358,2,0,L|314:410,1,62.5,8|0,0:0|0:0,0:0:0:0:
137,384,36658,2,0,P|83:343|129:263,1,125,2|2,3:2|3:2,0:0:0:0:
68,145,37258,1,0,1:0:0:0:
89,292,37558,1,0,3:0:0:0:
68,145,37858,6,0,P|59:194|41:246,1,93.75,10|2,0:0|0:0,0:0:0:0:
23,93,38308,1,2,0:0:0:0:
132,278,38458,2,0,P|65:269|-13:263,1,125,2|0,3:2|1:0,0:0:0:0:
216,77,39058,6,0,P|225:126|243:178,1,93.75,10|2,0:0|0:0,0:0:0:0:
261,25,39508,1,2,0:0:0:0:
152,210,39658,2,0,P|219:201|264:196,1,62.5,2|0,1:2|0:0,0:0:0:0:
148,228,39958,2,0,P|179:223|210:220,1,62.5,2|0,1:2|0:0,0:0:0:0:
119,292,40258,2,0,L|93:149,1,125,10|0,0:0|3:0,0:0:0:0:
96,169,40708,1,2,3:2:0:0:
321,202,40858,6,0,L|379:193,1,50,10|0,0:0|0:0,0:0:0:0:
435,140,41308,1,2,1:2:0:0:
495,215,41458,2,0,L|490:249,1,25,2|0,1:2|0:0,0:0:0:0:
507,232,41758,2,0,L|502:266,1,25,2|0,1:2|0:0,0:0:0:0:
287,289,42058,1,2,3:2:0:0:
354,276,42208,1,2,3:2:0:0:
365,344,42358,1,2,3:2:0:0:
297,356,42508,1,2,3:2:0:0:
297,356,42808,6,0,B|319:326|319:326|295:235,2,100,2|2|2,0:1|0:1|0:1,0:0:0:0:
83,380,43258,6,0,L|99:272,1,87.500000834465,14|0,0:0|0:0,0:0:0:0:
58,141,43558,1,2,0:0:0:0:
118,182,43708,2,0,P|157:166|227:157,1,87.500000834465,2|8,0:0|0:0,0:0:0:0:
365,189,44008,1,2,0:0:0:0:
365,189,44308,6,0,P|347:228|346:288,1,87.500000834465,2|8,0:0|0:0,0:0:0:0:
272,57,44608,2,0,P|290:96|291:156,1,87.500000834465,2|0,0:0|0:0,0:0:0:0:
420,2,44908,2,0,P|402:41|401:101,1,87.500000834465,2|8,0:0|0:0,0:0:0:0:
427,152,45208,1,0,0:0:0:0:
288,215,45358,1,2,0:0:0:0:
330,102,45508,1,10,0:0:0:0:
385,322,45658,6,0,P|456:314|496:306,1,87.500000834465,10|0,0:0|0:0,0:0:0:0:
326,278,45958,1,2,0:0:0:0:
267,234,46108,2,0,P|196:242|156:250,1,87.500000834465,2|8,0:0|0:0,0:0:0:0:
38,381,46408,1,2,0:0:0:0:
38,381,46708,6,0,P|15:330|18:258,1,87.500000834465,2|8,0:0|0:0,0:0:0:0:
23,287,47008,2,0,P|30:330|50:369,1,87.500000834465,2|0,0:0|0:0,0:0:0:0:
62,357,47308,2,0,P|42:318|35:275,1,87.500000834465,2|8,0:0|0:0,0:0:0:0:
41,193,47608,1,0,3:0:0:0:
175,322,47758,1,0,3:0:0:0:
209,102,47908,1,10,3:2:0:0:
241,165,48058,6,0,P|183:204|138:180,1,87.500000834465,14|0,0:0|0:0,0:0:0:0:
82,38,48358,1,2,0:0:0:0:
50,101,48508,2,0,P|108:140|153:116,1,87.500000834465,2|8,0:0|0:0,0:0:0:0:
209,102,48808,1,2,0:0:0:0:
209,102,49108,6,0,L|192:-9,1,87.500000834465,2|8,0:0|0:0,0:0:0:0:
335,185,49408,2,0,L|352:74,1,87.500000834465,2|0,0:0|0:0,0:0:0:0:
184,288,49708,2,0,L|167:177,1,87.500000834465,2|8,0:0|0:0,0:0:0:0:
209,102,50008,1,0,3:0:0:0:
335,185,50158,1,2,3:2:0:0:
113,258,50308,1,10,3:2:0:0:
184,288,50458,6,0,P|267:277|352:212,1,175.00000166893,10|2,0:0|0:0,0:0:0:0:
202,220,50908,2,0,P|246:213|300:163,1,87.500000834465,2|8,0:0|0:0,0:0:0:0:
274,334,51208,1,2,0:0:0:0:
274,334,51508,6,0,P|321:320|389:324,1,87.500000834465,2|8,0:0|0:0,0:0:0:0:
453,341,51808,1,2,3:2:0:0:
417,208,51958,1,2,3:2:0:0:
392,383,52108,1,2,3:2:0:0:
460,149,52258,1,10,3:2:0:0:
460,149,52333,1,10,3:2:0:0:
460,149,52408,1,2,3:2:0:0:
439,346,52558,1,2,3:2:0:0:
352,96,52708,1,10,3:2:0:0:
318,160,52858,6,0,P|280:97|314:44,1,87.500000834465,14|0,0:0|0:0,0:0:0:0:
129,37,53158,1,2,0:0:0:0:
213,14,53308,2,0,P|309:21|336:28,1,87.500000834465,2|8,0:0|0:0,0:0:0:0:
218,183,53608,1,2,0:0:0:0:
218,183,53908,6,0,L|103:167,1,87.500000834465,2|8,0:0|0:0,0:0:0:0:
332,270,54208,2,0,L|447:254,1,87.500000834465,2|0,0:0|0:0,0:0:0:0:
157,359,54508,2,0,L|42:343,1,87.500000834465,2|8,0:0|0:0,0:0:0:0:
13,306,54808,1,0,0:0:0:0:
218,207,54958,1,2,0:0:0:0:
152,379,55108,1,10,0:0:0:0:
125,286,55258,6,0,P|118:242|114:199,1,87.500000834465,10|0,0:0|0:0,0:0:0:0:
217,90,55558,1,2,0:0:0:0:
244,183,55708,2,0,P|250:226|254:269,1,87.500000834465,2|8,0:0|0:0,0:0:0:0:
152,379,56008,1,2,0:0:0:0:
152,379,56308,6,0,P|175:328|172:256,1,87.500000834465,2|8,0:0|0:0,0:0:0:0:
167,285,56608,2,0,P|160:328|140:367,1,87.500000834465,2|0,0:0|0:0,0:0:0:0:
128,355,56908,2,0,P|148:316|155:273,1,87.500000834465,2|8,0:0|0:0,0:0:0:0:
149,191,57208,1,0,0:0:0:0:
339,237,57358,1,2,0:0:0:0:
361,149,57508,1,10,0:0:0:0:
339,237,57658,6,0,P|404:216|451:215,1,87.500000834465,14|0,0:0|0:0,0:0:0:0:
223,60,57958,1,2,0:0:0:0:
245,148,58108,1,2,0:0:0:0:
223,60,58258,2,0,P|288:81|335:82,1,87.500000834465,10|0,0:0|0:0,0:0:0:0:
107,237,58558,1,2,0:0:0:0:
129,149,58708,1,2,0:0:0:0:
107,237,58858,6,0,P|172:216|219:215,1,87.500000834465,10|2,0:0|0:0,0:0:0:0:
320,320,59158,1,0,0:0:0:0:
269,269,59308,2,0,P|206:242|69:305,1,175.00000166893,2|0,0:0|3:0,0:0:0:0:
150,124,59758,1,2,3:2:0:0:
182,359,59908,1,10,3:2:0:0:
254,381,60058,6,0,P|346:314|332:246,1,175.00000166893,10|2,0:0|0:0,0:0:0:0:
405,200,60508,2,0,P|384:137|384:82,1,87.500000834465,2|8,0:0|0:0,0:0:0:0:
218,89,60808,2,0,P|239:26|239:-29,1,87.500000834465,2|0,0:0|0:0,0:0:0:0:
409,102,61108,2,0,P|292:77|264:76,1,87.500000834465,2|8,0:0|0:0,0:0:0:0:
169,192,61408,1,10,3:2:0:0:
214,0,61558,1,0,3:0:0:0:
242,232,61708,1,10,3:2:0:0:
188,70,61858,1,10,3:2:0:0:
188,70,62008,1,10,3:2:0:0:
354,107,62158,1,2,3:2:0:0:
161,173,62308,1,10,3:2:0:0:
277,210,62458,6,0,P|336:146|314:38,1,175.00000166893,14|10,0:0|0:0,0:0:0:0:
414,6,62908,2,0,P|486:45|504:76,1,87.500000834465,10|8,0:0|0:0,0:0:0:0:
422,125,63208,1,2,0:0:0:0:
422,125,63508,6,0,P|350:114|330:88,1,87.500000834465,2|8,0:0|0:0,0:0:0:0:
197,204,63808,2,0,P|269:193|289:167,1,87.500000834465,2|0,0:0|0:0,0:0:0:0:
422,283,64108,2,0,P|350:272|330:246,1,87.500000834465,2|8,0:0|0:0,0:0:0:0:
342,264,64408,1,0,3:0:0:0:
502,221,64558,1,2,3:2:0:0:
383,378,64708,1,10,3:2:0:0:
295,340,64858,6,0,L|179:351,1,87.500000834465,10|0,0:0|0:0,0:0:0:0:
236,189,65158,1,2,0:0:0:0:
324,227,65308,2,0,L|440:216,1,87.500000834465,2|8,0:0|0:0,0:0:0:0:
180,320,65608,1,2,0:0:0:0:
180,320,65908,6,0,L|160:197,1,87.500000834465,2|8,0:0|0:0,0:0:0:0:
187,212,66208,2,0,L|207:335,1,87.500000834465,2|0,0:0|0:0,0:0:0:0:
222,276,66508,2,0,L|208:190,1,87.500000834465,2|8,0:0|0:0,0:0:0:0:
193,103,66808,1,0,3:0:0:0:
436,130,66958,1,2,3:2:0:0:
485,52,67108,1,10,3:2:0:0:
436,130,67258,6,0,L|450:216,1,87.500000834465,14|0,0:0|0:0,0:0:0:0:
304,305,67558,1,2,0:0:0:0:
353,383,67708,1,2,0:0:0:0:
304,305,67858,6,0,L|318:219,1,87.500000834465,10|0,0:0|0:0,0:0:0:0:
172,130,68158,1,2,0:0:0:0:
221,52,68308,1,2,0:0:0:0:
172,130,68458,6,0,L|186:216,1,87.500000834465,10|2,0:0|0:0,0:0:0:0:
40,305,68758,1,0,0:0:0:0:
89,383,68908,2,0,L|59:198,1,175.00000166893,2|0,0:0|3:0,0:0:0:0:
87,120,69358,1,2,3:2:0:0:
20,9,69508,1,10,3:2:0:0:
108,42,69658,6,0,P|152:38|197:-11,1,87.500000834465,14|0,0:0|0:0,0:0:0:0:
290,136,69958,1,2,0:0:0:0:
202,169,70108,2,0,P|158:165|113:116,1,87.500000834465,2|8,0:0|0:0,0:0:0:0:
365,59,70408,1,2,0:0:0:0:
365,59,70708,6,0,P|323:148|326:235,2,175.00000166893,2|2|2,0:0|0:0|0:0,0:0:0:0:
227,98,71458,1,8,3:2:0:0:
227,98,71533,1,8,3:2:0:0:
227,98,71608,1,8,3:2:0:0:
480,160,71758,1,2,3:2:0:0:
361,196,71908,1,10,3:2:0:0:
480,160,72058,6,0,L|459:293,1,87.500000834465,14|0,0:0|0:0,0:0:0:0:
384,86,72358,2,0,L|405:-47,1,87.500000834465,2|2,0:0|0:0,0:0:0:0:
470,264,72658,1,10,0:0:0:0:
470,264,72958,5,2,0:0:0:0:
361,196,73108,1,2,0:0:0:0:
256,352,73258,1,10,0:0:0:0:
347,381,73408,2,0,P|391:333|364:300,1,87.500000834465,2|0,0:0|0:0,0:0:0:0:
208,279,73708,2,0,P|326:260|411:230,1,175.00000166893,2|0,0:0|3:0,0:0:0:0:
284,232,74158,1,2,3:2:0:0:
480,160,74308,1,10,3:2:0:0:
398,122,74458,6,0,P|337:113|267:107,1,87.500000834465,14|0,0:0|0:0,0:0:0:0:
186,14,74758,1,2,0:0:0:0:
205,132,74908,2,0,L|219:14,1,87.500000834465,2|8,0:0|0:0,0:0:0:0:
75,127,75208,1,2,0:0:0:0:
75,127,75508,6,0,L|187:109,1,87.500000834465,2|8,0:0|0:0,0:0:0:0:
237,255,75808,1,10,3:2:0:0:
252,154,75958,1,10,3:2:0:0:
76,237,76108,1,2,3:2:0:0:
306,322,76258,2,0,L|325:204,1,87.500000834465,2|0,1:2|3:0,0:0:0:0:
295,81,76558,1,2,3:2:0:0:
377,169,76708,1,10,3:2:0:0:
228,226,76858,6,0,P|192:219|142:200,1,75.0000028610231,14|0,0:0|3:0,0:0:0:0:
84,142,77158,1,2,3:2:0:0:
84,142,77308,1,2,3:2:0:0:
273,111,77458,1,2,1:2:0:0:
273,111,77758,6,0,L|262:1,1,75.0000028610231,2|0,3:2|3:0,0:0:0:0:
386,0,78058,2,0,L|403:161,1,150.000005722046,10|0,0:0|0:0,0:0:0:0:
374,224,78508,1,0,3:0:0:0:
153,180,78658,2,0,P|176:243|179:280,1,75.0000028610231,2|0,1:2|0:0,0:0:0:0:
44,161,78958,2,0,P|67:98|70:61,1,75.0000028610231,2|0,3:2|3:0,0:0:0:0:
229,47,79258,5,10,0:0:0:0:
296,83,79408,2,0,P|335:61|342:29,1,75.0000028610231,2|0,3:2|3:0,0:0:0:0:
399,158,79708,1,2,3:2:0:0:
466,122,79858,2,0,P|505:144|512:176,1,75.0000028610231,2|0,1:2|0:0,0:0:0:0:
461,321,80158,1,2,3:2:0:0:
461,321,80308,1,2,3:2:0:0:
461,321,80458,6,0,P|378:316|278:298,1,150.000005722046,10|0,0:0|0:0,0:0:0:0:
190,350,80908,1,0,3:0:0:0:
359,379,81058,2,0,P|388:344|381:307,1,75.0000028610231,2|0,1:2|0:0,0:0:0:0:
312,175,81358,2,0,P|283:210|290:247,1,75.0000028610231,2|0,3:2|3:0,0:0:0:0:
475,217,81658,5,10,0:0:0:0:
435,152,81808,2,0,L|454:42,1,75.0000028610231,2|0,3:2|0:0,0:0:0:0:
307,0,82108,1,2,3:2:0:0:
267,65,82258,2,0,L|286:175,2,75.0000028610231,2|2|2,1:2|3:2|3:2,0:0:0:0:
118,12,82708,2,0,P|58:72|109:144,1,150.000005722046,2|0,3:2|0:0,0:0:0:0:
76,125,83158,1,2,3:2:0:0:
32,208,83308,1,2,3:2:0:0:
187,267,83458,6,0,B|229:242|229:242|203:120,1,150.000005722046,2|0,1:2|3:0,0:0:0:0:
250,57,83908,1,2,3:0:0:0:
136,173,84058,2,0,P|103:133|117:28,1,150.000005722046,10|0,0:0|0:0,0:0:0:0:
127,20,84433,2,0,P|124:57|53:58,1,112.500004291535,2|0,0:0|1:0,0:0:0:0:
0,0,84808,1,0,3:0:0:0:
44,161,84958,2,0,L|62:63,1,75.0000028610231,2|0,0:0|0:0,0:0:0:0:
257,239,85258,5,10,0:0:0:0:
224,32,85408,1,10,3:2:0:0:
198,135,85558,1,0,3:0:0:0:
221,43,85708,1,10,3:2:0:0:
352,138,85858,5,10,3:2:0:0:
220,116,86008,1,10,3:2:0:0:
337,135,86158,1,2,3:2:0:0:
91,203,86308,5,10,3:2:0:0:
