osu file format v14

[General]
AudioFilename: audio.mp3
AudioLeadIn: 0
PreviewTime: 42808
Countdown: 0
SampleSet: Soft
StackLeniency: 0.3
Mode: 0
LetterboxInBreaks: 0
WidescreenStoryboard: 0

[Editor]
Bookmarks: 2458,12058,21658,31258,40858,43258,61858,62458,76858,86308
DistanceSpacing: 1.4
BeatDivisor: 4
GridSize: 32
TimelineZoom: 1

[Metadata]
Title:0 (zero) (TV Size)
TitleUnicode:0 (zero) (TV Size)
Artist:LMYK
ArtistUnicode:LMYK
Creator:eiri-
Version:Hard
Source:ヴァニタスの手記
Tags:Ayyri honne BlastTheKidd Irohas MugiwaraSekai Esutarosa Esu The Case Study of Vanitas no Carte Karte Memoirs of Shuki Japanese English Anime Pop J-Pop JPop 0(zero)
BeatmapID:3113707
BeatmapSetID:1520433

[Difficulty]
HPDrainRate:4.5
CircleSize:3.7
OverallDifficulty:7
ApproachRate:8
SliderMultiplier:1.4
SliderTickRate:0.5

[Events]
//Background and Video events
0,0,"Vanitas 132.jpg",0,0
Video,-350,"ED.avi"
//Break Periods
//Storyboard Layer 0 (Background)
//Storyboard Layer 1 (Fail)
//Storyboard Layer 2 (Pass)
//Storyboard Layer 3 (Foreground)
//Storyboard Layer 4 (Overlay)
//Storyboard Sound Samples

[TimingPoints]
2458,600,4,2,1,50,1,0
21658,-90.9090909090909,4,2,1,60,0,0
40858,-100,4,2,1,70,0,0
43258,-80,4,2,1,80,0,1
61858,-80,4,2,1,80,0,0
62458,-80,4,2,1,80,0,1
76858,-86.9565217391304,4,2,1,70,0,0

[Colours]
Combo1 : 82,199,216
Combo2 : 183,219,255
Combo3 : 96,175,255
Combo4 : 176,231,238

[HitObjects]
480,320,2158,6,0,L|469:369,1,35,2|0,0:3|0:0,0:0:0:0:
427,373,2458,6,0,B|390:344|390:344|407:300|423:229,1,140,10|2,0:0|0:0,0:0:0:0:
399,113,3508,1,2,0:0:0:0:
399,113,3658,2,0,P|444:97|432:29,1,105,2|0,0:0|0:0,0:0:0:0:
420,11,4258,1,2,0:0:0:0:
420,11,4408,1,2,0:0:0:0:
276,44,4858,6,0,P|231:33|192:28,1,70,10|0,0:0|0:0,0:0:0:0:
173,65,5308,1,2,0:0:0:0:
173,65,5458,2,0,P|186:131|190:201,1,105,2|0,0:0|0:0,0:0:0:0:
219,206,6058,2,0,P|203:251|117:234,1,140,2|2,0:0|0:0,0:0:0:0:
16,131,7258,6,0,L|6:66,2,46.6666666666667,10|2|2,0:0|0:0|0:0,0:0:0:0:
53,176,7858,2,0,P|37:246|28:312,1,105,2|2,0:0|0:0,0:0:0:0:
47,325,8458,2,0,P|83:350|117:346,1,70,2|0,0:0|0:0,0:0:0:0:
195,304,9058,2,0,P|216:336|230:372,1,70,2|0,0:0|0:0,0:0:0:0:
280,375,9508,1,2,0:0:0:0:
280,375,9658,6,0,P|322:330|314:264,1,105,10|0,0:0|0:0,0:0:0:0:
353,248,10258,1,2,0:0:0:0:
216,207,10708,1,2,0:0:0:0:
216,207,10858,2,0,P|202:143|197:77,1,105,2|0,0:0|0:0,0:0:0:0:
208,58,11458,1,2,0:0:0:0:
208,58,11608,1,2,0:0:0:0:
345,108,12058,6,0,P|411:96|460:90,1,105,10|0,0:0|0:0,0:0:0:0:
449,189,12808,2,0,P|383:201|357:204,1,70,2|0,0:0|0:0,0:0:0:0:
344,234,13258,1,2,0:0:0:0:
344,234,13408,2,0,L|336:292,2,35,2|2|0,0:0|0:0|0:0,0:0:0:0:
313,203,13858,2,0,L|305:145,1,35,2|2,0:0|0:0,0:0:0:0:
236,234,14308,1,2,0:0:0:0:
236,234,14458,6,0,L|138:220,1,70,10|0,0:0|0:0,0:0:0:0:
137,79,15208,2,0,L|39:93,1,70,2|0,0:0|0:0,0:0:0:0:
39,55,15658,1,2,0:0:0:0:
39,55,15808,2,0,P|52:15|51:3,2,35,2|0|0,0:0|0:0|0:0,0:0:0:0:
0,80,16258,2,0,L|11:134,1,35,2|2,0:0|0:0,0:0:0:0:
46,255,16858,6,0,P|88:262|131:264,1,70,10|2,0:0|0:0,0:0:0:0:
164,248,17308,1,2,0:0:0:0:
164,248,17458,2,0,L|151:333,1,70,2|0,0:0|0:0,0:0:0:0:
189,357,17908,1,2,0:0:0:0:
189,357,18058,2,0,P|244:349|323:345,1,105,2|2,0:0|0:0,0:0:0:0:
338,364,18658,1,2,0:0:0:0:
472,299,19108,1,2,0:0:0:0:
472,299,19258,6,0,P|448:248|452:172,1,105,10|0,0:0|0:0,0:0:0:0:
406,170,19858,2,0,P|466:120|458:76,1,105,2|0,0:0|0:0,0:0:0:0:
480,55,20458,1,2,0:0:0:0:
480,55,20608,2,0,P|416:40|363:20,1,105,2|2,0:0|0:0,0:0:0:0:
338,54,21208,1,2,0:0:0:0:
179,10,21658,6,0,P|191:52|196:93,1,77.0000023498536,10|8,0:0|0:0,0:0:0:0:
136,174,22258,2,0,P|88:155|2:139,1,115.50000352478,2|0,3:2|0:0,0:0:0:0:
10,89,22858,1,2,1:2:0:0:
63,297,23458,2,0,P|115:288|156:285,1,77.0000023498536,10|0,0:0|0:0,0:0:0:0:
237,241,24058,6,0,P|231:290|218:347,2,77.0000023498536,10|0|8,0:0|3:0|0:0,0:0:0:0:
197,29,25258,2,0,P|246:46|290:52,1,77.0000023498536,2|0,1:2|3:0,0:0:0:0:
327,42,25708,1,2,0:0:0:0:
327,42,25858,2,0,P|314:97|313:131,1,77.0000023498536,10|0,0:0|3:0,0:0:0:0:
376,204,26458,6,0,B|441:195|441:195|412:228,2,77.0000023498536,10|8|2,0:0|0:0|3:2,0:0:0:0:
269,223,27358,1,0,3:0:0:0:
342,301,27658,1,0,1:0:0:0:
315,146,28108,1,2,0:0:0:0:
315,146,28257,2,0,L|326:88,2,44.0000013427735,10|2|2,0:0|0:0|0:0,0:0:0:0:
241,203,28858,6,0,P|203:194|148:190,1,77.0000023498536,2|0,3:2|1:0,0:0:0:0:
60,215,29458,1,10,0:0:0:0:
33,59,29908,1,2,0:0:0:0:
33,59,30058,2,0,P|69:96|151:83,1,115.50000352478,2|0,1:2|0:0,0:0:0:0:
173,127,30658,2,0,L|166:198,2,51.3333348999024,2|0|0,3:2|3:0|3:0,0:0:0:0:
242,86,31258,6,0,P|280:77|335:73,1,77.0000023498536,10|8,0:0|0:0,0:0:0:0:
422,47,31858,2,0,P|440:100|378:134,1,115.50000352478,2|0,3:2|0:0,0:0:0:0:
373,182,32458,1,2,1:2:0:0:
202,50,33058,2,0,P|150:41|109:38,1,77.0000023498536,10|0,0:0|3:0,0:0:0:0:
50,116,33658,6,0,P|48:157|38:223,2,77.0000023498536,2|0|10,0:0|3:0|0:0,0:0:0:0:
241,17,34858,2,0,P|279:12|317:5,1,77.0000023498536,2|2,1:2|3:2,0:0:0:0:
361,44,35308,1,2,0:0:0:0:
361,44,35458,2,0,L|348:138,1,77.0000023498536,10|0,0:0|3:0,0:0:0:0:
420,202,36058,6,0,L|428:261,1,38.5000011749268,10|2,0:0|0:0,0:0:0:0:
434,293,36358,1,8,0:0:0:0:
362,374,36658,2,0,P|324:366|285:362,1,77.0000023498536,2|2,3:2|3:2,0:0:0:0:
179,376,37258,1,0,1:0:0:0:
235,168,37858,6,0,L|224:102,2,57.7500017623902,10|2|2,0:0|0:0|0:0,0:0:0:0:
195,204,38458,2,0,P|157:195|102:191,1,77.0000023498536,2|0,3:2|1:0,0:0:0:0:
24,303,39058,6,0,L|35:373,2,57.7500017623902,10|2|2,0:0|0:0|0:0,0:0:0:0:
64,267,39658,2,0,P|102:276|157:280,1,77.0000023498536,2|2,1:2|1:2,0:0:0:0:
224,212,40258,1,10,0:0:0:0:
299,358,40708,1,2,3:2:0:0:
299,358,40858,6,0,B|337:339|337:339|357:366|387:390,1,105,10|2,0:0|1:2,0:0:0:0:
427,370,41458,1,2,1:2:0:0:
499,303,41758,1,2,1:2:0:0:
418,247,42058,2,0,L|424:197,1,35,2|2,3:2|3:2,0:0:0:0:
394,171,42358,2,0,L|388:121,1,35,2|2,3:2|3:2,0:0:0:0:
151,329,43258,6,0,P|107:322|66:307,1,87.5,14|2,0:0|0:0,0:0:0:0:
22,241,43708,2,0,P|38:220|48:187,1,43.75,2|8,0:0|0:0,0:0:0:0:
47,124,44008,1,2,0:0:0:0:
177,36,44308,2,0,P|130:46|59:55,2,87.5,2|2|2,0:0|0:0|0:0,0:0:0:0:
410,69,45358,1,2,0:0:0:0:
440,141,45508,1,10,0:0:0:0:
387,199,45658,6,0,B|373:184|373:184|284:202,1,87.5,10|2,0:0|0:0,0:0:0:0:
270,266,46108,2,0,B|284:281|284:281|373:263,1,87.5,2|2,0:0|0:0,0:0:0:0:
478,357,46708,2,0,P|484:302|491:255,2,87.5,2|2|2,0:0|0:0|0:0,0:0:0:0:
401,375,47458,1,8,0:0:0:0:
432,140,47908,1,10,3:2:0:0:
493,189,48058,6,0,P|509:159|508:126,1,43.75,14|0,0:0|0:0,0:0:0:0:
492,73,48358,1,2,0:0:0:0:
418,101,48508,2,0,P|370:92|316:73,1,87.5,2|2,0:0|0:0,0:0:0:0:
199,163,49108,2,0,P|164:138|183:68,2,87.5,2|2|2,0:0|0:0|0:0,0:0:0:0:
245,227,49858,1,8,0:0:0:0:
386,158,50158,1,2,3:2:0:0:
425,226,50308,1,10,3:2:0:0:
380,290,50458,6,0,P|389:340|400:386,1,87.5,10|2,0:0|0:0,0:0:0:0:
474,361,50908,2,0,P|465:311|454:265,1,87.5,2|2,0:0|0:0,0:0:0:0:
506,127,51508,2,0,P|454:105|414:102,1,87.5,2|2,0:0|3:2,0:0:0:0:
352,137,51958,1,0,3:2:0:0:
389,206,52108,2,0,L|396:259,1,43.75,2|10,3:2|3:2,0:0:0:0:
357,318,52408,1,2,3:2:0:0:
279,301,52558,1,2,3:2:0:0:
236,368,52708,1,10,3:2:0:0:
163,338,52858,6,0,P|92:333|48:332,1,87.5,14|2,0:0|0:0,0:0:0:0:
17,278,53308,2,0,P|29:241|39:223,1,43.75,2|8,0:0|0:0,0:0:0:0:
80,175,53608,1,2,0:0:0:0:
25,27,53908,2,0,P|52:64|110:55,2,87.5,2|2|2,0:0|0:0|0:0,0:0:0:0:
259,58,54958,1,2,0:0:0:0:
229,130,55108,1,10,0:0:0:0:
284,186,55258,6,0,P|290:241|292:291,1,87.5,10|2,0:0|0:0,0:0:0:0:
342,333,55708,2,0,P|393:306|377:270,1,87.5,2|2,0:0|0:0,0:0:0:0:
426,131,56308,2,0,P|371:111|323:78,2,87.5,2|2|2,0:0|0:0|0:0,0:0:0:0:
487,359,57358,1,2,0:0:0:0:
446,291,57508,1,10,0:0:0:0:
488,224,57658,6,0,P|504:194|503:161,1,43.75,14|0,0:0|0:0,0:0:0:0:
477,111,57958,1,2,0:0:0:0:
409,152,58108,1,2,0:0:0:0:
342,110,58258,2,0,P|312:94|279:95,1,43.75,10|0,0:0|0:0,0:0:0:0:
228,120,58558,1,2,0:0:0:0:
187,188,58708,1,2,0:0:0:0:
229,255,58858,6,0,P|245:285|244:318,1,43.75,10|2,0:0|0:0,0:0:0:0:
394,348,59308,1,2,0:0:0:0:
432,114,59758,1,2,3:2:0:0:
392,45,59908,1,10,3:2:0:0:
316,68,60058,6,0,P|268:66|212:59,1,87.5,10|2,0:0|0:0,0:0:0:0:
163,106,60508,2,0,P|115:108|59:115,1,87.5,2|2,0:0|0:0,0:0:0:0:
23,261,61108,2,0,P|66:259|110:254,1,87.5,2|10,0:0|3:2,0:0:0:0:
184,229,61558,1,0,3:0:0:0:
146,159,61708,1,10,3:2:0:0:
185,90,61858,2,0,L|189:28,1,43.75,10|10,3:2|3:2,0:0:0:0:
257,8,62158,1,2,3:2:0:0:
317,58,62308,1,10,3:2:0:0:
391,31,62458,6,0,P|462:36|506:37,1,87.5,14|10,0:0|0:0,0:0:0:0:
496,113,62908,2,0,P|484:150|474:168,1,43.75,10|8,0:0|0:0,0:0:0:0:
433,216,63208,1,2,0:0:0:0:
312,115,63508,2,0,P|339:78|397:87,2,87.5,2|2|2,0:0|0:0|0:0,0:0:0:0:
212,329,64558,1,2,3:2:0:0:
242,257,64708,1,10,3:2:0:0:
187,201,64858,6,0,P|181:146|179:96,1,87.5,10|2,0:0|0:0,0:0:0:0:
129,54,65308,2,0,P|78:81|94:117,1,87.5,2|2,0:0|0:0,0:0:0:0:
2,237,65908,2,0,P|45:250|56:317,2,87.5,2|2|2,0:0|0:0|0:0,0:0:0:0:
228,171,66958,1,2,3:2:0:0:
296,130,67108,1,10,3:2:0:0:
363,172,67258,6,0,P|393:188|426:187,1,43.75,14|0,0:0|0:0,0:0:0:0:
469,148,67558,1,2,0:0:0:0:
510,216,67708,1,2,0:0:0:0:
468,283,67858,2,0,P|452:313|453:346,1,43.75,10|0,0:0|0:0,0:0:0:0:
384,363,68158,1,2,0:0:0:0:
343,295,68308,1,2,0:0:0:0:
385,228,68458,6,0,P|401:198|400:165,1,43.75,10|2,0:0|0:0,0:0:0:0:
367,35,68908,1,2,0:0:0:0:
213,214,69358,1,2,3:2:0:0:
173,145,69508,1,10,3:2:0:0:
97,168,69658,6,0,P|49:166|-7:159,1,87.5,14|2,0:0|0:0,0:0:0:0:
19,83,70108,2,0,P|62:84|106:89,1,87.5,2|2,0:0|0:0,0:0:0:0:
253,31,70708,2,0,P|257:81|264:133,2,87.5,2|2|2,0:0|0:0|0:0,0:0:0:0:
330,15,71458,1,8,3:2:0:0:
381,74,71608,1,8,3:2:0:0:
335,138,71758,1,2,3:2:0:0:
261,118,71908,1,10,3:2:0:0:
201,169,72058,6,0,P|143:154|97:148,1,87.5,14|2,0:0|0:0,0:0:0:0:
50,193,72508,1,2,0:0:0:0:
93,258,72658,2,0,P|104:306|110:356,1,87.5,10|2,0:0|0:0,0:0:0:0:
183,371,73108,1,2,0:0:0:0:
248,327,73258,2,0,P|272:333|303:336,1,43.75,10|2,0:0|0:0,0:0:0:0:
446,309,73708,1,2,0:0:0:0:
388,79,74158,1,2,3:2:0:0:
326,127,74308,1,10,3:2:0:0:
260,83,74458,6,0,P|248:38|243:-6,1,87.5,14|2,0:0|0:0,0:0:0:0:
166,15,74908,2,0,P|171:58|182:100,1,87.5,2|2,0:0|0:0,0:0:0:0:
88,227,75508,2,0,P|34:195|49:166,2,87.5,2|10|2,0:0|3:2|3:2,0:0:0:0:
159,260,76258,2,0,L|149:331,1,43.75,2|0,1:2|3:0,0:0:0:0:
200,365,76558,1,2,3:2:0:0:
267,325,76708,1,10,3:2:0:0:
328,374,76858,6,0,P|367:366|436:357,2,80.5000015354157,14|2|2,0:0|3:2|1:2,0:0:0:0:
218,322,77758,1,2,3:2:0:0:
316,251,78058,2,0,P|287:194|262:77,1,161.000003070831,10|2,0:0|1:2,0:0:0:0:
172,20,78958,1,2,3:2:0:0:
172,20,79108,1,0,3:0:0:0:
172,20,79258,6,0,P|167:56|162:74,1,40.2500007677078,10|2,0:0|3:2,0:0:0:0:
113,170,79708,1,2,3:2:0:0:
113,170,79858,2,0,P|118:206|123:224,1,40.2500007677078,2|0,1:2|0:0,0:0:0:0:
147,274,80158,1,2,3:2:0:0:
147,274,80308,1,2,3:2:0:0:
147,274,80458,2,0,B|235:279|203:198|306:202,1,161.000003070831,10|2,0:0|1:2,0:0:0:0:
400,157,81358,1,2,3:2:0:0:
485,249,81658,5,10,0:0:0:0:
485,249,81808,2,0,P|469:309|467:340,1,80.5000015354157,2|2,3:2|3:2,0:0:0:0:
421,366,82258,2,0,P|389:344|324:352,1,80.5000015354157,2|2,1:2|3:2,0:0:0:0:
309,295,82708,2,0,P|278:360|183:339,1,161.000003070831,2|2,3:2|3:2,0:0:0:0:
141,375,83458,1,2,1:2:0:0:
168,195,83908,6,0,P|158:153|150:91,1,80.5000015354157,2|0,3:2|3:0,0:0:0:0:
113,69,84358,2,0,P|172:29|202:42,1,80.5000015354157,2|0,3:2|1:0,0:0:0:0:
294,49,84958,2,0,L|285:125,1,40.2500007677078,2|0,0:0|0:0,0:0:0:0:
325,144,85258,1,10,0:0:0:0:
325,144,85408,2,0,L|385:136,2,40.2500007677078,10|0|10,3:2|3:0|3:2,0:0:0:0:
287,192,85858,1,10,3:2:0:0:
292,242,86008,1,10,3:2:0:0:
335,269,86158,1,2,3:2:0:0:
382,252,86308,5,10,3:2:0:0:
