osu file format v14

[General]
AudioFilename: audio.mp3
AudioLeadIn: 0
PreviewTime: 42808
Countdown: 0
SampleSet: Soft
StackLeniency: 0.3
Mode: 0
LetterboxInBreaks: 0
WidescreenStoryboard: 0

[Editor]
Bookmarks: 2458,12058,21658,31258,40858,43258,61858,62458,76858,86308
DistanceSpacing: 1.2
BeatDivisor: 4
GridSize: 32
TimelineZoom: 1

[Metadata]
Title:0 (zero) (TV Size)
TitleUnicode:0 (zero) (TV Size)
Artist:LMYK
ArtistUnicode:LMYK
Creator:eiri-
Version:Easy
Source:ヴァニタスの手記
Tags:Ayyri honne BlastTheKidd Irohas MugiwaraSekai Esutarosa Esu The Case Study of Vanitas no Carte Karte Memoirs of Shuki Japanese English Anime Pop J-Pop JPop 0(zero)
BeatmapID:3113706
BeatmapSetID:1520433

[Difficulty]
HPDrainRate:3
CircleSize:3
OverallDifficulty:3
ApproachRate:4
SliderMultiplier:1
SliderTickRate:0.5

[Events]
//Background and Video events
0,0,"Vanitas 132.jpg",0,0
Video,-350,"ED.avi"
//Break Periods
//Storyboard Layer 0 (Background)
//Storyboard Layer 1 (Fail)
//Storyboard Layer 2 (Pass)
//Storyboard Layer 3 (Foreground)
//Storyboard Layer 4 (Overlay)
//Storyboard Sound Samples

[TimingPoints]
2458,600,4,2,1,50,1,0
21658,-95.2380952380952,4,2,1,60,0,0
40858,-95.2380952380952,4,2,1,70,0,0
43258,-86.9565217391304,4,2,1,80,0,1
61858,-86.9565217391304,4,2,1,80,0,0
62458,-86.9565217391304,4,2,1,80,0,1
76858,-90.9090909090909,4,2,1,70,0,0

[Colours]
Combo1 : 82,199,216
Combo2 : 183,219,255
Combo3 : 96,175,255
Combo4 : 176,231,238

[HitObjects]
480,352,2458,6,0,P|428:348|377:339,1,100,10|2,0:0|0:0,0:0:0:0:
242,358,3658,2,0,P|255:307|259:249,1,100,2|0,0:0|0:0,0:0:0:0:
359,161,4858,2,0,P|328:136|296:70,1,100,10|2,0:0|0:0,0:0:0:0:
173,22,6058,2,0,P|135:40|123:96,1,100,2|0,0:0|0:0,0:0:0:0:
19,188,7258,6,0,P|81:239|128:365,1,200,10|2,0:0|0:0,0:0:0:0:
230,253,9058,1,2,0:0:0:0:
337,342,9658,2,0,P|388:335|453:331,2,100,10|0|2,0:0|0:0|0:0,0:0:0:0:
230,253,11458,1,2,0:0:0:0:
340,167,12058,6,0,P|318:107|303:37,1,125,10|2,0:0|0:0,0:0:0:0:
61,18,13858,1,2,0:0:0:0:
1,144,14458,2,0,L|20:274,1,125,10|0,0:0|0:0,0:0:0:0:
150,316,15808,2,0,L|134:205,1,100,2|0,0:0|0:0,0:0:0:0:
208,141,16858,6,0,B|274:131|274:131|289:204,1,125,10|0,0:0|0:0,0:0:0:0:
374,244,18058,2,0,P|444:218|440:165,1,125,2|0,0:0|0:0,0:0:0:0:
494,83,19258,2,0,B|469:53|469:53|371:53|324:128,1,200,10|0,0:0|0:0,0:0:0:0:
449,191,21058,1,2,0:0:0:0:
338,287,21658,6,0,L|346:358,2,52.4999983978272,10|8|2,0:0|0:0|3:2,0:0:0:0:
325,161,22858,1,2,1:2:0:0:
218,229,23458,1,10,0:0:0:0:
157,118,24058,2,0,P|101:113|38:106,2,104.999996795654,10|8|2,0:0|0:0|1:2,0:0:0:0:
264,50,25858,1,10,0:0:0:0:
325,161,26458,6,0,L|317:232,2,52.4999983978272,10|8|2,0:0|0:0|3:2,0:0:0:0:
264,50,27658,1,0,1:0:0:0:
384,14,28258,2,0,B|417:23|417:23|439:62|404:104,1,104.999996795654,10|2,0:0|3:2,0:0:0:0:
463,206,29458,1,10,0:0:0:0:
376,297,30058,2,0,P|305:276|254:271,1,104.999996795654,2|2,1:2|3:2,0:0:0:0:
156,317,31258,6,0,L|164:388,2,52.4999983978272,10|8|2,0:0|0:0|3:2,0:0:0:0:
53,242,32458,1,2,1:2:0:0:
125,139,33058,1,10,0:0:0:0:
104,14,33658,2,0,P|48:9|-15:2,2,104.999996795654,2|10|2,0:0|0:0|1:2,0:0:0:0:
229,5,35458,1,10,0:0:0:0:
246,129,36058,6,0,L|254:200,2,52.4999983978272,10|8|2,0:0|0:0|3:2,0:0:0:0:
354,65,37258,1,0,1:0:0:0:
452,143,37858,2,0,B|485:134|485:134|507:95|472:53,1,104.999996795654,10|2,0:0|3:2,0:0:0:0:
371,5,39058,2,0,B|338:14|338:14|316:53|351:95,2,104.999996795654,10|2|10,0:0|1:2|0:0,0:0:0:0:
483,67,40858,5,10,0:0:0:0:
446,154,41308,2,0,L|462:255,1,78.7499975967408,2|2,1:2|1:2,0:0:0:0:
497,281,42058,2,0,P|469:333|440:321,1,78.7499975967408,2|2,3:2|3:2,0:0:0:0:
291,306,43258,6,0,P|261:271|287:164,1,143.750002741814,14|2,0:0|0:0,0:0:0:0:
277,110,44308,2,0,P|303:104|340:89,2,57.5000010967255,2|2|2,0:0|0:0|0:0,0:0:0:0:
132,204,45658,2,0,L|39:189,1,86.2500016450882,10|2,0:0|0:0,0:0:0:0:
109,67,46708,2,0,L|97:-13,2,57.5000010967255,2|2|2,0:0|0:0|0:0,0:0:0:0:
253,161,48058,6,0,P|313:116|300:41,1,143.750002741814,14|2,0:0|0:0,0:0:0:0:
359,6,49108,2,0,L|434:-5,2,57.5000010967255,2|2|2,0:0|0:0|0:0,0:0:0:0:
408,97,50158,2,0,P|423:169|432:252,1,143.750002741814,2|2,3:2|0:0,0:0:0:0:
332,334,51508,2,0,P|317:262|308:179,1,143.750002741814,2|10,0:0|3:2,0:0:0:0:
239,72,52858,6,0,B|205:109|205:109|87:93,1,143.750002741814,14|2,0:0|0:0,0:0:0:0:
50,127,53908,2,0,P|19:90|18:71,2,57.5000010967255,2|2|2,0:0|0:0|0:0,0:0:0:0:
103,222,54958,1,2,0:0:0:0:
103,222,55258,2,0,P|92:300|83:328,1,86.2500016450882,10|2,0:0|0:0,0:0:0:0:
213,369,56308,2,0,P|217:323|224:296,2,57.5000010967255,2|2|2,0:0|0:0|0:0,0:0:0:0:
376,312,57658,6,0,L|454:305,2,57.5000010967255,14|2|10,0:0|0:0|0:0,0:0:0:0:
317,285,58558,1,2,0:0:0:0:
317,285,58858,2,0,B|300:254|300:254|314:186,1,86.2500016450882,10|2,0:0|0:0,0:0:0:0:
286,103,59758,2,0,P|349:162|414:146,1,143.750002741814,2|2,3:2|0:0,0:0:0:0:
506,66,61108,2,0,L|515:143,2,57.5000010967255,2|10|10,0:0|3:2|3:2,0:0:0:0:
342,9,62458,6,0,P|320:68|240:77,1,143.750002741814,14|2,0:0|0:0,0:0:0:0:
184,109,63508,2,0,L|194:183,2,57.5000010967255,2|2|2,0:0|0:0|0:0,0:0:0:0:
26,38,64858,2,0,P|17:95|28:133,1,86.2500016450882,10|2,0:0|0:0,0:0:0:0:
97,238,65908,2,0,L|107:312,2,57.5000010967255,2|2|2,0:0|0:0|0:0,0:0:0:0:
161,76,67258,6,0,L|83:83,2,57.5000010967255,14|2|10,0:0|0:0|0:0,0:0:0:0:
211,115,68158,1,2,0:0:0:0:
211,115,68458,2,0,B|228:146|228:146|214:214,1,86.2500016450882,10|2,0:0|0:0,0:0:0:0:
210,302,69358,1,2,3:2:0:0:
210,302,69658,2,0,P|248:298|323:293,1,86.2500016450882,14|2,0:0|0:0,0:0:0:0:
427,250,70708,2,0,L|418:328,2,57.5000010967255,2|2|2,0:0|0:0|0:0,0:0:0:0:
380,83,72058,6,0,L|458:90,2,57.5000010967255,14|2|10,0:0|0:0|0:0,0:0:0:0:
330,122,72958,1,2,0:0:0:0:
330,122,73258,2,0,B|313:153|313:153|327:221,1,86.2500016450882,10|2,0:0|0:0,0:0:0:0:
265,289,74158,2,0,P|194:279|107:271,1,143.750002741814,2|2,3:2|0:0,0:0:0:0:
22,176,75508,2,0,L|13:100,2,57.5000010967255,2|10|2,0:0|3:2|3:2,0:0:0:0:
167,254,76858,6,0,L|160:317,2,55.0000016784668,14|2|2,0:0|3:2|1:2,0:0:0:0:
273,175,78058,2,0,B|312:194|312:194|304:274,1,110.000003356934,10|2,0:0|1:2,0:0:0:0:
403,349,79258,2,0,L|466:342,2,55.0000016784668,10|0|2,0:0|3:0|1:2,0:0:0:0:
272,371,80458,2,0,B|227:366|227:366|225:357|225:357|152:350,1,110.000003356934,10|2,0:0|1:2,0:0:0:0:
69,266,81658,6,0,L|62:203,2,55.0000016784668,10|0|2,0:0|0:0|1:2,0:0:0:0:
167,255,82708,1,2,3:2:0:0:
143,91,83458,2,0,B|181:97|181:97|209:151,2,82.5000025177003,2|2|2,1:2|0:0|0:0,0:0:0:0:
18,124,84958,1,2,0:0:0:0:
18,124,85258,2,0,L|7:62,2,55.0000016784668,10|0|10,0:0|3:0|3:2,0:0:0:0:
2,222,86308,5,10,3:2:0:0:
