osu file format v14

[General]
AudioFilename: audio.mp3
AudioLeadIn: 0
PreviewTime: 42808
Countdown: 0
SampleSet: Soft
StackLeniency: 0.3
Mode: 0
LetterboxInBreaks: 0
WidescreenStoryboard: 0

[Editor]
Bookmarks: 2458,12058,21658,31258,40858,43258,61858,62458,76858,86308
DistanceSpacing: 1
BeatDivisor: 4
GridSize: 32
TimelineZoom: 1

[Metadata]
Title:0 (zero) (TV Size)
TitleUnicode:0 (zero) (TV Size)
Artist:LMYK
ArtistUnicode:LMYK
Creator:eiri-
Version:Another
Source:ヴァニタスの手記
Tags:Ayyri honne BlastTheKidd Irohas MugiwaraSekai Esutarosa Esu The Case Study of Vanitas no Carte Karte Memoirs of Shuki Japanese English Anime Pop J-Pop JPop 0(zero)
BeatmapID:3111810
BeatmapSetID:1520433

[Difficulty]
HPDrainRate:5
CircleSize:3.7
OverallDifficulty:8
ApproachRate:9
SliderMultiplier:2
SliderTickRate:1

[Events]
//Background and Video events
0,0,"Vanitas 132.jpg",0,0
Video,-350,"ED.avi"
//Break Periods
//Storyboard Layer 0 (Background)
//Storyboard Layer 1 (Fail)
//Storyboard Layer 2 (Pass)
//Storyboard Layer 3 (Foreground)
//Storyboard Layer 4 (Overlay)
//Storyboard Sound Samples

[TimingPoints]
2458,600,4,2,1,50,1,0
21658,-86.9565217391304,4,2,1,60,0,0
40858,-200,4,2,1,70,0,0
42808,-57.1428571428571,4,2,1,50,0,0
43258,-66.6666666666667,4,2,1,80,0,1
61858,-66.6666666666667,4,2,1,80,0,0
62458,-66.6666666666667,4,2,1,80,0,1
76858,-80,4,2,1,70,0,0

[Colours]
Combo1 : 82,199,216
Combo2 : 183,219,255
Combo3 : 96,175,255
Combo4 : 176,231,238

[HitObjects]
489,305,2158,6,0,P|485:337|455:345,1,50,2|0,0:3|0:0,0:0:0:0:
438,353,2458,6,0,P|458:296|458:263,1,75,10|2,0:0|0:0,0:0:0:0:
458,281,2833,1,2,0:0:0:0:
256,288,3058,2,0,P|310:276|374:237,1,125,2|0,0:0|0:0,0:0:0:0:
161,210,3658,1,2,0:0:0:0:
161,210,3808,2,0,L|172:272,2,50,2|0|0,0:0|0:0|0:0,0:0:0:0:
83,354,4258,1,2,0:0:0:0:
83,354,4408,2,0,L|94:292,1,50,2|0,0:0|0:0,0:0:0:0:
53,113,4858,6,0,P|16:64|6:33,1,75,10|2,0:0|0:0,0:0:0:0:
11,51,5233,1,2,0:0:0:0:
187,84,5458,2,0,P|249:75|335:68,1,125,2|0,0:0|0:0,0:0:0:0:
471,24,6058,1,2,0:0:0:0:
471,24,6208,2,0,L|460:89,2,50,2|0|0,0:0|0:0|0:0,0:0:0:0:
366,180,6658,1,2,0:0:0:0:
366,180,6808,2,0,L|355:115,1,50,2|0,0:0|0:0,0:0:0:0:
494,264,7258,6,0,P|441:251|411:248,1,75,10|2,0:0|0:0,0:0:0:0:
420,248,7633,1,2,0:0:0:0:
330,377,7858,2,0,P|275:345|299:277,1,125,2|0,0:0|0:0,0:0:0:0:
205,185,8458,1,2,0:0:0:0:
205,185,8608,2,0,L|275:178,2,50,2|0|0,0:0|0:0|0:0,0:0:0:0:
143,300,9058,1,2,0:0:0:0:
143,300,9208,2,0,L|73:293,1,50,2|0,0:0|0:0,0:0:0:0:
0,160,9508,1,2,0:0:0:0:
0,160,9658,6,0,B|50:173|50:173|96:126|72:69,1,150,10|0,0:0|0:0,0:0:0:0:
227,40,10258,1,2,0:0:0:0:
227,40,10408,2,0,B|186:27|186:27|154:55|177:99,1,100,2|2,0:0|0:0,0:0:0:0:
104,10,10858,1,2,0:0:0:0:
104,10,11008,2,0,P|125:60|144:165,1,150,2|2,0:0|0:0,0:0:0:0:
143,153,11608,1,2,0:0:0:0:
480,128,12058,5,10,0:0:0:0:
480,128,12208,2,0,P|428:112|367:76,1,116.666666666667,2|2,0:0|0:0,0:0:0:0:
245,219,12808,2,0,P|297:203|358:167,1,116.666666666667,2|2,0:0|0:0,0:0:0:0:
151,116,13408,1,2,0:0:0:0:
151,116,13558,2,0,L|138:43,1,50,2|0,0:0|0:0,0:0:0:0:
58,1,13858,1,2,0:0:0:0:
58,1,14008,2,0,P|105:19|173:24,1,100,2|0,0:0|0:0,0:0:0:0:
286,160,14533,6,0,P|274:104|255:43,1,100,10|2,0:0|0:0,0:0:0:0:
461,16,15058,1,2,0:0:0:0:
461,16,15208,2,0,P|449:72|430:133,1,100,2|0,0:0|0:0,0:0:0:0:
475,289,15658,1,2,0:0:0:0:
507,216,15808,2,0,L|429:205,1,50,2|0,0:0|0:0,0:0:0:0:
335,249,16108,1,0,0:0:0:0:
447,134,16258,1,2,0:0:0:0:
247,84,16408,1,2,0:0:0:0:
247,84,16933,6,0,L|256:-1,2,75,10|2|2,0:0|0:0|0:0,0:0:0:0:
367,175,17533,2,0,B|395:193|395:193|371:85,1,125,2|0,0:0|0:0,0:0:0:0:
159,168,18133,2,0,B|121:181|63:129|84:45,1,150,2|2,0:0|0:0,0:0:0:0:
0,0,18733,2,0,P|22:45|51:158,1,150,2|2,0:0|0:0,0:0:0:0:
22,335,19408,6,0,P|55:317|98:307,1,75,10|0,0:0|0:0,0:0:0:0:
161,203,19783,1,2,0:0:0:0:
224,356,20008,2,0,P|257:374|300:384,1,75,2|0,0:0|0:0,0:0:0:0:
372,277,20383,1,2,0:0:0:0:
410,362,20608,2,0,P|415:320|426:253,1,100,2|0,0:0|0:0,0:0:0:0:
442,156,21058,1,2,0:0:0:0:
256,208,21208,1,2,0:0:0:0:
324,244,21358,2,0,L|375:238,2,33.3333333333333,0|0|0,3:0|3:0|3:0,0:0:0:0:
216,377,21658,6,0,P|197:324|191:284,1,57.5000010967255,10|0,0:0|0:0,0:0:0:0:
72,282,21958,2,0,P|91:229|97:189,1,57.5000010967255,8|0,0:0|0:0,0:0:0:0:
271,167,22258,2,0,P|208:153|151:144,1,115.000002193451,2|0,3:2|3:0,0:0:0:0:
288,64,22858,2,0,P|351:50|408:41,1,115.000002193451,2|0,1:2|3:0,0:0:0:0:
405,53,23458,2,0,P|385:122|367:226,1,172.500003290176,10|0,0:0|3:0,0:0:0:0:
419,352,24058,6,0,P|410:296|358:312,2,115.000002193451,10|0|8,0:0|3:0|0:0,0:0:0:0:
419,352,24958,1,0,3:0:0:0:
469,192,25258,2,0,B|412:204|358:159|350:58,1,172.500003290176,2|2,1:2|0:0,0:0:0:0:
258,232,25858,2,0,B|364:209|293:115|420:107,1,172.500003290176,10|0,0:0|0:0,0:0:0:0:
226,21,26458,6,0,P|241:57|240:96,1,57.5000010967255,10|0,0:0|0:0,0:0:0:0:
152,192,26758,2,0,P|173:159|179:120,1,57.5000010967255,8|0,0:0|0:0,0:0:0:0:
54,191,27058,2,0,B|152:204|99:343,1,172.500003290176,2|0,3:2|0:0,0:0:0:0:
237,363,27658,1,0,1:0:0:0:
237,363,27958,1,0,3:0:0:0:
165,252,28257,6,0,P|175:196|180:180,1,65.7142869676863,10|2,0:0|0:0,0:0:0:0:
230,111,28600,5,2,0:0:0:0:
71,12,28858,6,0,P|152:21|229:43,1,115.000002193451,2|0,3:2|1:0,0:0:0:0:
118,95,29458,1,10,0:0:0:0:
293,51,29833,1,2,0:0:0:0:
250,139,30058,2,0,P|300:131|374:124,1,115.000002193451,2|0,1:2|3:0,0:0:0:0:
460,30,30658,2,0,B|455:62|455:62|460:72|460:72|450:127,2,76.6666681289673,2|0|0,3:2|3:0|3:0,0:0:0:0:
333,169,31258,6,0,P|385:151|400:131,1,57.5000010967255,10|0,0:0|0:0,0:0:0:0:
328,295,31558,2,0,P|282:264|273:240,1,57.5000010967255,8|0,0:0|0:0,0:0:0:0:
461,266,31858,2,0,P|438:326|428:379,1,115.000002193451,2|0,3:2|3:0,0:0:0:0:
242,352,32458,2,0,P|235:273|228:226,1,115.000002193451,2|0,1:2|3:0,0:0:0:0:
196,9,33058,2,0,P|188:65|180:191,1,172.500003290176,10|0,0:0|0:0,0:0:0:0:
103,307,33658,6,0,P|112:251|164:267,2,115.000002193451,2|0|10,0:0|3:0|0:0,0:0:0:0:
103,307,34558,1,0,3:0:0:0:
275,351,34858,2,0,P|233:372|206:395,1,57.5000010967255,2|0,1:2|0:0,0:0:0:0:
251,256,35158,2,0,P|296:269|326:287,1,57.5000010967255,2|0,3:2|0:0,0:0:0:0:
440,358,35458,2,0,P|415:293|418:199,1,143.750002741814,10|2,0:0|0:0,0:0:0:0:
270,146,36058,5,10,0:0:0:0:
270,146,36208,2,0,P|309:113|300:87,2,57.5000010967255,2|8|0,0:0|0:0|0:0,0:0:0:0:
198,243,36658,2,0,P|185:197|161:156,1,57.5000010967255,2|0,3:2|0:0,0:0:0:0:
306,274,36958,2,0,P|295:300|289:328,1,57.5000010967255,2|0,3:2|0:0,0:0:0:0:
145,383,37258,1,0,1:0:0:0:
145,383,37558,1,0,3:0:0:0:
33,266,37858,6,0,P|39:219|42:167,2,86.2500016450882,10|2|2,0:0|0:0|0:0,0:0:0:0:
125,284,38458,1,2,3:2:0:0:
23,373,38758,1,0,1:0:0:0:
11,223,39058,6,0,P|17:176|20:124,2,86.2500016450882,10|2|2,0:0|0:0|0:0,0:0:0:0:
144,259,39658,1,2,1:2:0:0:
8,384,39958,1,2,1:2:0:0:
320,352,40258,2,0,P|270:342|200:337,1,115.000002193451,10|0,0:0|3:0,0:0:0:0:
118,238,40708,1,2,3:2:0:0:
73,300,40858,6,0,L|84:357,1,50,10|0,0:0|0:0,0:0:0:0:
216,315,41308,1,2,1:2:0:0:
299,371,41458,2,0,L|334:367,1,25,2|0,1:2|0:0,0:0:0:0:
242,234,41758,2,0,L|207:230,1,25,2|0,1:2|0:0,0:0:0:0:
357,152,42058,1,2,3:2:0:0:
382,286,42208,1,2,3:2:0:0:
381,107,42358,1,2,3:2:0:0:
320,352,42508,1,2,3:2:0:0:
320,352,42808,6,0,P|355:315|319:268,2,87.500000834465,2|2|2,0:1|0:1|0:1,0:0:0:0:
175,382,43258,6,0,P|109:367|18:358,1,150.000005722046,14|2,0:0|0:0,0:0:0:0:
15,248,43708,2,0,P|7:297|-14:351,1,75.0000028610231,2|8,0:0|0:0,0:0:0:0:
113,271,44008,2,0,P|88:220|65:124,2,150.000005722046,2|2|2,0:0|0:0|0:0,0:0:0:0:
211,352,44758,1,0,0:0:0:0:
341,232,44908,2,0,P|248:215|134:128,1,225.000008583069,2|2,0:0|0:0,0:0:0:0:
143,140,45508,1,10,0:0:0:0:
280,181,45658,6,0,P|311:121|329:28,1,150.000005722046,10|2,0:0|0:0,0:0:0:0:
473,58,46108,2,0,P|431:4|375:-39,1,75.0000028610231,2|8,0:0|0:0,0:0:0:0:
188,63,46408,2,0,P|224:5|246:-61,1,75.0000028610231,2|0,0:0|0:0,0:0:0:0:
351,153,46708,2,0,P|286:145|162:136,2,150.000005722046,2|2|2,0:0|0:0|0:0,0:0:0:0:
439,129,47458,1,8,0:0:0:0:
346,275,47608,2,0,P|335:235|331:192,1,75.0000028610231,0|0,3:0|3:0,0:0:0:0:
510,308,47908,1,10,3:2:0:0:
302,376,48058,6,0,P|215:346|111:343,1,150.000005722046,14|2,0:0|0:0,0:0:0:0:
5,380,48508,2,0,P|29:341|40:287,1,75.0000028610231,2|8,0:0|0:0,0:0:0:0:
120,192,48808,2,0,P|131:227|152:258,1,75.0000028610231,2|0,0:0|0:0,0:0:0:0:
2,191,49108,2,0,P|90:133|66:73,2,150.000005722046,2|2|2,0:0|0:0|0:0,0:0:0:0:
2,191,49858,1,8,0:0:0:0:
119,142,50008,1,0,3:0:0:0:
22,46,50158,1,2,3:2:0:0:
239,9,50308,1,10,3:2:0:0:
239,9,50458,6,0,P|224:115|204:191,1,150.000005722046,10|2,0:0|0:0,0:0:0:0:
379,148,50908,2,0,P|394:42|414:-34,1,150.000005722046,2|2,0:0|0:0,0:0:0:0:
357,76,51358,1,2,0:0:0:0:
480,224,51508,2,0,P|443:230|406:239,1,75.0000028610231,2|8,0:0|0:0,0:0:0:0:
246,180,51808,1,2,3:2:0:0:
293,365,51958,2,0,P|329:328|320:311,1,75.0000028610231,2|2,3:2|3:2,0:0:0:0:
142,273,52258,5,10,3:2:0:0:
166,345,52408,1,2,3:2:0:0:
323,315,52558,1,2,3:2:0:0:
299,243,52708,1,10,3:2:0:0:
98,332,52858,6,0,P|126:231|130:154,1,150.000005722046,14|2,0:0|0:0,0:0:0:0:
23,279,53308,2,0,P|40:217|37:165,1,75.0000028610231,2|8,0:0|0:0,0:0:0:0:
239,146,53608,2,0,P|193:113|139:104,1,75.0000028610231,2|0,0:0|0:0,0:0:0:0:
6,138,53908,2,0,B|21:104|58:91|58:91|71:31|0:-3,1,150.000005722046,2|2,0:0|0:0,0:0:0:0:
35,20,54358,1,0,0:0:0:0:
265,64,54508,2,0,P|188:28|74:16,1,150.000005722046,2|0,0:0|0:0,0:0:0:0:
124,15,54958,1,2,0:0:0:0:
164,172,55108,1,10,0:0:0:0:
122,1,55258,6,0,P|210:51|188:120,1,150.000005722046,10|2,0:0|0:0,0:0:0:0:
306,122,55708,2,0,P|345:80|343:45,1,75.0000028610231,2|8,0:0|0:0,0:0:0:0:
228,190,56008,2,0,L|247:288,1,75.0000028610231,2|0,0:0|0:0,0:0:0:0:
403,314,56308,2,0,B|336:299|336:299|317:349|283:366,1,150.000005722046,2|2,0:0|0:0,0:0:0:0:
373,383,56758,1,0,0:0:0:0:
312,197,56908,2,0,B|320:126|320:126|371:76|415:163,1,150.000005722046,2|0,0:0|0:0,0:0:0:0:
468,225,57358,1,2,0:0:0:0:
512,156,57508,1,10,0:0:0:0:
468,225,57658,6,0,P|408:234|375:237,1,75.0000028610231,14|0,0:0|0:0,0:0:0:0:
272,313,57958,1,2,0:0:0:0:
316,382,58108,1,2,0:0:0:0:
272,313,58258,2,0,P|212:304|179:301,1,75.0000028610231,10|0,0:0|0:0,0:0:0:0:
97,174,58558,1,2,0:0:0:0:
141,105,58708,1,2,0:0:0:0:
97,174,58858,6,0,P|37:183|4:186,2,75.0000028610231,10|2|0,0:0|0:0|0:0,0:0:0:0:
6,63,59308,2,0,P|66:54|99:51,1,75.0000028610231,2|8,0:0|0:0,0:0:0:0:
24,175,59608,1,0,3:0:0:0:
52,79,59758,1,2,3:2:0:0:
221,139,59908,1,10,3:2:0:0:
221,139,60058,6,0,B|255:165|255:165|226:317,1,150.000005722046,10|2,0:0|0:0,0:0:0:0:
114,376,60508,2,0,L|92:272,1,75.0000028610231,2|8,0:0|0:0,0:0:0:0:
288,346,60808,2,0,P|340:335|396:330,1,75.0000028610231,2|0,0:0|0:0,0:0:0:0:
204,291,61108,2,0,L|226:187,1,75.0000028610231,2|8,0:0|0:0,0:0:0:0:
373,372,61408,1,10,3:2:0:0:
200,309,61558,1,0,3:0:0:0:
385,262,61708,1,10,3:2:0:0:
270,378,61858,5,10,3:2:0:0:
329,187,62008,1,10,3:2:0:0:
186,293,62158,1,2,3:2:0:0:
407,244,62308,1,10,3:2:0:0:
119,194,62458,6,0,P|130:118|142:8,1,150.000005722046,14|10,0:0|0:0,0:0:0:0:
53,73,62908,2,0,P|47:110|41:147,1,75.0000028610231,10|8,0:0|0:0,0:0:0:0:
205,171,63208,2,0,L|292:162,1,75.0000028610231,2|0,0:0|0:0,0:0:0:0:
329,279,63508,2,0,L|416:288,1,75.0000028610231,2|8,0:0|0:0,0:0:0:0:
438,126,63808,2,0,L|525:117,1,75.0000028610231,2|0,0:0|0:0,0:0:0:0:
431,363,64108,2,0,L|264:344,1,150.000005722046,2|0,0:0|3:0,0:0:0:0:
158,377,64558,1,2,3:2:0:0:
206,188,64708,1,10,3:2:0:0:
35,309,64858,6,0,P|119:292|206:278,1,150.000005722046,10|2,0:0|0:0,0:0:0:0:
389,366,65308,2,0,P|305:383|250:392,1,75.0000028610231,2|8,0:0|0:0,0:0:0:0:
365,193,65608,2,0,B|427:201|427:201|438:211|438:211|523:223,2,150.000005722046,2|2|2,0:0|0:0|0:0,0:0:0:0:
365,193,66358,1,0,0:0:0:0:
259,326,66508,2,0,B|205:295|192:224|268:162,1,150.000005722046,2|0,0:0|3:0,0:0:0:0:
455,133,66958,1,2,3:2:0:0:
499,64,67108,1,10,3:2:0:0:
455,133,67258,6,0,P|395:142|362:145,1,75.0000028610231,14|0,0:0|0:0,0:0:0:0:
259,221,67558,1,2,0:0:0:0:
303,290,67708,1,2,0:0:0:0:
259,221,67858,2,0,P|199:212|166:209,1,75.0000028610231,10|0,0:0|0:0,0:0:0:0:
84,82,68158,1,2,0:0:0:0:
128,13,68308,1,2,0:0:0:0:
84,82,68458,6,0,P|24:91|-9:94,2,75.0000028610231,10|2|0,0:0|0:0|0:0,0:0:0:0:
230,36,68908,2,0,P|170:27|137:24,1,75.0000028610231,2|8,0:0|0:0,0:0:0:0:
93,161,69208,1,0,3:0:0:0:
189,72,69358,1,2,3:2:0:0:
244,267,69508,1,10,3:2:0:0:
200,107,69658,6,0,B|246:134|246:134|219:253,1,150.000005722046,14|2,0:0|0:0,0:0:0:0:
154,365,70108,2,0,P|134:306|117:269,1,75.0000028610231,2|8,0:0|0:0,0:0:0:0:
24,208,70408,2,0,P|4:267|-13:304,1,75.0000028610231,2|0,0:0|0:0,0:0:0:0:
209,190,70708,2,0,L|309:176,1,75.0000028610231,2|8,0:0|0:0,0:0:0:0:
401,332,71008,2,0,L|301:318,1,75.0000028610231,2|0,0:0|0:0,0:0:0:0:
416,105,71308,2,0,L|516:91,1,75.0000028610231,2|8,0:0|3:2,0:0:0:0:
490,94,71533,1,8,3:2:0:0:
490,94,71608,1,8,3:2:0:0:
389,237,71758,1,2,3:2:0:0:
346,16,71908,1,10,3:2:0:0:
310,106,72058,6,0,P|389:115|512:125,1,150.000005722046,14|2,0:0|0:0,0:0:0:0:
459,121,72508,1,2,0:0:0:0:
440,314,72658,2,0,P|361:305|238:295,1,150.000005722046,10|2,0:0|0:0,0:0:0:0:
375,210,73108,1,2,0:0:0:0:
428,366,73258,1,10,0:0:0:0:
371,198,73408,2,0,P|332:206|273:213,1,75.0000028610231,2|0,0:0|0:0,0:0:0:0:
233,360,73708,2,0,P|186:350|75:337,1,150.000005722046,2|0,0:0|3:0,0:0:0:0:
21,263,74158,1,2,3:2:0:0:
199,190,74308,1,10,3:2:0:0:
199,190,74458,6,0,P|180:116|167:30,1,150.000005722046,14|2,0:0|0:0,0:0:0:0:
76,14,74908,2,0,P|66:50|57:86,1,75.0000028610231,2|8,0:0|0:0,0:0:0:0:
307,159,75208,2,0,P|298:122|288:86,1,75.0000028610231,2|0,0:0|0:0,0:0:0:0:
276,269,75508,2,0,L|370:287,1,75.0000028610231,2|8,0:0|0:0,0:0:0:0:
199,190,75808,1,10,3:2:0:0:
347,145,75958,1,10,3:2:0:0:
170,199,76108,1,2,3:2:0:0:
420,240,76258,2,0,L|514:222,1,75.0000028610231,2|0,1:2|3:0,0:0:0:0:
347,145,76558,1,2,3:2:0:0:
399,342,76708,1,10,3:2:0:0:
399,342,76858,6,0,P|458:327|519:319,1,62.5,14|0,0:0|3:0,0:0:0:0:
326,247,77158,1,2,3:2:0:0:
326,247,77308,1,2,3:2:0:0:
192,383,77458,1,2,1:2:0:0:
192,383,77758,2,0,P|202:331|201:305,1,62.5,2|0,3:2|3:0,0:0:0:0:
243,226,78058,2,0,P|158:208|48:167,1,187.5,10|0,0:0|3:0,0:0:0:0:
133,98,78658,2,0,P|143:150|142:176,1,62.5,2|0,1:2|0:0,0:0:0:0:
37,82,78958,2,0,P|39:50|47:20,1,62.5,2|0,3:2|3:0,0:0:0:0:
161,78,79258,5,10,0:0:0:0:
216,25,79408,2,0,L|296:35,1,62.5,2|0,3:2|3:0,0:0:0:0:
361,138,79708,1,2,3:2:0:0:
416,191,79858,2,0,L|496:181,1,62.5,2|0,1:2|0:0,0:0:0:0:
502,24,80158,1,2,3:2:0:0:
502,24,80308,1,2,3:2:0:0:
502,24,80458,2,0,P|471:96|459:241,1,187.5,10|0,0:0|3:0,0:0:0:0:
487,324,81058,2,0,P|462:309|424:302,1,62.5,2|0,1:2|0:0,0:0:0:0:
313,377,81358,2,0,P|343:370|370:355,1,62.5,2|0,3:2|3:0,0:0:0:0:
228,299,81658,5,10,0:0:0:0:
232,312,81808,1,2,3:2:0:0:
319,180,82108,1,2,3:2:0:0:
315,167,82258,2,0,L|398:179,2,62.5,2|2|2,1:2|3:2|3:2,0:0:0:0:
174,100,82708,2,0,L|31:121,1,125,2|0,3:2|0:0,0:0:0:0:
8,204,83158,1,2,3:2:0:0:
8,204,83308,1,2,3:2:0:0:
117,277,83458,2,0,P|140:203|146:131,1,125,2|0,1:2|3:0,0:0:0:0:
144,142,83833,6,0,P|201:147|217:185,1,93.75,2|8,0:0|0:0,0:0:0:0:
205,248,84208,1,0,3:0:0:0:
390,220,84358,1,0,3:0:0:0:
383,233,84433,2,0,P|360:307|355:349,1,93.75,2|0,0:0|1:0,0:0:0:0:
304,379,84808,1,0,3:0:0:0:
251,320,84958,2,0,P|286:301|334:306,1,62.5,2|0,0:0|0:0,0:0:0:0:
304,379,85258,5,10,0:0:0:0:
320,192,85408,1,10,3:2:0:0:
344,288,85558,1,0,3:0:0:0:
323,202,85708,1,10,3:2:0:0:
241,299,85858,5,10,3:2:0:0:
361,269,86008,1,10,3:2:0:0:
254,296,86158,1,2,3:2:0:0:
416,192,86308,5,10,3:2:0:0:
