osu file format v14

[General]
AudioFilename: audio.mp3
AudioLeadIn: 0
PreviewTime: -1
Countdown: 1
SampleSet: None
StackLeniency: 0.7
Mode: 0
LetterboxInBreaks: 0
WidescreenStoryboard: 0

[Editor]
DistanceSpacing: 0.8
BeatDivisor: 2
GridSize: 32
TimelineZoom: 1

[Metadata]
Title:Yes
TitleUnicode:Yes
Artist:LMFAO
ArtistUnicode:LMFAO
Creator:jasionnn
Version:Hard
Source:
Tags:
BeatmapID:1222393
BeatmapSetID:577583

[Difficulty]
HPDrainRate:5
CircleSize:4
OverallDifficulty:5
ApproachRate:5
SliderMultiplier:1.2
SliderTickRate:1

[Events]
//Background and Video events
//Break Periods
//Storyboard Layer 0 (Background)
//Storyboard Layer 1 (Fail)
//Storyboard Layer 2 (Pass)
//Storyboard Layer 3 (Foreground)
//Storyboard Sound Samples

[TimingPoints]
108,234.375,4,1,0,100,1,0

[HitObjects]
82,157,17686,6,0,P|75:232|117:297,2,120
263,145,18389,1,0,0:0:0:0:
310,303,18623,2,0,P|358:344|380:272,1,120
409,120,19092,2,0,L|295:41,1,120
146,250,19561,2,0,P|86:233|89:160,2,120
256,97,20264,1,0,0:0:0:0:
369,223,20498,2,0,P|367:316|306:357,1,120
139,218,20967,6,0,P|145:149|181:124,2,60
349,323,21436,1,0,0:0:0:0:
300,109,21670,1,0,0:0:0:0:
428,197,21904,1,0,0:0:0:0:
220,278,22139,1,0,0:0:0:0:
66,164,22373,2,0,P|81:70|142:21,1,120
397,97,22842,1,0,0:0:0:0:
137,261,23076,1,0,0:0:0:0:
210,47,23311,1,0,0:0:0:0:
243,309,23545,1,0,0:0:0:0:
428,170,23779,1,0,0:0:0:0:
218,127,24014,1,0,0:0:0:0:
414,222,24248,2,0,P|411:302|361:352,1,120
165,279,24717,6,0,P|149:215|179:193,1,60
174,177,24951,2,0,P|191:123|161:94,1,60
171,65,25186,2,0,P|207:7|333:104,1,240
387,307,25889,1,0,0:0:0:0:
186,163,26123,1,0,0:0:0:0:
408,131,26358,1,0,0:0:0:0:
257,300,26592,2,0,P|161:332|102:306,1,120
92,101,27061,6,0,P|162:63|221:63,1,120
419,170,27529,1,0,0:0:0:0:
161,214,27764,1,0,0:0:0:0:
382,317,27998,1,0,0:0:0:0:
149,123,28233,1,0,0:0:0:0:
183,295,28467,2,0,P|235:331|264:327,3,60
276,338,28936,1,0,0:0:0:0:
224,147,29170,1,0,0:0:0:0:
416,299,29404,1,0,0:0:0:0:
167,200,29639,1,0,0:0:0:0:
392,203,29873,2,0,P|469:159|478:80,1,120
156,31,30342,6,0,P|108:65|105:89,3,60
95,96,30811,1,0,0:0:0:0:
307,102,31045,1,0,0:0:0:0:
169,329,31279,1,0,0:0:0:0:
224,87,31514,1,0,0:0:0:0:
270,335,31748,1,0,0:0:0:0:
378,115,31983,1,0,0:0:0:0:
185,229,32217,6,0,P|161:171|177:145,1,60
180,117,32451,2,0,P|161:55|137:46,1,60
48,109,32686,2,0,P|29:182|70:258,1,120
207,357,33154,1,0,0:0:0:0:
230,128,33389,1,0,0:0:0:0:
426,274,33623,1,0,0:0:0:0:
157,277,33858,1,0,0:0:0:0:
368,159,34092,1,0,0:0:0:0:
100,85,34326,1,0,0:0:0:0:
203,340,34561,6,0,P|135:322|91:254,2,120
420,235,35264,1,0,0:0:0:0:
181,132,35498,1,0,0:0:0:0:
389,42,35733,1,0,0:0:0:0:
382,242,35967,2,0,P|341:303|320:314,3,60
315,323,36436,1,0,0:0:0:0:
120,118,36670,1,0,0:0:0:0:
125,334,36904,1,0,0:0:0:0:
365,178,37139,1,0,0:0:0:0:
155,49,37373,1,0,0:0:0:0:
394,2,37608,1,0,0:0:0:0:
