osu file format v14

[General]
AudioFilename: audio.mp3
AudioLeadIn: 0
PreviewTime: 29657
Countdown: 0
SampleSet: Soft
StackLeniency: 0.7
Mode: 0
LetterboxInBreaks: 0
WidescreenStoryboard: 0

[Editor]
Bookmarks: 15580,29657
DistanceSpacing: 1.2
BeatDivisor: 2
GridSize: 32
TimelineZoom: 1.3

[Metadata]
Title:Sexy and I Know It
TitleUnicode:Sexy and I Know It
Artist:LMFAO
ArtistUnicode:LMFAO
Creator:Bubblun
Version:Passion
Source:
Tags:cut version edm sorry for party rocking redfoo skyblu
BeatmapID:1133516
BeatmapSetID:535151

[Difficulty]
HPDrainRate:6
CircleSize:5
OverallDifficulty:7.5
ApproachRate:9
SliderMultiplier:1.5
SliderTickRate:1

[Events]
//Background and Video events
0,0,"BG.jpg",0,0
//Break Periods
//Storyboard Layer 0 (Background)
//Storyboard Layer 1 (Fail)
//Storyboard Layer 2 (Pass)
//Storyboard Layer 3 (Foreground)
//Storyboard Sound Samples

[TimingPoints]
138,461.538461538462,4,2,0,90,1,0
15599,-100,4,2,0,60,0,0
25984,-100,4,2,0,70,0,0
27599,-100,4,2,0,80,0,0
29676,-100,4,2,0,90,0,0
59214,-83.3333333333333,4,2,0,90,0,1
72138,-200,4,2,0,60,0,0

[Colours]
Combo1 : 255,192,0
Combo2 : 187,0,202
Combo3 : 0,128,128
Combo4 : 254,12,103

[HitObjects]
152,84,138,5,0,0:0:0:0:
132,248,484,1,0,0:0:0:0:
132,248,599,2,0,P|92:240|64:220,1,75,2|0,0:0|0:0,0:0:0:0:
200,240,1061,1,0,0:0:0:0:
372,248,1407,1,0,0:0:0:0:
372,248,1522,2,0,P|412:240|440:220,1,75,2|0,0:0|0:0,0:0:0:0:
304,240,1984,5,0,0:0:0:0:
360,84,2330,1,0,0:0:0:0:
360,84,2445,2,0,B|368:140|368:140|340:124,1,75,2|0,0:0|0:0,0:0:0:0:
292,32,2907,2,0,P|256:20|216:36,1,75
160,130,3368,2,0,B|144:140|144:140|152:84,1,75,2|0,0:0|0:0,0:0:0:0:
256,136,3830,5,0,0:0:0:0:
192,272,4176,1,0,0:0:0:0:
192,272,4291,2,0,P|152:280|116:272,1,75,2|0,0:0|0:0,0:0:0:0:
40,188,4753,1,0,0:0:0:0:
183,135,5099,1,0,0:0:0:0:
183,135,5214,2,0,P|219:126|256:136,1,75,2|0,0:0|0:0,0:0:0:0:
335,219,5676,5,0,0:0:0:0:
152,300,6022,1,0,0:0:0:0:
152,300,6138,2,0,B|144:244|144:244|172:260,1,75,2|0,0:0|0:0,0:0:0:0:
252,336,6599,1,0,0:0:0:0:
160,253,6830,5,8,0:0:0:0:
254,134,7061,2,0,P|292:134|339:161,1,75,8|0,0:0|0:0,0:0:0:0:
404,252,7522,5,0,0:0:0:0:
384,88,7868,1,0,0:0:0:0:
384,88,7984,2,0,P|424:96|452:116,1,75,2|0,0:0|0:0,0:0:0:0:
316,96,8445,1,0,0:0:0:0:
144,88,8791,1,0,0:0:0:0:
144,88,8907,2,0,P|104:96|76:116,1,75,2|0,0:0|0:0,0:0:0:0:
212,96,9368,5,0,0:0:0:0:
156,252,9714,1,0,0:0:0:0:
156,252,9830,2,0,B|148:196|148:196|176:212,1,75,2|0,0:0|0:0,0:0:0:0:
224,308,10291,2,0,P|260:316|308:300,1,75
356,206,10753,2,0,B|372:196|372:196|364:252,1,75,2|0,0:0|0:0,0:0:0:0:
260,200,11214,5,0,0:0:0:0:
324,64,11561,1,0,0:0:0:0:
324,64,11676,2,0,P|364:56|404:68,1,75,2|0,0:0|0:0,0:0:0:0:
476,148,12138,1,0,0:0:0:0:
333,201,12484,1,0,0:0:0:0:
333,201,12599,2,0,L|320:288,1,75,2|0,0:0|0:0,0:0:0:0:
256,84,13061,5,0,0:0:0:0:
256,192,13176,12,2,14676,0:0:0:0:
256,188,14907,5,0,0:0:0:0:
76,168,15599,5,0,0:0:0:0:
68,200,15714,1,0,0:0:0:0:
84,232,15830,2,0,P|100:248|124:260,1,37.5
264,268,16176,2,0,P|248:316|200:352,1,112.5
140,192,16753,6,0,P|139:146|160:116,1,75
288,176,17214,1,0,0:0:0:0:
256,192,17330,1,0,0:0:0:0:
224,176,17445,1,0,0:0:0:0:
357,121,17676,6,0,P|374:155|372:192,1,75,4|0,3:0|0:0,0:0:0:0:
312,248,18022,2,0,P|340:272|412:272,1,112.5,4|0,0:0|0:0,0:0:0:0:
488,136,18599,6,0,P|472:80|408:52,1,112.5,4|0,3:0|0:0,0:0:0:0:
392,56,19061,1,12,3:0:0:0:
487,220,19291,1,4,3:0:0:0:
412,271,19522,2,0,P|395:304|397:341,1,75,4|0,3:0|0:0,0:0:0:0:
484,324,19868,2,0,P|502:291|488:221,1,112.5,4|0,0:0|0:0,0:0:0:0:
380,156,20445,5,4,0:0:0:0:
348,160,20561,1,0,0:0:0:0:
328,192,20676,1,0,0:0:0:0:
296,192,20791,1,0,0:0:0:0:
272,164,20907,1,4,0:0:0:0:
144,136,21138,5,0,0:0:0:0:
128,164,21253,1,0,0:0:0:0:
132,196,21368,2,0,P|140:240|168:264,1,75,4|0,3:0|0:0,0:0:0:0:
240,292,21714,2,0,P|200:340|128:336,1,112.5,4|0,0:0|0:0,0:0:0:0:
24,260,22291,6,0,P|8:200|32:144,1,112.5,4|0,3:0|0:0,0:0:0:0:
12,124,22753,2,0,L|80:120,1,37.5,4|0,0:0|0:0,0:0:0:0:
132,116,22984,5,0,0:0:0:0:
164,112,23099,1,0,0:0:0:0:
196,144,23214,2,0,L|236:140,1,37.5
336,72,23561,2,0,P|360:112|340:184,1,112.5,4|0,3:0|0:0,0:0:0:0:
244,236,24138,5,0,0:0:0:0:
248,268,24253,1,0,0:0:0:0:
252,300,24368,1,0,0:0:0:0:
360,352,24599,2,0,P|408:336|412:332,1,37.5
356,280,24830,2,0,P|308:264|304:260,1,37.5
356,204,25061,6,0,P|396:212|444:192,1,75,4|0,3:0|0:0,0:0:0:0:
494,148,25407,2,0,P|444:124|378:144,1,112.5,4|0,0:0|0:0,0:0:0:0:
244,192,26099,5,0,0:0:0:0:
244,192,26214,2,0,P|262:194|280:200,1,37.5
248,268,26445,2,0,P|230:270|212:276,1,37.5
120,308,26676,1,0,0:0:0:0:
120,308,26791,1,0,0:0:0:0:
120,308,26907,2,0,P|112:288|108:264,1,37.5
29,189,27253,2,0,P|9:225|32:308,1,112.5,4|0,0:0|0:0,0:0:0:0:
120,308,27714,5,0,0:0:0:0:
120,308,27830,2,0,P|144:304|168:308,1,37.5,4|0,3:0|0:0,0:0:0:0:
200,236,28061,2,0,P|176:232|152:236,1,37.5
128,152,28291,2,0,P|172:156|216:184,1,75,4|0,3:0|0:0,0:0:0:0:
232,176,28638,1,0,0:0:0:0:
264,168,28753,2,0,P|298:152|335:150,1,75
416,164,29099,2,0,P|384:216|324:228,1,112.5
232,332,29676,5,4,2:0:0:0:
220,348,30138,1,0,0:0:0:0:
208,364,30599,1,0,0:0:0:0:
196,380,31061,1,0,0:0:0:0:
152,204,31522,5,4,2:0:0:0:
136,192,31984,1,0,0:0:0:0:
121,181,32445,1,0,0:0:0:0:
105,169,32907,1,0,0:0:0:0:
302,208,33368,5,4,2:0:0:0:
318,196,33830,1,0,0:0:0:0:
342,182,34291,1,0,0:0:0:0:
358,170,34753,1,0,0:0:0:0:
354,18,35214,6,0,P|394:18|434:46,1,75,4|0,3:0|0:0,0:0:0:0:
476,132,35561,2,0,P|400:100|368:108,1,112.5,4|0,3:0|0:0,0:0:0:0:
265,157,36138,1,0,0:0:0:0:
233,241,36599,1,0,0:0:0:0:
280,52,37061,5,4,2:0:0:0:
292,36,37523,1,0,0:0:0:0:
304,20,37984,1,0,0:0:0:0:
316,4,38446,1,0,0:0:0:0:
360,180,38907,5,4,2:0:0:0:
376,192,39369,1,0,0:0:0:0:
391,203,39830,1,0,0:0:0:0:
407,215,40292,1,0,0:0:0:0:
210,176,40753,5,4,2:0:0:0:
194,188,41215,1,0,0:0:0:0:
170,202,41676,1,0,0:0:0:0:
154,214,42138,1,0,0:0:0:0:
160,369,42599,6,0,P|120:369|80:341,1,75,4|0,3:0|0:0,0:0:0:0:
38,255,42945,2,0,P|114:287|146:279,1,112.5,4|0,3:0|0:0,0:0:0:0:
248,219,43522,1,0,0:0:0:0:
260,203,43984,1,0,0:0:0:0:
420,192,44445,5,0,0:0:0:0:
380,248,44676,1,0,0:0:0:0:
376,316,44907,1,0,0:0:0:0:
316,344,45138,1,0,0:0:0:0:
258,306,45368,5,0,0:0:0:0:
196,341,45599,1,0,0:0:0:0:
134,312,45830,1,0,0:0:0:0:
129,241,46061,1,0,0:0:0:0:
79,177,46291,5,0,0:0:0:0:
42,108,46522,1,0,0:0:0:0:
85,42,46753,1,0,0:0:0:0:
160,42,46984,1,0,0:0:0:0:
203,136,47214,5,0,0:0:0:0:
249,208,47445,1,0,0:0:0:0:
295,136,47676,1,0,0:0:0:0:
249,59,47907,1,0,0:0:0:0:
350,25,48138,5,0,0:0:0:0:
438,25,48368,1,0,0:0:0:0:
486,97,48599,1,0,0:0:0:0:
444,177,48830,1,0,0:0:0:0:
397,101,49061,5,0,0:0:0:0:
449,180,49291,1,0,0:0:0:0:
405,262,49522,1,0,0:0:0:0:
310,262,49753,1,0,0:0:0:0:
355,182,49984,5,0,0:0:0:0:
312,269,50214,1,0,0:0:0:0:
214,272,50445,1,0,0:0:0:0:
165,187,50676,1,0,0:0:0:0:
261,189,50907,5,0,0:0:0:0:
164,193,51138,1,0,0:0:0:0:
113,111,51368,1,0,0:0:0:0:
161,27,51599,1,0,0:0:0:0:
246,72,51830,5,0,0:0:0:0:
296,81,51945,1,0,0:0:0:0:
322,126,52061,1,0,0:0:0:0:
304,174,52176,1,0,0:0:0:0:
256,192,52291,1,0,0:0:0:0:
225,232,52407,1,0,0:0:0:0:
237,283,52522,1,0,0:0:0:0:
282,306,52638,1,0,0:0:0:0:
334,302,52753,5,0,0:0:0:0:
384,285,52868,1,0,0:0:0:0:
414,243,52984,1,0,0:0:0:0:
413,191,53099,1,0,0:0:0:0:
384,168,53214,6,0,L|336:172,1,37.5
232,172,53445,2,0,L|280:176,1,37.5
384,176,53676,2,0,L|336:180,1,37.5
232,180,53907,2,0,L|280:184,1,37.5
384,184,54138,2,0,L|336:188,1,37.5
232,188,54369,2,0,L|280:192,1,37.5
391,204,54599,5,0,0:0:0:0:
388,255,54714,1,0,0:0:0:0:
352,293,54830,1,0,0:0:0:0:
300,299,54945,1,0,0:0:0:0:
258,268,55061,1,0,0:0:0:0:
245,217,55176,1,0,0:0:0:0:
256,169,55291,5,0,0:0:0:0:
263,221,55407,1,0,0:0:0:0:
234,265,55522,1,0,0:0:0:0:
185,280,55638,1,0,0:0:0:0:
137,258,55753,1,0,0:0:0:0:
115,211,55868,1,0,0:0:0:0:
84,176,55984,5,0,0:0:0:0:
139,168,56099,1,0,0:0:0:0:
195,160,56214,1,0,0:0:0:0:
251,152,56330,1,0,0:0:0:0:
296,120,56445,5,0,0:0:0:0:
283,69,56561,1,0,0:0:0:0:
231,68,56676,1,0,0:0:0:0:
217,119,56791,1,0,0:0:0:0:
260,153,56907,5,0,0:0:0:0:
316,161,57022,1,0,0:0:0:0:
372,169,57138,1,0,0:0:0:0:
428,177,57253,1,0,0:0:0:0:
256,164,58291,5,0,0:0:0:0:
256,72,58522,1,0,0:0:0:0:
256,252,58753,1,0,0:0:0:0:
256,284,58868,1,0,0:0:0:0:
256,316,58984,1,0,0:0:0:0:
92,224,59214,6,0,P|52:168|60:92,1,134.999995880127,4|0,3:0|0:0,0:0:0:0:
212,64,59676,2,0,P|222:111|214:126,1,44.999998626709,4|0,3:0|0:0,0:0:0:0:
126,170,59907,2,0,P|115:122|123:107,1,44.999998626709,8|0,3:0|0:0,0:0:0:0:
284,136,60138,2,0,P|252:168|184:160,1,89.9999972534181,4|0,3:0|0:0,0:0:0:0:
168,240,60484,2,0,P|212:280|288:280,1,134.999995880127,4|0,0:0|0:0,0:0:0:0:
420,224,61061,6,0,P|460:168|452:92,1,134.999995880127,4|0,3:0|0:0,0:0:0:0:
300,64,61522,2,0,P|289:111|297:126,1,44.999998626709,4|0,3:0|0:0,0:0:0:0:
384,168,61753,2,0,P|397:135|388:107,1,44.999998626709,8|0,3:0|0:0,0:0:0:0:
228,136,61984,2,0,P|260:168|328:156,1,89.9999972534181,4|0,3:0|0:0,0:0:0:0:
344,240,62330,2,0,P|300:280|224:280,1,134.999995880127,4|0,0:0|0:0,0:0:0:0:
148,374,62907,6,0,P|221:319|215:241,1,134.999995880127,4|0,3:0|0:0,0:0:0:0:
112,180,63368,2,0,P|80:216|80:233,1,44.999998626709,4|0,3:0|0:0,0:0:0:0:
138,313,63599,2,0,P|161:296|164:275,1,44.999998626709,8|0,3:0|0:0,0:0:0:0:
176,172,63830,1,4,3:0:0:0:
176,172,63945,2,0,P|148:128|120:120,1,44.999998626709
68,88,64176,2,0,P|132:64|168:72,1,89.9999972534181,4|0,0:0|0:0,0:0:0:0:
232,104,64522,2,0,P|256:108|276:104,1,44.999998626709
357,70,64753,6,0,P|365:118|302:186,1,134.999995880127,4|0,3:0|0:0,0:0:0:0:
344,281,65214,2,0,P|355:300|374:313,1,44.999998626709,4|0,3:0|0:0,0:0:0:0:
436,212,65445,2,0,P|424:193|406:182,1,44.999998626709,8|0,3:0|0:0,0:0:0:0:
287,245,65676,6,0,P|247:261|203:245,1,89.9999972534181
46,188,66138,2,0,P|87:171|128:186,1,89.9999972534181
0,316,66599,6,0,P|48:322|92:272,1,89.9999972534181,4|0,3:0|0:0,0:0:0:0:
96,260,66945,1,0,0:0:0:0:
96,260,67061,2,0,P|108:284|132:304,1,44.999998626709,4|0,0:0|0:0,0:0:0:0:
196,312,67291,2,0,P|188:340|172:360,1,44.999998626709,4|0,0:0|0:0,0:0:0:0:
312,312,67522,1,4,3:0:0:0:
312,312,67638,2,0,P|320:340|336:360,1,44.999998626709,4|0,3:0|0:0,0:0:0:0:
416,260,67868,2,0,P|404:284|380:304,1,44.999998626709,4|0,0:0|0:0,0:0:0:0:
256,272,68214,6,0,L|256:224,1,44.999998626709,4|0,0:0|0:0,0:0:0:0:
212,160,68445,2,0,P|256:148|300:160,1,89.9999972534181,4|0,3:0|0:0,0:0:0:0:
320,192,68791,1,0,0:0:0:0:
400,220,68907,2,0,P|428:212|448:200,1,44.999998626709,4|0,0:0|0:0,0:0:0:0:
448,84,69138,2,0,P|420:92|400:104,1,44.999998626709,4|0,0:0|0:0,0:0:0:0:
297,158,69368,1,4,3:0:0:0:
275,125,69484,2,0,P|256:120|232:124,1,44.999998626709,4|0,3:0|0:0,0:0:0:0:
212,160,69714,2,0,P|168:171|120:160,1,89.9999972534181,4|0,0:0|0:0,0:0:0:0:
24,112,70061,5,4,0:0:0:0:
24,112,70291,2,0,P|8:156|28:208,1,89.9999972534181,4|0,3:0|0:0,0:0:0:0:
48,228,70638,1,0,0:0:0:0:
152,256,70753,2,0,P|176:260|200:256,1,44.999998626709,4|0,0:0|0:0,0:0:0:0:
312,220,70984,2,0,P|334:217|356:221,1,44.999998626709,4|0,0:0|0:0,0:0:0:0:
488,272,71214,1,4,3:0:0:0:
488,272,71330,2,0,P|504:224|500:192,1,44.999998626709,4|0,3:0|0:0,0:0:0:0:
424,156,71561,2,0,P|400:96|424:32,1,134.999995880127,4|0,3:0|0:0,0:0:0:0:
423,32,72138,5,0,0:0:0:0:
