osu file format v14

[General]
AudioFilename: audio.mp3
AudioLeadIn: 0
PreviewTime: 29657
Countdown: 0
SampleSet: Soft
StackLeniency: 0.7
Mode: 0
LetterboxInBreaks: 0
WidescreenStoryboard: 1

[Editor]
Bookmarks: 15580,29657
DistanceSpacing: 1.2
BeatDivisor: 2
GridSize: 4
TimelineZoom: 1.4

[Metadata]
Title:Sexy and I Know It
TitleUnicode:Sexy and I Know It
Artist:LMFAO
ArtistUnicode:LMFAO
Creator:Bubblun
Version:Normal
Source:
Tags:cut version edm sorry for party rocking redfoo skyblu
BeatmapID:1133515
BeatmapSetID:535151

[Difficulty]
HPDrainRate:4
CircleSize:4.5
OverallDifficulty:4.5
ApproachRate:5
SliderMultiplier:1.1
SliderTickRate:1

[Events]
//Background and Video events
0,0,"BG.jpg",0,0
//Break Periods
2,15107,28476
//Storyboard Layer 0 (Background)
//Storyboard Layer 1 (Fail)
//Storyboard Layer 2 (Pass)
//Storyboard Layer 3 (Foreground)
//Storyboard Sound Samples

[TimingPoints]
138,461.538461538462,4,2,0,90,1,0
25984,-100,4,2,0,70,0,0
27599,-100,4,2,0,80,0,0
29676,-100,4,2,0,90,0,0
59214,-83.3333333333333,4,2,0,90,0,1
72138,-83.3333333333333,4,2,0,60,0,0

[Colours]
Combo1 : 255,192,0
Combo2 : 187,0,202
Combo3 : 0,128,128
Combo4 : 254,12,103

[HitObjects]
48,144,138,6,0,B|48:252|48:252|144:328,1,220,0|0,0:0|0:0,0:0:0:0:
256,344,1522,1,2,0:0:0:0:
376,324,1984,2,0,B|463:254|463:254|463:146,1,220,0|0,0:0|0:0,0:0:0:0:
464,24,3368,1,2,0:0:0:0:
356,80,3830,6,0,P|256:120|148:72,1,220,0|0,0:0|0:0,0:0:0:0:
48,24,5214,1,2,0:0:0:0:
44,144,5676,2,0,P|60:208|196:196,1,220,0|0,0:0|0:0,0:0:0:0:
224,156,6830,2,8,P|256:152|288:160,1,55,8|8,0:0|0:0,0:0:0:0:
384,216,7522,6,0,B|328:308|328:308|204:308,1,220,0|0,0:0|0:0,0:0:0:0:
96,308,8907,1,2,0:0:0:0:
184,224,9368,2,0,P|155:125|53:126,1,220,0|0,0:0|0:0,0:0:0:0:
64,248,10753,1,2,0:0:0:0:
164,316,11214,6,0,B|332:316|332:316|320:260,1,220,0|0,0:0|0:0,0:0:0:0:
288,148,12599,1,2,0:0:0:0:
256,192,13061,12,0,14907,0:0:0:0:
432,216,29676,6,0,B|424:156|456:88|456:88|340:60,1,220,4|0,2:0|0:0,0:0:0:0:
256,32,31061,1,0,0:0:0:0:
140,68,31522,2,0,B|55:89|55:89|87:157|79:217,1,220,4|0,2:0|0:0,0:0:0:0:
64,336,32907,1,0,0:0:0:0:
168,273,33368,6,0,B|256:207|256:207|346:276,1,220,4|0,2:0|0:0,0:0:0:0:
448,336,34753,1,0,0:0:0:0:
452,216,35214,2,0,B|455:153|455:153|504:100,1,110,4|0,3:0|0:0,0:0:0:0:
402,31,36138,2,0,L|326:114,1,110,0|0,0:0|0:0,0:0:0:0:
355,229,37061,6,0,P|255:261|135:217,1,220,4|0,2:0|0:0,0:0:0:0:
63,141,38445,1,0,0:0:0:0:
152,58,38907,2,0,P|256:26|380:74,1,220,4|0,2:0|0:0,0:0:0:0:
444,142,40291,1,0,0:0:0:0:
363,232,40753,6,0,B|321:261|283:311|283:311|286:255|272:203,1,220,4|0,2:0|0:0,0:0:0:0:
238,88,42138,1,0,0:0:0:0:
126,40,42599,2,0,B|71:36|71:36|24:9,1,110,4|0,3:0|0:0,0:0:0:0:
1,127,43522,2,0,L|105:179,1,110,0|0,0:0|0:0,0:0:0:0:
216,143,44445,6,0,P|272:115|332:123,1,110,0|0,0:0|0:0,0:0:0:0:
400,206,45368,2,0,P|344:234|284:226,1,110,0|0,0:0|0:0,0:0:0:0:
179,257,46291,1,0,0:0:0:0:
219,143,46753,1,0,0:0:0:0:
298,231,47214,1,0,0:0:0:0:
80,337,48138,6,0,P|136:353|196:333,1,110,0|0,0:0|0:0,0:0:0:0:
203,220,49061,2,0,P|255:207|307:223,1,110,0|0,0:0|0:0,0:0:0:0:
319,343,49984,2,0,P|371:355|423:339,1,110,0|0,0:0|0:0,0:0:0:0:
432,217,50907,1,0,0:0:0:0:
256,192,51830,12,0,57253,0:0:0:0:
220,112,59214,6,0,P|152:92|92:128,1,131.99999597168,4|4,3:0|3:0,0:0:0:0:
68,184,59907,1,8,3:0:0:0:
120,236,60138,2,0,P|188:252|224:220,1,98.9999969787599,4|4,3:0|0:0,0:0:0:0:
292,168,60830,1,0,0:0:0:0:
352,124,61061,6,0,P|420:104|480:140,1,131.99999597168,4|4,3:0|3:0,0:0:0:0:
496,200,61753,1,8,3:0:0:0:
460,264,61984,2,0,P|392:280|356:248,1,98.9999969787599,4|4,3:0|0:0,0:0:0:0:
264,236,62676,1,0,0:0:0:0:
200,200,62907,6,0,P|184:132|212:64,1,131.99999597168,4|4,3:0|3:0,0:0:0:0:
256,24,63599,1,8,3:0:0:0:
304,76,63830,2,0,P|321:139|305:199,1,98.9999969787599,4|4,3:0|0:0,0:0:0:0:
244,252,64522,1,0,0:0:0:0:
180,284,64753,6,0,P|100:300|68:284,1,98.9999969787599,4|0,3:0|0:0,0:0:0:0:
36,196,65445,1,8,3:0:0:0:
96,152,65676,2,0,L|164:96,1,65.9999979858399,0|0,0:0|0:0,0:0:0:0:
212,140,66138,2,0,L|274:118,1,65.9999979858399,0|0,0:0|0:0,0:0:0:0:
344,132,66599,6,0,P|376:196|336:248,1,131.99999597168,4|4,3:0|0:0,0:0:0:0:
280,268,67291,1,4,0:0:0:0:
208,256,67522,2,0,L|104:272,1,98.9999969787599,4|4,3:0|0:0,0:0:0:0:
28,200,68214,1,4,0:0:0:0:
24,128,68445,6,0,P|88:96|140:136,1,131.99999597168,4|4,3:0|0:0,0:0:0:0:
196,160,69138,1,4,0:0:0:0:
252,112,69368,2,0,L|356:96,1,98.9999969787599,4|4,3:0|0:0,0:0:0:0:
452,136,70061,1,4,0:0:0:0:
480,204,70291,6,0,P|460:292|412:296,1,131.99999597168,4|4,3:0|0:0,0:0:0:0:
368,336,70984,1,4,0:0:0:0:
308,292,71214,2,0,L|208:284,2,98.9999969787599,4|4|0,3:0|3:0|0:0,0:0:0:0:
372,260,72138,5,0,0:0:0:0:
