osu file format v14

[General]
AudioFilename: audio.mp3
AudioLeadIn: 0
PreviewTime: 29657
Countdown: 0
SampleSet: Soft
StackLeniency: 0.7
Mode: 0
LetterboxInBreaks: 0
WidescreenStoryboard: 1

[Editor]
Bookmarks: 15580,29657,55965
DistanceSpacing: 1.2
BeatDivisor: 2
GridSize: 4
TimelineZoom: 1.4

[Metadata]
Title:Sexy and I Know It
TitleUnicode:Sexy and I Know It
Artist:LMFAO
ArtistUnicode:LMFAO
Creator:Bubblun
Version:Hard
Source:
Tags:cut version edm sorry for party rocking redfoo skyblu
BeatmapID:1133514
BeatmapSetID:535151

[Difficulty]
HPDrainRate:5
CircleSize:4.8
OverallDifficulty:6
ApproachRate:8
SliderMultiplier:1.3
SliderTickRate:1

[Events]
//Background and Video events
0,0,"BG.jpg",0,0
//Break Periods
//Storyboard Layer 0 (Background)
//Storyboard Layer 1 (Fail)
//Storyboard Layer 2 (Pass)
//Storyboard Layer 3 (Foreground)
//Storyboard Sound Samples

[TimingPoints]
138,461.538461538462,4,2,0,90,1,0
25984,-100,4,2,0,70,0,0
27599,-100,4,2,0,80,0,0
29676,-100,4,2,0,90,0,0
59214,-90.9090909090909,4,2,0,90,0,1
72138,-100,4,2,0,60,0,0

[Colours]
Combo1 : 255,192,0
Combo2 : 187,0,202
Combo3 : 0,128,128
Combo4 : 254,12,103

[HitObjects]
148,128,138,5,0,0:0:0:0:
148,128,599,2,0,L|152:212,1,65,2|0,0:0|0:0,0:0:0:0:
158,272,1061,1,0,0:0:0:0:
280,176,1522,1,2,0:0:0:0:
428,124,1984,5,0,0:0:0:0:
428,124,2445,2,0,L|424:208,1,65,2|0,0:0|0:0,0:0:0:0:
418,268,2907,1,0,0:0:0:0:
296,172,3368,1,2,0:0:0:0:
200,296,3830,5,0,0:0:0:0:
68,344,4291,2,0,L|72:260,1,65,2|0,0:0|0:0,0:0:0:0:
78,200,4753,1,0,0:0:0:0:
200,296,5214,1,2,0:0:0:0:
256,152,5676,5,0,0:0:0:0:
376,76,6138,2,0,P|384:108|364:164,2,65,2|0|0,0:0|0:0|0:0,0:0:0:0:
304,178,6830,1,8,0:0:0:0:
429,212,7061,1,8,0:0:0:0:
288,208,7522,6,0,P|240:216|200:268,1,97.5,0|0,0:0|0:0,0:0:0:0:
200,288,7984,1,2,0:0:0:0:
196,368,8214,1,0,0:0:0:0:
272,284,8445,2,0,P|320:276|364:216,1,97.5,0|0,0:0|0:0,0:0:0:0:
360,204,8907,1,2,0:0:0:0:
372,128,9138,1,0,0:0:0:0:
308,36,9368,6,0,L|192:20,1,97.5,0|0,0:0|0:0,0:0:0:0:
172,16,9830,1,2,0:0:0:0:
96,20,10061,1,0,0:0:0:0:
136,84,10291,2,0,P|148:144|128:204,1,97.5,0|0,0:0|0:0,0:0:0:0:
116,208,10753,1,2,0:0:0:0:
76,272,10984,1,0,0:0:0:0:
152,276,11214,6,0,P|232:268|268:288,1,97.5,0|0,0:0|0:0,0:0:0:0:
276,296,11676,1,2,0:0:0:0:
340,340,11907,1,0,0:0:0:0:
352,264,12138,2,0,P|360:188|384:160,1,97.5,0|0,0:0|0:0,0:0:0:0:
396,144,12599,1,2,0:0:0:0:
340,88,12830,1,0,0:0:0:0:
256,192,13061,12,0,14907,0:0:0:0:
96,80,15599,5,0,0:0:0:0:
148,140,15830,2,0,P|172:144|208:136,1,32.5,0|0,0:0|0:0,0:0:0:0:
256,132,16176,2,0,B|252:172|252:172|264:200|264:200|256:252,1,97.5,0|0,0:0|0:0,0:0:0:0:
229,298,16753,6,0,P|261:306|293:298,1,65,0|0,0:0|0:0,0:0:0:0:
344,240,17214,2,0,P|348:211|361:187,2,32.5
288,132,17676,2,0,P|256:124|224:136,1,65,4|0,3:0|0:0,0:0:0:0:
192,156,18022,2,0,P|160:163|104:124,1,97.5,4|0,0:0|0:0,0:0:0:0:
120,52,18599,5,4,3:0:0:0:
236,56,18945,1,0,0:0:0:0:
236,56,19061,2,0,L|340:64,1,65,12|4,3:0|3:0,0:0:0:0:
376,36,19522,2,0,P|384:68|368:104,1,65,4|0,3:0|0:0,0:0:0:0:
356,132,19868,2,0,P|344:180|368:232,1,97.5,4|0,0:0|0:0,0:0:0:0:
424,272,20445,6,0,L|460:284,1,32.5,4|0,0:0|0:0,0:0:0:0:
480,312,20676,2,0,L|480:352,1,32.5,0|0,0:0|0:0,0:0:0:0:
448,368,20907,2,0,P|416:376|368:360,1,65,4|0,0:0|0:0,0:0:0:0:
236,356,21368,2,0,P|267:363|298:358,1,65,4|0,3:0|0:0,0:0:0:0:
328,332,21714,2,0,P|336:288|316:228,1,97.5,4|0,0:0|0:0,0:0:0:0:
256,196,22291,6,0,P|248:152|268:92,1,97.5,4|0,3:0|0:0,0:0:0:0:
292,76,22753,2,0,P|323:68|354:73,1,65,4|0,0:0|0:0,0:0:0:0:
432,76,23214,2,0,P|432:92|424:120,1,32.5,0|0,0:0|0:0,0:0:0:0:
412,184,23561,6,0,P|404:232|420:284,1,97.5,4|0,3:0|0:0,0:0:0:0:
400,356,24138,2,0,B|364:356|364:356|296:312,1,65,0|0,0:0|0:0,0:0:0:0:
282,286,24599,2,0,L|274:242,1,32.5,0|0,0:0|0:0,0:0:0:0:
237,254,24830,2,0,L|231:285,1,32.5,0|0,0:0|0:0,0:0:0:0:
204,312,25061,2,0,B|176:336|120:328,1,65,4|0,3:0|0:0,0:0:0:0:
112,308,25407,2,0,P|96:260|120:204,1,97.5,4|0,0:0|0:0,0:0:0:0:
156,108,26099,5,0,0:0:0:0:
156,108,26214,2,0,P|172:120|184:136,1,32.5,0|0,0:0|0:0,0:0:0:0:
208,156,26445,2,0,P|240:168|272:156,1,65,0|0,0:0|0:0,0:0:0:0:
332,112,26907,2,0,P|344:132|348:156,1,32.5,0|0,0:0|0:0,0:0:0:0:
365,216,27253,2,0,P|417:176|421:112,1,130,4|0,0:0|0:0,0:0:0:0:
394,88,27830,6,0,L|358:84,1,32.5,4|0,3:0|0:0,0:0:0:0:
336,112,28061,2,0,L|292:120,1,32.5,0|0,0:0|0:0,0:0:0:0:
272,96,28291,2,0,B|240:80|240:80|204:100,1,65,4|0,3:0|0:0,0:0:0:0:
184,116,28638,1,0,0:0:0:0:
156,140,28753,2,0,L|88:148,1,65,0|0,0:0|0:0,0:0:0:0:
60,172,29099,2,0,P|40:212|56:260,1,97.5,0|0,0:0|0:0,0:0:0:0:
189,258,29676,5,4,2:0:0:0:
194,263,30138,1,0,0:0:0:0:
202,268,30599,1,0,0:0:0:0:
207,273,31061,1,0,0:0:0:0:
346,216,31522,5,4,2:0:0:0:
348,209,31984,1,0,0:0:0:0:
349,200,32445,1,0,0:0:0:0:
351,193,32907,1,0,0:0:0:0:
231,101,33368,5,4,2:0:0:0:
224,103,33830,1,0,0:0:0:0:
216,107,34291,1,0,0:0:0:0:
209,109,34753,1,0,0:0:0:0:
244,260,35214,6,0,L|264:344,1,65,4|0,3:0|0:0,0:0:0:0:
292,344,35561,2,0,P|340:352|392:316,1,97.5,4|0,3:0|0:0,0:0:0:0:
327,272,36138,1,0,0:0:0:0:
324,248,36599,1,0,0:0:0:0:
189,126,37061,5,4,2:0:0:0:
194,121,37522,1,0,0:0:0:0:
202,116,37984,1,0,0:0:0:0:
207,110,38445,1,0,0:0:0:0:
346,168,38907,5,4,2:0:0:0:
348,175,39368,1,0,0:0:0:0:
349,184,39830,1,0,0:0:0:0:
351,191,40291,1,0,0:0:0:0:
231,283,40753,5,4,2:0:0:0:
224,281,41214,1,0,0:0:0:0:
216,277,41676,1,0,0:0:0:0:
209,275,42138,1,0,0:0:0:0:
184,120,42599,6,0,L|172:48,1,65,4|0,3:0|0:0,0:0:0:0:
196,24,42945,2,0,P|240:4|296:12,1,97.5,4|0,3:0|0:0,0:0:0:0:
256,80,43522,1,0,0:0:0:0:
260,96,43984,1,0,0:0:0:0:
136,192,44445,6,0,L|212:188,1,65,0|0,0:0|0:0,0:0:0:0:
276,212,44907,1,0,0:0:0:0:
272,289,45138,1,0,0:0:0:0:
204,328,45368,2,0,P|196:292|204:252,1,65,0|0,0:0|0:0,0:0:0:0:
220,188,45830,2,0,P|228:152|220:112,1,65,0|0,0:0|0:0,0:0:0:0:
208,44,46291,5,0,0:0:0:0:
140,80,46522,1,0,0:0:0:0:
72,120,46753,1,0,0:0:0:0:
140,156,46984,1,0,0:0:0:0:
208,196,47214,2,0,P|219:151|196:111,1,65,0|0,0:0|0:0,0:0:0:0:
140,156,47676,2,0,P|129:201|152:241,1,65,0|0,0:0|0:0,0:0:0:0:
132,300,48138,6,0,L|208:292,1,65,0|0,0:0|0:0,0:0:0:0:
220,368,48599,1,0,0:0:0:0:
300,368,48830,1,0,0:0:0:0:
316,292,49061,2,0,L|392:300,1,65,0|0,0:0|0:0,0:0:0:0:
456,272,49522,2,0,P|436:244|384:224,1,65,0|0,0:0|0:0,0:0:0:0:
332,212,49984,6,0,L|324:132,1,65,0|0,0:0|0:0,0:0:0:0:
288,80,50445,2,0,P|256:72|216:84,1,65,0|0,0:0|0:0,0:0:0:0:
184,144,50907,2,0,L|177:208,1,65,0|0,0:0|0:0,0:0:0:0:
124,264,51368,2,0,P|88:276|52:272,1,65,0|0,0:0|0:0,0:0:0:0:
256,192,51830,12,0,57253,0:0:0:0:
178,191,58061,5,0,0:0:0:0:
376,224,58291,2,0,P|384:192|376:156,1,65,0|0,0:0|0:0,0:0:0:0:
256,197,58753,1,0,0:0:0:0:
256,197,58868,1,0,0:0:0:0:
256,197,58984,1,0,0:0:0:0:
224,80,59214,6,0,P|156:56|84:88,1,143.000004364014,4|4,3:0|3:0,0:0:0:0:
48,160,59907,1,8,3:0:0:0:
104,224,60138,2,0,P|120:232|140:232,1,35.7500010910034,4|0,3:0|0:0,0:0:0:0:
208,284,60484,2,0,P|228:236|208:184,1,107.25000327301,4|0,0:0|0:0,0:0:0:0:
192,104,61061,6,0,P|256:72|332:120,1,143.000004364014,4|4,3:0|3:0,0:0:0:0:
304,184,61753,1,8,3:0:0:0:
384,152,61984,2,0,P|404:144|428:144,1,35.7500010910034,4|0,3:0|0:0,0:0:0:0:
472,76,62330,2,0,P|504:132|492:180,1,107.25000327301,4|0,0:0|0:0,0:0:0:0:
432,228,62907,6,0,B|420:338|420:338|384:312,1,143.000004364014,4|4,3:0|3:0,0:0:0:0:
336,256,63599,1,8,3:0:0:0:
272,196,63830,2,0,P|256:192|236:196,1,35.7500010910034,4|0,3:0|0:0,0:0:0:0:
204,276,64176,2,0,P|256:292|328:260,1,107.25000327301,4|0,0:0|0:0,0:0:0:0:
324,196,64753,6,0,P|256:176|184:200,1,143.000004364014,4|4,3:0|3:0,0:0:0:0:
124,252,65445,1,8,3:0:0:0:
104,168,65676,2,0,L|88:88,1,71.5000021820069,0|0,0:0|0:0,0:0:0:0:
152,36,66138,2,0,L|166:106,1,71.5000021820069,0|0,0:0|0:0,0:0:0:0:
184,188,66599,6,0,L|280:192,1,71.5000021820069,4|0,3:0|0:0,0:0:0:0:
332,200,67061,2,0,P|356:208|372:224,1,35.7500010910034,4|0,0:0|0:0,0:0:0:0:
416,256,67291,2,0,P|397:272|375:278,1,35.7500010910034,4|0,0:0|0:0,0:0:0:0:
320,304,67522,1,4,3:0:0:0:
320,304,67638,2,0,L|260:308,1,35.7500010910034,4|0,3:0|0:0,0:0:0:0:
240,300,67868,2,0,P|224:264|244:196,1,107.25000327301,4|4,0:0|0:0,0:0:0:0:
292,132,68445,6,0,L|192:128,1,71.5000021820069,4|0,3:0|0:0,0:0:0:0:
144,120,68907,2,0,P|120:112|104:96,1,35.7500010910034,4|0,0:0|0:0,0:0:0:0:
60,64,69138,2,0,P|79:48|101:42,1,35.7500010910034,4|0,0:0|0:0,0:0:0:0:
156,16,69368,1,4,3:0:0:0:
156,16,69484,2,0,L|216:12,1,35.7500010910034,4|0,3:0|0:0,0:0:0:0:
236,20,69714,2,0,P|252:56|232:124,1,107.25000327301,4|4,0:0|0:0,0:0:0:0:
180,184,70291,6,0,P|168:216|176:252,1,71.5000021820069,4|0,3:0|0:0,0:0:0:0:
248,248,70753,2,0,L|264:196,1,35.7500010910034,4|0,0:0|0:0,0:0:0:0:
260,144,70984,2,0,L|244:92,1,35.7500010910034,4|0,0:0|0:0,0:0:0:0:
212,48,71214,1,4,3:0:0:0:
212,48,71330,2,0,P|232:40|252:40,1,35.7500010910034,4|0,3:0|0:0,0:0:0:0:
320,68,71561,2,0,B|332:114|332:114|327:135|327:135|340:182,1,107.25000327301,4|0,3:0|0:0,0:0:0:0:
337,171,72138,5,0,0:0:0:0:
