osu file format v14

[General]
AudioFilename: audio.mp3
AudioLeadIn: 0
PreviewTime: 52812
Countdown: 0
SampleSet: Soft
StackLeniency: 0.3
Mode: 0
LetterboxInBreaks: 0
WidescreenStoryboard: 1

[Editor]
DistanceSpacing: 0.5
BeatDivisor: 4
GridSize: 4
TimelineZoom: 1.4

[Metadata]
Title:Boys & Girls (TV Size)
TitleUnicode:Boys & Girls (TV Size)
Artist:LM.C
ArtistUnicode:LM.C
Creator:WildCry
Version:Very Insane
Source:Katekyo Hitman Reborn
Tags:
BeatmapID:1554881
BeatmapSetID:736788

[Difficulty]
HPDrainRate:6
CircleSize:4
OverallDifficulty:8
ApproachRate:9.4
SliderMultiplier:1.7
SliderTickRate:1

[Events]
//Background and Video events
0,0,"Bg.jpg",0,0
//Break Periods
2,31217,41665
//Storyboard Layer 0 (Background)
//Storyboard Layer 1 (Fail)
//Storyboard Layer 2 (Pass)
//Storyboard Layer 3 (Foreground)
//Storyboard Sound Samples

[TimingPoints]
539,319.148936170213,4,2,1,80,1,0
858,-166.666666666667,4,2,1,80,0,0
3092,-142.857142857143,4,2,1,80,0,0
7241,-200,4,2,1,80,0,0
8198,-111.111111111111,4,2,1,80,0,0
23517,-142.857142857143,4,2,1,80,0,0
28624,-111.111111111111,4,2,1,80,0,0
43943,-125,4,2,1,80,0,0
51602,-111.111111111111,4,2,1,80,0,0
53517,-125,4,2,1,80,0,0
53836,-166.666666666667,4,2,1,80,0,0
54156,-100,4,2,1,80,0,0
62773,-71.4285714285714,4,2,1,80,0,0
63092,-200,4,2,1,80,0,0
63411,-62.5,4,2,1,80,0,0
63730,-200,4,2,1,80,0,0
64049,-62.5,4,2,1,80,0,0
64368,-100,4,2,1,80,0,0
72028,-71.4285714285714,4,2,1,80,0,0
72347,-100,4,2,1,80,0,0
72985,-142.857142857143,4,2,1,80,0,0
73464,-100,4,2,1,80,0,0

[HitObjects]
116,260,858,6,0,B|156:240|216:244|252:284|288:300|288:300|348:328|392:276|404:236|380:176|316:152|256:168|216:220|220:284|300:364|428:348,1,688.499978988648
440,344,3092,6,0,P|460:316|472:284,1,59.4999981842042,2|0,0:0|0:0,0:0:0:0:
440,160,3411,2,0,P|416:120|420:52,1,89.2499972763062,2|0,0:1|0:0,0:0:0:0:
432,56,3730,2,2,L|372:48,2,59.4999981842042,2|0|2,0:0|0:0|0:0,0:0:0:0:
280,196,4209,6,0,L|344:184,1,59.4999981842042,2|0,0:1|0:0,0:0:0:0:
240,64,4528,2,0,L|176:56,1,59.4999981842042,2|0,0:0|0:0,0:0:0:0:
80,188,4847,2,0,L|140:172,1,59.4999981842042,2|0,0:1|0:0,0:0:0:0:
56,24,5166,1,2,0:1:0:0:
56,24,5485,1,2,0:1:0:0:
12,148,5645,6,0,P|4:176|0:208,1,59.4999981842042,2|0,0:0|0:0,0:0:0:0:
100,296,5964,2,0,P|124:332|132:380,1,89.2499972763062,2|0,0:1|0:0,0:0:0:0:
132,384,6283,2,2,L|68:376,2,59.4999981842042,2|0|2,0:0|0:0|0:0,0:0:0:0:
164,164,6762,1,0,0:0:0:0:
228,272,6921,2,0,P|264:276|240:256,1,89.2499972763062,4|0,1:0|0:0,0:0:0:0:
252,260,7241,6,0,P|256:280|232:276,1,42.5,2|2,3:0|0:0,0:0:0:0:
272,100,7560,2,0,P|280:80|304:88,1,42.5,2|2,3:0|0:0,0:0:0:0:
460,184,7879,2,0,P|440:180|440:160,1,42.5,2|2,0:3|0:0,0:0:0:0:
488,288,8198,6,0,L|472:376,1,76.4999976654053,4|0,0:0|0:0,0:0:0:0:
308,252,8517,2,0,P|296:212|300:176,1,76.4999976654053,8|0,3:0|0:0,0:0:0:0:
220,356,8836,1,4,3:0:0:0:
376,304,8996,1,4,3:0:0:0:
192,372,9156,2,0,L|108:364,1,76.4999976654053,8|0,3:0|0:0,0:0:0:0:
20,292,9475,5,8,3:0:0:0:
196,204,9634,1,0,0:0:0:0:
40,196,9794,2,0,B|72:176|72:176|76:224,1,76.4999976654053,4|0,0:0|0:0,0:0:0:0:
108,112,10113,1,8,3:0:0:0:
16,296,10273,1,4,3:0:0:0:
116,100,10432,2,0,P|168:68|224:72,1,114.749996498108,8|0,3:0|0:0,0:0:0:0:
240,84,10751,6,0,P|232:40|240:0,1,76.4999976654053,4|0,0:0|0:0,0:0:0:0:
400,128,11070,2,0,L|384:204,1,76.4999976654053,8|0,3:0|0:0,0:0:0:0:
328,52,11390,1,4,3:0:0:0:
488,112,11549,1,4,3:0:0:0:
264,196,11709,2,0,L|280:280,1,76.4999976654053,8|0,3:0|0:0,0:0:0:0:
424,360,12028,5,4,3:0:0:0:
452,224,12187,1,4,3:0:0:0:
296,376,12347,2,0,B|252:368|252:368|224:348,1,76.4999976654053,8|0,3:0|0:0,0:0:0:0:
84,244,12666,2,4,P|44:256|16:284,1,76.4999976654053,4|4,3:0|3:0,3:0:0:0:
212,200,12985,2,0,P|236:168|244:128,1,76.4999976654053,8|0,3:0|0:0,0:0:0:0:
36,120,13304,6,0,L|116:108,1,76.4999976654053,4|0,0:0|0:0,0:0:0:0:
244,12,13624,2,0,P|284:16|320:40,1,76.4999976654053,8|0,3:0|0:0,0:0:0:0:
384,120,13943,1,4,3:0:0:0:
216,196,14102,1,4,3:0:0:0:
400,212,14262,2,0,B|444:220|444:220|476:248,1,76.4999976654053,8|0,3:0|0:0,0:0:0:0:
288,360,14581,5,8,3:0:0:0:
312,200,14741,1,0,3:0:0:0:
276,324,14900,2,0,B|288:360|288:360|316:328,1,76.4999976654053,4|0,0:0|0:0,0:0:0:0:
128,156,15219,1,8,3:0:0:0:
172,284,15379,1,4,3:0:0:0:
204,96,15539,2,0,L|76:124,1,114.749996498108,8|0,3:0|0:0,0:0:0:0:
40,140,15858,6,0,P|44:98|52:60,1,76.4999976654053,4|0,0:0|0:0,0:0:0:0:
140,276,16177,2,0,P|96:276|64:280,1,76.4999976654053,8|0,3:0|0:0,0:0:0:0:
248,372,16496,1,4,3:0:0:0:
236,216,16656,1,8,3:0:0:0:
248,200,16735,1,4,3:0:0:0:
260,184,16815,2,0,P|304:192|336:208,1,76.4999976654053,4|0,0:0|0:0,0:0:0:0:
460,368,17134,5,12,3:0:0:0:
440,232,17294,2,0,P|456:192|480:168,1,76.4999976654053,2|0,0:0|0:0,0:0:0:0:
344,20,17613,2,0,P|378:36|405:63,1,76.4999976654053,2|0,1:0|0:0,0:0:0:0:
284,148,17932,2,0,B|240:156|240:156|216:184,1,76.4999976654053,2|0,3:0|0:0,0:0:0:0:
232,44,18251,1,4,3:0:0:0:
176,268,18411,6,0,L|192:364,1,76.4999976654053,4|0,0:0|0:0,0:0:0:0:
276,360,18730,2,0,P|344:327|419:316,1,152.999995330811,8|4,3:0|3:0,0:0:0:0:
280,363,19209,1,4,3:0:0:0:
504,201,19368,2,0,P|473:270|416:320,1,152.999995330811,8|4,3:0|3:0,0:0:0:0:
296,168,19847,5,4,3:0:0:0:
356,108,20007,1,8,3:0:0:0:
376,192,20166,1,12,3:0:0:0:
284,176,20326,1,2,0:0:0:0:
404,24,20485,2,0,L|328:4,2,76.4999976654053,2|2|0,0:0|1:0|0:0,0:0:0:0:
224,88,20964,6,0,P|196:60|164:44,1,76.4999976654053,4|0,0:0|0:0,0:0:0:0:
64,8,21283,2,0,L|80:160,1,152.999995330811
0,84,21762,1,0,0:0:0:0:
152,280,21921,2,0,L|-12:264,1,152.999995330811
48,356,22400,5,0,0:0:0:0:
64,272,22560,1,0,0:0:0:0:
132,324,22719,1,0,0:0:0:0:
40,368,22879,1,0,0:0:0:0:
156,228,23039,2,0,L|236:240,2,76.4999976654053
232,344,23517,6,0,L|296:332,1,59.4999981842042
448,340,23836,2,0,P|416:288|420:224,1,118.999996368408
464,344,24315,1,0,0:0:0:0:
336,204,24475,2,0,P|296:188|264:188,1,59.4999981842042
172,212,24794,1,0,0:0:0:0:
172,212,24953,1,0,0:0:0:0:
248,84,25113,6,0,L|232:20,1,59.4999981842042
156,224,25432,2,0,L|172:292,1,59.4999981842042
300,368,25751,2,0,L|309:310,1,59.4999981842042
280,192,26070,6,0,P|344:192|396:244,1,118.999996368408
312,276,26549,1,0,0:0:0:0:
456,168,26709,2,0,P|476:216|456:288,1,118.999996368408
385,224,27187,1,0,0:0:0:0:
248,340,27347,1,0,0:0:0:0:
248,340,27507,1,0,0:0:0:0:
176,168,27666,6,0,L|244:176,1,59.4999981842042
128,360,27985,2,0,L|68:368,1,59.4999981842042
16,212,28304,2,0,L|120:224,1,89.2499972763062
120,232,28624,6,0,L|112:156,1,76.4999976654053
232,40,28943,2,0,B|284:48|284:48|308:72,1,76.4999976654053
436,92,29262,1,0,0:0:0:0:
240,180,29421,1,0,0:0:0:0:
436,212,29581,2,0,P|480:224|508:248,1,76.4999976654053
312,300,29900,5,0,0:0:0:0:
344,148,30060,1,0,0:0:0:0:
304,332,30219,2,0,L|224:320,1,76.4999976654053
96,168,30539,1,0,0:0:0:0:
236,220,30698,1,0,0:0:0:0:
8,316,30858,2,0,L|88:308,1,76.4999976654053
176,272,43465,5,8,3:0:0:0:
203,274,43544,1,0,3:0:0:0:
231,277,43624,1,4,3:0:0:0:
259,280,43704,1,0,3:0:0:0:
287,283,43784,1,4,3:0:0:0:
315,286,43863,1,0,3:0:0:0:
340,304,43944,6,0,L|348:232,1,68,4|0,0:0|0:0,0:0:0:0:
468,148,44263,2,0,P|432:136|400:132,1,68,8|0,3:0|0:0,0:0:0:0:
288,56,44582,1,4,0:3:0:0:
376,136,44741,1,4,0:3:0:0:
412,4,44901,1,8,3:0:0:0:
384,104,45061,1,0,0:0:0:0:
248,36,45220,6,4,L|180:48,1,68,4|4,3:0|3:0,3:0:0:0:
48,72,45539,1,8,3:0:0:0:
200,184,45699,2,4,P|164:184|132:168,1,68,4|0,3:0|3:0,3:0:0:0:
300,288,46018,1,4,3:0:0:0:
304,180,46178,2,0,P|270:185|240:200,1,68,8|0,3:0|0:0,0:0:0:0:
200,328,46497,6,0,L|64:300,1,136,4|8,3:0|3:0,0:0:0:0:
12,212,46975,1,0,0:0:0:0:
120,100,47135,2,4,L|128:28,1,68,4|4,3:0|3:0,3:0:0:0:
240,208,47454,2,0,L|252:276,1,68,8|0,3:0|0:0,0:0:0:0:
312,48,47773,6,4,P|283:66|263:93,1,68,4|4,3:0|3:0,3:0:0:0:
408,208,48093,1,8,3:0:0:0:
464,24,48252,2,4,B|472:100,1,68,4|0,3:0|3:0,3:0:0:0:
344,40,48571,1,0,3:0:0:0:
492,220,48731,2,0,P|461:204|428:199,1,68,8|0,3:0|0:0,0:0:0:0:
296,180,49050,6,0,P|240:216|164:216,1,136,4|8,0:0|3:0,0:0:0:0:
84,160,49529,1,0,0:0:0:0:
40,336,49688,1,4,3:0:0:0:
0,224,49848,1,4,3:0:0:0:
144,368,50007,2,0,L|216:352,1,68,8|0,3:0|0:0,0:0:0:0:
332,300,50327,6,4,P|368:304|400:320,1,68,4|4,3:0|3:0,3:0:0:0:
320,196,50646,1,8,3:0:0:0:
448,372,50805,2,4,L|456:296,1,68,4|0,3:0|3:0,3:0:0:0:
440,180,51124,1,4,3:0:0:0:
240,280,51284,2,0,L|252:352,1,68,8|0,3:0|0:0,0:0:0:0:
344,176,51603,6,0,L|352:96,1,76.4999976654053,8|0,3:0|3:0,3:0:0:0:
460,148,51922,1,4,3:0:0:0:
213,276,52082,2,0,L|224:352,1,76.4999976654053,8|0,3:0|0:0,0:0:0:0:
112,336,52401,1,4,3:0:0:0:
290,160,52561,1,8,3:0:0:0:
323,178,52640,1,8,3:0:0:0:
348,206,52720,1,8,3:0:0:0:
361,242,52800,1,8,3:0:0:0:
361,242,52880,6,0,P|331:220|280:216,1,76.4999976654053,0|2,0:0|0:0,0:0:0:0:
24,256,53199,6,0,P|55:287|88:295,1,76.4999976654053,0|2,0:0|0:0,0:0:0:0:
253,118,53518,6,0,P|224:134|208:164,1,68,2|0,0:0|0:0,0:0:0:0:
110,141,53837,6,0,P|105:166|109:191,1,50.9999984436036,2|0,0:0|0:0,0:0:0:0:
212,324,54156,6,0,B|256:304|256:304|308:308,1,85,4|0,2:0|0:0,0:0:0:0:
428,384,54475,2,0,L|444:296,1,85,8|0,3:0|0:0,0:0:0:0:
316,168,54795,1,4,3:0:0:0:
456,192,54954,1,4,3:0:0:0:
312,308,55114,2,0,P|272:328|232:328,1,85,8|0,3:0|0:0,0:0:0:0:
428,184,55433,6,0,P|464:160|520:160,1,85,4|0,0:0|0:0,0:0:0:0:
256,236,55752,2,0,B|208:228|208:228|168:192,1,85,8|0,3:0|0:0,0:0:0:0:
96,96,56071,1,4,3:0:0:0:
16,220,56231,1,4,3:0:0:0:
44,36,56390,2,0,B|4:16|4:16|8:64,1,85,8|0,3:0|0:0,0:0:0:0:
176,192,56710,6,0,L|184:104,1,85,4|0,0:0|0:0,0:0:0:0:
24,260,57029,2,0,L|40:348,1,85,8|0,3:0|0:0,0:0:0:0:
240,296,57348,1,4,3:0:0:0:
100,224,57507,1,4,3:0:0:0:
204,32,57667,2,0,L|216:116,1,85,8|0,3:0|0:0,0:0:0:0:
392,160,57986,6,0,P|356:144|312:136,1,85,4|0,0:0|0:0,0:0:0:0:
116,236,58305,2,0,P|160:228|204:204,1,85,8|0,3:0|0:0,0:0:0:0:
76,352,58624,1,8,3:0:0:0:
132,140,58784,1,4,3:0:0:0:
84,328,58944,1,8,3:0:0:0:
12,156,59103,1,4,3:0:0:0:
176,348,59263,6,0,L|276:332,1,85,4|0,0:0|0:0,0:0:0:0:
396,180,59582,1,8,3:0:0:0:
416,300,59741,2,0,P|372:288|328:284,1,85,4|0,3:0|3:0,0:0:0:0:
428,312,60061,1,4,3:0:0:0:
292,164,60220,2,0,P|312:124|344:88,1,85,8|0,3:0|0:0,0:0:0:0:
104,226,60539,6,0,B|84:228|80:212|80:212|136:212|172:248,1,127.5,4|0,0:0|0:0,0:0:0:0:
176,272,60858,2,0,P|192:312|192:356,1,85,8|0,3:0|0:0,0:0:0:0:
0,220,61178,2,4,P|12:172|40:140,1,85,8|4,3:0|3:0,3:0:0:0:
212,148,61497,1,8,3:0:0:0:
32,32,61656,1,4,3:0:0:0:
280,72,61816,6,0,L|364:60,1,85,4|0,0:0|0:0,0:0:0:0:
172,12,62135,1,8,3:0:0:0:
136,224,62295,2,0,L|32:248,1,85,4|0,3:0|0:0,0:0:0:0:
128,92,62614,1,4,3:0:0:0:
411,216,62773,6,8,B|440:188|440:188|304:212,1,178.499994552612,0|0,1:0|3:0,3:0:0:0:
368,296,63093,2,0,L|376:348,1,42.5,2|2,0:0|0:0,0:0:0:0:
208,300,63412,6,0,B|179:324|155:268|191:253|191:253|227:240|228:300|299:300,1,204,6|0,1:0|1:0,1:0:0:0:
310,169,63731,2,0,L|302:225,1,42.5,4|2,3:0|0:0,0:0:0:0:
96,336,64050,6,4,B|64:284|88:232|88:232|112:176|88:120,1,204,6|0,1:0|0:0,0:0:0:0:
84,144,64368,6,0,P|88:188|72:232,1,85,4|0,2:0|0:0,0:0:0:0:
184,60,64687,2,0,P|212:28|256:8,1,85,8|0,3:0|0:0,0:0:0:0:
408,156,65007,1,4,3:0:0:0:
268,120,65166,1,4,3:0:0:0:
344,260,65326,2,0,L|428:272,1,85,8|0,3:0|0:0,0:0:0:0:
160,152,65645,6,0,B|144:108|144:108|152:64,1,85,4|0,0:0|0:0,0:0:0:0:
312,256,65964,2,0,L|296:348,1,85,8|0,0:3|0:0,0:0:0:0:
84,252,66283,1,4,3:0:0:0:
236,200,66443,1,4,3:0:0:0:
128,368,66602,1,8,3:0:0:0:
220,228,66762,1,0,3:0:0:0:
84,280,66921,6,0,P|56:244|104:264,1,127.5,4|0,0:0|0:0,0:0:0:0:
116,240,67241,2,0,P|132:196|132:152,1,85,8|0,3:0|0:0,0:0:0:0:
288,8,67560,1,4,3:0:0:0:
76,40,67719,1,4,3:0:0:0:
232,140,67879,2,0,L|316:148,1,85,8|0,3:0|0:0,0:0:0:0:
484,272,68198,6,0,L|392:280,1,85,4|0,2:0|0:0,0:0:0:0:
388,56,68517,2,0,P|420:92|428:132,1,85,8|0,3:0|0:0,0:0:0:0:
400,288,68836,1,8,3:0:0:0:
276,184,68996,1,4,3:0:0:0:
184,352,69156,1,8,3:0:0:0:
300,276,69315,1,4,3:0:0:0:
128,264,69475,6,0,L|0:256,1,127.5,4|0,0:0|0:0,0:0:0:0:
4,240,69794,2,0,L|16:328,1,85,8|0,3:0|0:0,0:0:0:0:
232,216,70113,1,4,3:0:0:0:
104,132,70273,2,0,L|112:40,1,85,0|8,3:0|3:0,0:0:0:0:
24,160,70592,1,0,3:0:0:0:
316,252,70751,6,0,B|344:260|344:260|300:288|300:288|276:244,1,127.5,4|4,0:0|3:0,0:0:0:0:
320,176,71070,1,8,3:0:0:0:
280,368,71230,1,0,3:0:0:0:
196,168,71390,2,0,P|164:144|116:136,1,85,0|8,3:0|3:0,3:0:0:0:
384,336,71709,2,0,B|436:320|436:320|476:328,1,85,0|8,3:0|3:0,0:0:0:0:
125,232,72028,6,4,B|60:236|39:293|39:293|80:292|96:264,1,178.499994552612,4|0,2:0|0:0,2:0:0:0:
188,296,72347,2,0,P|204:344|192:392,1,85,8|0,3:0|0:0,0:0:0:0:
364,248,72666,1,4,3:0:0:0:
196,268,72826,1,4,3:0:0:0:
452,212,72985,2,0,L|516:224,1,59.4999981842042,10|0,3:0|0:0,0:0:0:0:
312,340,73304,1,2,3:0:0:0:
344,136,73464,6,0,L|332:52,1,85,2|0,2:0|0:0,0:0:0:0:
180,228,73783,2,0,P|144:252|100:256,1,85,2|0,1:0|0:0,0:0:0:0:
392,300,74102,2,0,B|440:312|440:312|464:340,1,85,2|0,3:0|0:0,0:0:0:0:
256,132,74421,1,4,3:0:0:0:
108,376,74581,6,0,L|16:360,1,85,4|0,0:0|0:0,0:0:0:0:
