osu file format v14

[General]
AudioFilename: audio.mp3
AudioLeadIn: 0
PreviewTime: 50352
Countdown: 0
SampleSet: Soft
StackLeniency: 0.3
Mode: 0
LetterboxInBreaks: 0
WidescreenStoryboard: 1

[Editor]
Bookmarks: 48257
DistanceSpacing: 1
BeatDivisor: 4
GridSize: 8
TimelineZoom: 1.8

[Metadata]
Title:To see the future
TitleUnicode:To see the future
Artist:LLENN (Tomori Kusunoki)
ArtistUnicode:LLENN (Tomori Kusunoki)
Creator:P4ndemonium
Version:Normal
Source:ソードアート・オンライン オルタナティブ ガンゲイル・オンライン
Tags:sword art online alternative gun gale online ending llenn tv size
BeatmapID:1646565
BeatmapSetID:779902

[Difficulty]
HPDrainRate:4
CircleSize:3.5
OverallDifficulty:5
ApproachRate:5
SliderMultiplier:1
SliderTickRate:1

[Events]
//Background and Video events
0,0,"saoggoalt.png",0,0
//Break Periods
//Storyboard Layer 0 (Background)
//Storyboard Layer 1 (Fail)
//Storyboard Layer 2 (Pass)
//Storyboard Layer 3 (Foreground)
//Storyboard Sound Samples

[TimingPoints]
520,437.956204379562,4,2,0,20,1,0
3147,-100,4,2,0,20,0,0
10155,-100,4,2,0,20,0,0
11030,-100,4,2,0,20,0,0
11687,-100,4,2,0,20,0,0
12344,-100,4,2,0,20,0,0
13001,-100,4,2,0,20,0,0
13658,-100,4,2,0,20,0,0
14534,-100,4,2,0,20,0,0
15848,-100,4,2,0,20,0,0
16505,-100,4,2,0,20,0,0
17162,-100,4,2,0,20,0,0
18038,-100,4,2,0,50,0,0
20665,-100,4,2,0,50,0,0
22417,-100,4,2,0,50,0,0
31176,-100,4,2,0,50,0,0
32052,-100,4,2,0,20,0,0
39060,-100,4,2,0,40,0,0
42563,-100,4,2,0,50,0,0
49133,-100,4,2,0,50,0,0
50447,-100,4,2,0,20,0,0
50884,-100,4,2,0,20,0,0
51213,-100,4,2,0,5,0,0
51322,-100,4,2,0,70,0,1
79352,-100,4,2,0,20,0,0

[HitObjects]
22,290,3147,6,0,L|121:298,1,100
204,242,4023,2,0,L|253:237,3,50
279,89,5337,2,0,L|229:84,3,50
128,74,6432,2,0,L|78:69,1,50
70,169,7089,6,0,L|119:173,1,50
154,209,7527,2,0,L|203:204,3,50
317,302,8841,2,0,L|267:297,3,50
417,312,9936,2,0,L|466:316,1,50
475,217,10592,6,0,L|425:212,1,50
392,174,11030,2,0,L|292:182,1,100
242,189,11687,1,8,0:0:0:0:
185,327,12344,2,0,L|85:318,1,100
36,312,13001,1,8,0:0:0:0:
105,178,13658,1,0,0:0:0:0:
47,96,14096,1,0,0:0:0:0:
147,87,14534,6,0,L|246:78,1,100
279,116,15191,2,0,L|378:124,1,100,8|0,0:0|0:0,0:0:0:0:
415,90,15848,6,0,L|406:189,1,100
444,222,16505,2,0,L|452:321,1,100,8|0,0:0|0:0,0:0:0:0:
459,371,17162,1,0,0:0:0:0:
368,329,17600,1,0,0:0:0:0:
271,354,18038,6,0,P|224:338|175:345,1,100,4|8,0:0|0:0,0:0:0:0:
81,381,18914,2,0,L|72:281,1,100,0|8,0:0|0:0,0:0:0:0:
65,231,19571,1,0,0:0:0:0:
63,181,19790,6,0,P|109:165|158:172,1,100,0|8,0:0|0:0,0:0:0:0:
253,208,20666,2,0,L|261:108,1,100,0|8,0:0|0:0,0:0:0:0:
314,23,21541,6,0,P|360:38|409:31,1,100,0|8,0:0|0:0,0:0:0:0:
446,125,22417,2,0,L|438:225,1,100,0|8,0:0|0:0,0:0:0:0:
432,274,23074,1,0,0:0:0:0:
390,302,23293,6,0,P|343:317|294:310,1,100,0|8,0:0|0:0,0:0:0:0:
227,235,24169,2,0,L|235:135,1,100
135,125,25045,6,0,L|126:224,1,100
86,255,25702,2,0,L|94:354,1,100
144,348,26359,6,0,L|243:339,1,100
274,299,27016,2,0,L|373:307,1,100
423,313,27673,1,0,0:0:0:0:
476,228,28111,1,0,0:0:0:0:
425,141,28549,6,0,P|376:148|329:132,1,100,0|8,0:0|0:0,0:0:0:0:
286,105,29206,2,0,P|239:89|190:96,1,100
144,117,29863,1,8,0:0:0:0:
139,166,30082,1,0,0:0:0:0:
136,216,30301,6,0,L|127:315,1,100,0|8,0:0|0:0,0:0:0:0:
226,329,31176,2,0,L|234:229,1,100,0|8,0:0|0:0,0:0:0:0:
313,167,32052,5,0,0:0:0:0:
412,158,32490,1,0,0:0:0:0:
403,59,32928,1,0,0:0:0:0:
304,68,33366,1,0,0:0:0:0:
205,77,33804,5,0,0:0:0:0:
214,176,34242,1,0,0:0:0:0:
115,185,34680,1,0,0:0:0:0:
106,86,35118,1,0,0:0:0:0:
205,77,35556,5,0,0:0:0:0:
304,68,35994,1,0,0:0:0:0:
313,167,36432,1,0,0:0:0:0:
214,176,36870,1,0,0:0:0:0:
223,275,37308,5,0,0:0:0:0:
232,374,37746,1,0,0:0:0:0:
331,365,38184,1,0,0:0:0:0:
322,266,38622,1,0,0:0:0:0:
409,217,39060,6,0,P|416:168|445:128,1,100,0|8,0:0|0:0,0:0:0:0:
353,87,39936,2,0,P|345:38|316:-1,1,100,0|8,0:0|0:0,0:0:0:0:
253,76,40811,6,0,P|245:124|216:164,1,100,0|8,0:0|0:0,0:0:0:0:
309,206,41687,2,0,P|316:254|345:294,1,100,0|8,0:0|0:0,0:0:0:0:
286,375,42563,6,0,L|187:384,1,100
154,346,43220,2,0,L|55:338,1,100
18,302,43877,2,0,L|9:203,1,100
47,170,44534,2,0,L|55:71,1,100
59,20,45191,1,0,0:0:0:0:
153,53,45629,1,0,0:0:0:0:
249,27,46067,6,0,L|258:126,1,100
220,159,46724,2,0,L|212:258,1,100
242,298,47381,2,0,L|341:289,1,100
374,327,48038,2,0,L|473:335,1,100
256,192,48695,12,0,50447,0:0:0:0:
512,288,51322,6,0,P|463:280|416:296,1,100,4|8,0:0|0:0,0:0:0:0:
378,329,51979,1,0,0:0:0:0:
328,325,52198,2,0,L|278:319,1,50
245,282,52636,2,0,L|195:287,1,50,8|0,0:0|0:0,0:0:0:0:
166,328,53074,2,0,L|116:322,1,50
83,285,53512,2,0,L|33:290,1,50,8|0,0:0|0:0,0:0:0:0:
3,249,53950,2,0,L|8:199,1,50
46,166,54388,2,0,L|40:116,1,50,8|0,0:0|0:0,0:0:0:0:
33,66,54826,6,0,P|82:74|129:58,1,100
172,33,55483,2,0,P|218:17|267:25,1,100
310,52,56140,2,0,P|302:101|318:148,1,100
343,191,56797,2,0,P|358:237|350:286,1,100
327,331,57454,1,0,0:0:0:0:
236,288,57892,1,0,0:0:0:0:
154,345,58330,6,0,P|129:350|104:349,1,50
54,345,58768,2,0,P|36:326|25:304,1,50,8|0,0:0|0:0,0:0:0:0:
49,260,59206,2,0,L|55:185,1,75
73,167,59644,2,0,L|68:117,1,50,8|0,0:0|0:0,0:0:0:0:
62,67,60082,1,0,0:0:0:0:
152,25,60519,6,0,P|166:45|186:60,1,50,8|0,0:0|0:0,0:0:0:0:
206,105,60957,2,0,P|230:110|255:109,1,50
300,132,61395,2,0,P|322:120|340:104,1,50,8|0,0:0|0:0,0:0:0:0:
367,61,61833,6,0,P|392:103|434:129,1,100
483,140,62490,2,0,P|458:183|457:232,1,100
473,280,63147,2,0,P|423:280|379:304,1,100
346,340,63804,2,0,P|320:297|278:271,1,100
228,268,64461,1,0,0:0:0:0:
141,317,64899,1,0,0:0:0:0:
51,273,65337,6,0,L|42:173,1,100,4|0,0:0|0:0,0:0:0:0:
38,123,65994,2,0,P|87:131|134:115,1,100
170,80,66651,2,0,L|161:179,1,100
157,230,67308,2,0,P|206:222|253:238,1,100
291,270,67965,2,0,L|340:274,1,50
376,239,68403,2,0,L|425:234,1,50
475,227,68841,6,0,L|483:127,1,100
488,77,69498,2,0,P|439:85|392:69,1,100
356,33,70155,2,0,L|364:132,1,100
369,183,70812,2,0,P|320:175|273:191,1,100
235,223,71468,1,0,0:0:0:0:
144,180,71906,2,0,L|148:130,1,50
153,80,72344,5,4,0:0:0:0:
302,64,73001,1,2,0:0:0:0:
391,184,73658,1,0,0:0:0:0:
242,200,74315,1,2,0:0:0:0:
331,320,74972,1,0,0:0:0:0:
231,329,75410,2,0,L|181:333,1,50
131,336,75848,6,0,P|139:287|123:240,1,100,4|0,0:0|0:0,0:0:0:0:
94,199,76505,1,2,0:0:0:0:
256,192,77162,12,0,78914,0:0:0:0:
29,33,79352,6,0,P|53:31|78:36,1,50
124,20,79790,2,0,P|144:34|159:54,1,50
205,71,80228,1,0,0:0:0:0:
236,165,80665,6,0,P|211:163|186:168,1,50
141,152,81103,2,0,P|120:166|105:186,1,50
60,203,81541,1,0,0:0:0:0:
230,332,82855,6,0,P|254:333|279:328,1,50
325,345,83293,2,0,P|345:330|360:310,1,50
406,294,83731,1,0,0:0:0:0:
437,200,84168,6,0,P|412:201|387:196,1,50
342,213,84606,2,0,P|321:198|306:178,1,50
261,162,85044,1,0,0:0:0:0:
35,360,86359,6,0,P|33:335|38:310,1,50
23,265,86797,2,0,P|37:244|57:229,1,50
73,184,87235,1,0,0:0:0:0:
167,153,87672,6,0,P|165:177|170:202,1,50
154,248,88110,2,0,P|168:268|188:283,1,50
205,329,88548,1,0,0:0:0:0:
