osu file format v14

[General]
AudioFilename: audio.mp3
AudioLeadIn: 0
PreviewTime: 50476
Countdown: 0
SampleSet: Soft
StackLeniency: 0.7
Mode: 0
LetterboxInBreaks: 0
WidescreenStoryboard: 1

[Editor]
Bookmarks: 18067,32082,51352,72356
DistanceSpacing: 1
BeatDivisor: 2
GridSize: 4
TimelineZoom: 1

[Metadata]
Title:To see the future (TV Size)
TitleUnicode:To see the future (TV Size)
Artist:LLENN (Kusunoki Tomori)
ArtistUnicode:レン(楠木ともり)
Creator:Seto Kousuke
Version:iMegaBoss' Normal
Source:ソードアート・オンライン オルタナティブ ガンゲイル・オンライン
Tags:Sword Art Online Alternative Gun Gale Online Kuron-kun Trynna bossandy iMega ending
BeatmapID:1622524
BeatmapSetID:770961

[Difficulty]
HPDrainRate:3
CircleSize:3
OverallDifficulty:4
ApproachRate:5
SliderMultiplier:1
SliderTickRate:1

[Events]
//Background and Video events
0,0,"llenn.jpg",0,0
Video,-200,"video.avi"
//Break Periods
//Storyboard Layer 0 (Background)
//Storyboard Layer 1 (Fail)
//Storyboard Layer 2 (Pass)
//Storyboard Layer 3 (Foreground)
//Storyboard Sound Samples

[TimingPoints]
-2954,437.956204379562,4,2,5,40,1,0
4053,-100,4,2,5,50,0,0
6462,-100,4,2,2,60,0,0
6900,-100,4,2,5,50,0,0
11060,-100,4,2,1,60,0,0
13469,-100,4,2,3,60,0,0
13907,-100,4,2,3,50,0,0
14564,-100,4,2,1,60,0,0
17629,-100,4,2,5,60,0,0
18067,-100,4,2,1,60,0,0
30768,-100,4,2,20,60,0,0
31206,-100,4,2,1,60,0,0
32082,-100,4,2,5,40,0,0
39089,-100,4,2,5,55,0,0
42155,-100,4,2,1,55,0,0
42593,-100,4,2,1,65,0,0
48286,-100,4,2,5,65,0,0
49381,-100,4,2,4,65,0,0
51352,-100,4,2,1,75,0,1
55294,-100,4,2,20,75,0,1
55513,-100,4,2,1,75,0,1
62301,-100,4,2,20,75,0,1
62520,-100,4,2,1,75,0,1
65805,-100,4,2,20,75,0,1
66024,-100,4,2,1,75,0,1
69308,-100,4,2,20,75,0,1
69527,-100,4,2,1,75,0,1
79381,-100,4,2,1,75,0,0

[Colours]
Combo1 : 221,174,181
Combo2 : 226,104,141
Combo3 : 121,53,76
Combo4 : 204,32,109

[HitObjects]
84,100,549,6,0,B|226:40|222:200|396:84,1,300,0|2,0:0|0:0,0:0:0:0:
452,44,2301,1,2,0:0:0:0:
453,243,3177,2,0,P|404:313|299:302,1,200,2|2,0:0|0:0,0:0:0:0:
282,153,4710,1,2,0:0:0:0:
132,148,5367,2,0,P|90:188|113:287,1,150,2|2,0:0|0:0,0:0:0:0:
228,350,6681,1,4,0:0:0:0:
289,271,7118,1,0,0:0:0:0:
350,192,7556,6,0,L|362:37,1,150,2|2,0:0|0:0,0:0:0:0:
222,99,8870,2,0,L|233:248,1,150,2|2,0:0|0:0,0:0:0:0:
114,341,10184,2,0,P|68:324|45:281,1,100,0|2,0:0|0:0,0:0:0:0:
73,184,11060,2,0,P|142:158|213:179,1,150,2|2,0:0|0:0,0:0:0:0:
301,299,12374,2,0,P|371:319|441:294,1,150,2|8,0:0|0:0,0:0:0:0:
470,146,13688,6,0,L|458:35,2,100,4|0|2,0:0|0:0|0:0,0:0:0:0:
442,293,15221,1,8,0:0:0:0:
328,195,15878,1,2,0:0:0:0:
200,274,16535,2,0,P|146:275|101:185,1,150,8|0,0:0|0:0,0:0:0:0:
296,240,18067,5,2,0:0:0:0:
360,320,18505,1,10,0:0:0:0:
404,232,18943,2,0,P|392:192|352:148,1,100,2|10,0:0|0:0,0:0:0:0:
252,144,19819,2,0,L|140:160,1,100,2|10,0:0|0:0,0:0:0:0:
84,84,20695,1,2,0:0:0:0:
44,176,21133,1,10,0:0:0:0:
112,248,21571,6,0,P|125:294|108:348,1,100,2|10,0:0|0:0,0:0:0:0:
208,320,22447,1,2,0:0:0:0:
304,344,22885,2,0,B|336:344|352:332|352:332|368:344|400:344,1,100,10|2,0:0|0:0,0:0:0:0:
500,360,23761,2,0,P|468:288|476:164,1,200,10|10,0:0|0:0,0:0:0:0:
496,72,25075,5,2,0:0:0:0:
400,100,25513,2,0,P|348:96|308:72,1,100,10|2,0:0|0:0,0:0:0:0:
224,20,26389,2,0,P|172:24|132:48,1,100,10|2,0:0|0:0,0:0:0:0:
139,144,27264,1,10,0:0:0:0:
48,104,27702,1,2,0:0:0:0:
56,204,28140,1,10,0:0:0:0:
139,144,28578,6,0,P|192:132|256:148,1,100,2|10,0:0|0:0,0:0:0:0:
264,236,29454,2,0,P|317:248|381:232,1,100,2|10,0:0|0:0,0:0:0:0:
432,168,30330,2,0,P|440:296|388:332,1,200,2|2,0:0|0:0,0:0:0:0:
292,344,31644,1,2,0:0:0:0:
196,316,32082,6,0,P|147:263|165:194,1,150,2|0,0:0|0:0,0:0:0:0:
100,60,33396,2,0,L|149:65,1,50,2|0,0:0|0:0,0:0:0:0:
174,109,33834,2,0,L|276:97,1,100,2|2,0:0|0:0,0:0:0:0:
364,56,34710,2,0,L|463:66,1,100,2|2,0:0|0:0,0:0:0:0:
480,167,35586,6,0,P|471:238|398:296,1,150,2|0,0:0|0:0,0:0:0:0:
296,199,36900,1,2,0:0:0:0:
244,284,37337,2,0,P|198:295|138:288,1,100,2|0,0:0|0:0,0:0:0:0:
99,201,38213,2,0,P|147:189|197:194,1,100,2|0,0:0|0:0,0:0:0:0:
296,199,39089,5,2,0:0:0:0:
345,111,39527,2,0,B|444:115,2,100,8|2|8,0:0|0:0|0:0,0:0:0:0:
253,69,40841,1,2,0:0:0:0:
167,121,41279,1,8,0:0:0:0:
81,68,41717,1,2,0:0:0:0:
19,147,42155,2,0,L|24:210,1,50,8|0,0:0|0:0,0:0:0:0:
52,237,42593,6,0,P|110:270|203:251,1,150,6|8,0:0|0:0,0:0:0:0:
282,142,43907,2,0,P|216:107|144:119,1,150,2|8,0:0|0:0,0:0:0:0:
196,260,45221,2,0,B|205:289|205:289|190:330|190:330|194:366,1,100,2|2,0:0|0:0,0:0:0:0:
290,331,46097,6,0,P|355:364|427:350,1,150,6|8,0:0|0:0,0:0:0:0:
444,200,47410,2,0,P|378:166|306:180,1,150,6|2,0:0|0:0,0:0:0:0:
256,192,48724,12,2,50476,0:0:0:0:
64,344,51352,5,2,0:0:0:0:
56,244,51790,2,0,L|52:172,1,50,10|2,0:0|0:1,0:0:0:0:
96,172,52228,2,0,B|108:120|108:120|100:68,1,100,2|10,0:0|0:0,0:0:0:0:
92,24,52885,1,2,0:1:0:0:
140,24,53104,2,0,L|252:24,1,100,2|10,0:0|0:0,0:0:0:0:
320,84,53980,2,0,L|372:96,1,50,2|2,0:0|0:1,0:0:0:0:
416,80,54418,2,0,L|464:68,1,50,10|2,0:0|0:1,0:0:0:0:
488,112,54856,6,0,B|524:184|488:256,1,150,2|2,0:0|0:1,0:0:0:0:
356,328,56170,2,0,B|320:256|356:184,1,150,10|2,0:0|0:1,0:0:0:0:
384,140,57045,1,10,0:0:0:0:
432,52,57483,2,0,P|380:36|316:68,1,100,2|10,0:0|0:0,0:0:0:0:
296,76,58140,1,2,0:1:0:0:
268,120,58359,5,2,0:0:0:0:
224,208,58797,2,0,L|192:252,1,50,10|2,0:0|0:1,0:0:0:0:
152,276,59235,2,0,P|104:280|44:256,1,100,2|10,0:0|0:0,0:0:0:0:
24,224,59892,1,2,0:1:0:0:
12,176,60111,2,0,P|16:128|40:80,1,100,2|10,0:0|0:0,0:0:0:0:
128,36,60987,1,2,0:0:0:0:
128,136,61425,1,10,0:0:0:0:
184,220,61863,6,0,B|232:220|256:202|256:202|280:220|328:220,1,150,2|2,0:0|0:1,0:0:0:0:
240,100,63177,2,0,B|288:100|312:118|312:118|336:100|384:100,1,150,10|2,0:0|0:1,0:0:0:0:
428,124,64053,1,10,0:0:0:0:
464,216,64491,2,0,P|448:268|412:296,1,100,2|10,0:0|0:0,0:0:0:0:
320,336,65367,6,0,B|283:349|247:336|247:336|210:322|174:336,1,150,6|2,0:0|0:1,0:0:0:0:
28,380,66681,2,0,B|14:343|28:307|28:307|41:270|28:234,1,150,10|2,0:0|0:1,0:0:0:0:
0,192,67556,1,10,0:0:0:0:
52,104,67994,2,0,B|76:80|104:80|104:80|148:80,1,100,2|10,0:0|0:0,0:0:0:0:
244,76,68870,6,0,B|287:76|287:76|339:41|339:41|382:41,1,150,2|2,0:0|0:1,0:0:0:0:
384,192,70184,2,0,B|340:192|340:192|288:157|288:157|245:157,1,150,10|2,0:0|0:1,0:0:0:0:
196,156,71060,1,10,0:0:0:0:
184,56,71498,2,0,P|148:24|92:16,1,100,2|10,0:0|0:0,0:0:0:0:
107,115,72374,6,0,P|76:192|0:237,2,150,6|8|6,0:0|0:0|0:0,0:0:0:0:
202,231,74345,2,0,L|251:234,2,50,2|0|2,0:0|0:0|0:0,0:0:0:0:
173,272,75002,2,0,L|181:372,1,100,8|2,0:0|0:0,0:0:0:0:
272,330,75878,6,0,B|345:301|345:362|437:313,1,150,6|8,0:0|0:0,0:0:0:0:
378,180,77191,1,6,0:0:0:0:
378,180,77848,2,0,L|382:100,2,50,2|0|2,0:0|0:0|0:0,0:0:0:0:
331,199,78505,2,0,L|221:204,1,100,8|2,0:0|0:0,0:0:0:0:
131,209,79381,1,2,0:0:0:0:
