osu file format v14

[General]
AudioFilename: audio.mp3
AudioLeadIn: 0
PreviewTime: 50476
Countdown: 0
SampleSet: Soft
StackLeniency: 0.7
Mode: 0
LetterboxInBreaks: 0
WidescreenStoryboard: 0

[Editor]
Bookmarks: 21589,35713,54853,75877
DistanceSpacing: 0.94
BeatDivisor: 12
GridSize: 4
TimelineZoom: 2.7

[Metadata]
Title:To see the future (TV Size)
TitleUnicode:To see the future (TV Size)
Artist:LLENN (Kusunoki Tomori)
ArtistUnicode:レン(楠木ともり)
Creator:Seto Kousuke
Version:Insane
Source:ソードアート・オンライン オルタナティブ ガンゲイル・オンライン
Tags:Sword Art Online Alternative Gun Gale Online Kuron-kun Trynna bossandy iMega ending
BeatmapID:1620874
BeatmapSetID:770961

[Difficulty]
HPDrainRate:5
CircleSize:4
OverallDifficulty:8
ApproachRate:8.5
SliderMultiplier:2.1
SliderTickRate:1

[Events]
//Background and Video events
0,0,"llenn.jpg",0,0
Video,-200,"video.avi"
//Break Periods
//Storyboard Layer 0 (Background)
//Storyboard Layer 1 (Fail)
//Storyboard Layer 2 (Pass)
//Storyboard Layer 3 (Foreground)
//Storyboard Sound Samples

[TimingPoints]
-2954,437.956204379562,4,2,5,40,1,0
659,-133.333333333333,4,2,5,40,0,0
2301,-200,4,2,5,40,0,0
4053,-142.857142857143,4,2,5,50,0,0
6571,-142.857142857143,4,2,2,60,0,0
6790,-142.857142857143,4,2,5,50,0,0
11060,-111.111111111111,4,2,1,60,0,0
13578,-111.111111111111,4,2,3,60,0,0
13797,-111.111111111111,4,2,3,50,0,0
14564,-90.9090909090909,4,2,1,60,0,0
17629,-133.333333333333,4,2,5,60,0,0
18067,-90.9090909090909,4,2,1,60,0,0
32082,-125,4,2,5,40,0,0
39089,-125,4,2,5,55,0,0
42155,-100,4,2,1,55,0,0
42593,-100,4,2,1,65,0,0
48177,-200,4,2,5,65,0,0
49381,-153.846153846153,4,2,4,65,0,0
51133,-153.846153846153,4,2,4,5,0,0
51352,-83.3333333333333,4,2,1,75,0,1
77191,-100,4,2,1,75,0,1
78943,-200,4,2,1,75,0,1
79381,-100,4,2,10,45,0,0
79600,-100,4,2,11,45,0,0
79819,-100,4,2,12,45,0,0
80038,-100,4,2,13,45,0,0
80257,-100,4,2,12,45,0,0
80695,-100,4,2,10,45,0,0
80914,-100,4,2,11,45,0,0
81133,-100,4,2,12,45,0,0
81352,-100,4,2,13,45,0,0
81571,-100,4,2,12,45,0,0
81790,-100,4,2,14,45,0,0
81900,-100,4,2,15,45,0,0
82009,-100,4,2,16,45,0,0
82228,-100,4,2,15,45,0,0
82447,-100,4,2,14,45,0,0
82666,-100,4,2,17,45,0,0
82885,-100,4,2,10,45,0,0
83104,-100,4,2,11,45,0,0
83323,-100,4,2,12,45,0,0
83542,-100,4,2,13,45,0,0
83761,-100,4,2,12,45,0,0
84199,-100,4,2,10,45,0,0
84418,-100,4,2,11,45,0,0
84637,-100,4,2,12,45,0,0
84856,-100,4,2,13,45,0,0
85075,-100,4,2,12,45,0,0
85841,-100,4,2,14,45,0,0
85896,-100,4,2,15,45,0,0
85951,-100,4,2,18,45,0,0
86389,-100,4,2,10,45,0,0
86608,-100,4,2,11,45,0,0
86827,-100,4,2,12,45,0,0
87045,-100,4,2,13,45,0,0
87264,-100,4,2,12,45,0,0
87702,-100,4,2,10,45,0,0
87921,-100,4,2,11,45,0,0
88140,-100,4,2,12,45,0,0
88359,-100,4,2,13,45,0,0
88578,-200,4,2,12,45,0,0

[Colours]
Combo1 : 221,174,181
Combo2 : 226,104,141
Combo3 : 121,53,76
Combo4 : 204,32,109

[HitObjects]
184,160,403,6,0,L|160:160,4,17.5,2|2|2|0|2,0:0|0:0|0:0|0:0|0:0,0:0:0:0:
267,112,768,1,0,0:0:0:0:
267,208,987,1,2,0:0:0:0:
350,160,1206,1,0,0:0:0:0:
184,160,1425,2,0,L|88:160,1,78.7500030040742,2|0,0:0|0:0,0:0:0:0:
22,208,1863,1,2,0:0:0:0:
106,256,2082,1,0,0:0:0:0:
168,84,2301,6,0,P|96:60|24:108,1,157.5,2|0,0:0|0:0,0:0:0:0:
106,256,3177,2,0,L|218:256,1,105,2|0,0:0|0:0,0:0:0:0:
404,252,4053,6,0,L|488:252,2,73.4999977569581,2|0|0,0:0|0:0|0:0,0:0:0:0:
395,120,4710,2,0,P|427:188|391:264,1,146.999995513916,2|0,0:0|0:0,0:0:0:0:
256,192,5367,2,0,L|329:192,2,73.4999977569581,2|0|0,0:0|0:0|0:0,0:0:0:0:
206,324,6024,2,0,P|222:275|199:229,1,73.4999977569581,2|0,0:0|0:0,0:0:0:0:
164,172,6462,1,0,0:0:0:0:
384,248,6681,5,4,0:0:0:0:
384,248,7118,5,0,0:0:0:0:
416,152,7337,1,0,0:0:0:0:
329,192,7556,2,0,L|245:192,2,73.4999977569581,2|0|0,0:0|0:0|0:0,0:0:0:0:
368,67,8213,2,0,P|320:121|329:192,1,146.999995513916,2|0,0:0|0:0,0:0:0:0:
420,240,8870,2,0,L|520:240,2,73.4999977569581,2|0|0,0:0|0:0|0:0,0:0:0:0:
336,284,9527,5,2,0:0:0:0:
360,108,9965,1,0,0:0:0:0:
300,184,10184,2,0,L|300:212,6,18.3749994392395
360,108,10622,2,0,P|396:100|436:112,1,73.4999977569581,2|0,0:0|0:0,0:0:0:0:
336,284,11060,6,0,B|296:296|264:280|264:280|232:264|188:280,1,141.749995674133,2|0,0:0|0:0,0:0:0:0:
156,296,11498,1,0,0:0:0:0:
300,202,11717,2,0,P|308:136|256:80,1,141.749995674133,2|0,0:0|0:0,0:0:0:0:
216,72,12155,1,0,0:0:0:0:
76,160,12374,2,0,L|172:160,1,94.499997116089,2|0,0:0|0:0,0:0:0:0:
42,70,12812,1,0,0:0:0:0:
42,250,13031,5,8,0:0:0:0:
76,160,13250,1,0,0:0:0:0:
118,311,13469,1,0,0:0:0:0:
170,160,13688,5,4,0:0:0:0:
194,250,14126,5,0,0:0:0:0:
218,340,14564,6,0,B|252:356|304:336|304:336|352:320|396:340,1,173.250005287171,2|0,0:0|0:0,0:0:0:0:
440,360,15002,1,0,0:0:0:0:
352,232,15221,2,0,B|360:192|345:164|345:164|337:140|365:108|365:108|373:136|393:160,1,173.250005287171,8|0,0:0|0:0,0:0:0:0:
432,176,15659,1,0,0:0:0:0:
194,250,15878,6,0,L|160:252,6,28.8750008811951,2|0|0|0|0|0|0,0:0|0:0|0:0|0:0|0:0|0:0|0:0,0:0:0:0:
248,228,16316,1,0,0:0:0:0:
100,172,16535,2,0,P|60:252|96:328,1,173.250005287171,8|0,0:0|0:0,0:0:0:0:
140,352,16973,1,0,0:0:0:0:
248,228,17191,2,0,B|248:148|248:148|216:200,1,115.50000352478
220,352,17629,6,0,P|276:356|344:348,1,118.125004506111
337,349,18067,6,0,P|324:288|344:236,1,115.50000352478,2|0,0:0|0:0,0:0:0:0:
484,144,18505,1,10,0:0:0:0:
432,296,18724,2,0,L|432:324,2,28.8750008811951,0|0|0,2:0|2:0|2:0,2:0:0:0:
401,177,18943,2,0,P|349:153|292:172,1,115.50000352478,2|0,0:0|0:0,0:0:0:0:
184,328,19381,1,10,0:0:0:0:
184,172,19600,1,0,0:0:0:0:
296,328,19819,5,2,0:0:0:0:
295,169,20038,1,0,0:0:0:0:
128,248,20257,1,10,0:0:0:0:
240,248,20476,1,0,0:0:0:0:
68,172,20695,2,0,L|183:172,1,115.50000352478,2|0,0:0|0:0,0:0:0:0:
355,92,21133,2,0,L|240:92,1,115.50000352478,10|0,0:0|0:0,0:0:0:0:
8,96,21571,5,2,0:0:0:0:
68,20,21790,1,0,0:0:0:0:
68,172,22009,1,10,0:0:0:0:
183,20,22228,1,0,0:0:0:0:
240,248,22447,2,0,P|288:224|296:168,1,115.50000352478,2|0,0:0|0:0,0:0:0:0:
128,96,22885,2,0,L|268:96,1,115.50000352478,10|0,0:0|0:0,0:0:0:0:
415,167,23323,5,2,0:0:0:0:
355,91,23542,1,0,0:0:0:0:
355,243,23761,1,10,0:0:0:0:
295,167,23980,1,0,0:0:0:0:
475,91,24199,2,0,L|475:48,2,28.8750008811951,2|0|0,0:0|2:0|0:0,2:0:0:0:
355,91,24418,1,0,0:0:0:0:
475,243,24637,1,10,0:0:0:0:
415,167,24856,1,0,0:0:0:0:
295,319,25075,6,0,B|240:340|240:340|172:316,1,115.50000352478,2|0,0:0|0:0,0:0:0:0:
189,142,25513,1,10,0:0:0:0:
296,229,25732,2,0,B|241:250|241:250|188:232,1,115.50000352478,0|2,0:0|0:0,0:0:0:0:
190,52,26170,1,0,0:0:0:0:
297,139,26389,2,0,B|242:160|242:160|188:141,1,115.50000352478,10|0,0:0|0:0,0:0:0:0:
356,52,26827,5,2,0:0:0:0:
476,167,27045,2,0,L|476:51,1,115.50000352478,0|10,0:0|0:0,0:0:0:0:
297,139,27483,1,0,0:0:0:0:
416,243,27702,1,2,0:0:0:0:
356,52,27921,1,0,0:0:0:0:
238,226,28140,2,0,B|188:240|152:224|152:224|104:204|52:224,1,173.250005287171,10|0,0:0|0:0,0:0:0:0:
16,240,28578,6,0,P|32:184|12:120,1,115.50000352478,2|0,0:0|0:0,0:0:0:0:
216,36,29016,1,10,0:0:0:0:
98,36,29235,1,0,0:0:0:0:
156,224,29454,1,2,0:0:0:0:
156,106,29673,1,0,0:0:0:0:
344,166,29892,1,10,0:0:0:0:
226,166,30111,1,0,0:0:0:0:
416,112,30330,6,0,P|436:164|408:228,1,115.50000352478,2|0,0:0|0:0,0:0:0:0:
284,328,30768,2,0,P|264:276|292:212,1,115.50000352478,10|0,0:0|0:0,0:0:0:0:
420,352,31206,1,2,0:0:0:0:
344,166,31425,1,0,0:0:0:0:
216,272,31644,2,0,L|165:271,6,28.8750008811951,2|0|0|0|0|0|0,0:0|0:0|0:0|0:0|0:0|0:0|0:0,0:0:0:0:
216,272,32082,6,0,P|228:232|216:184,1,84,2|0,0:0|0:0,0:0:0:0:
152,152,32520,2,0,P|143:111|155:71,1,84,2|0,0:0|0:0,0:0:0:0:
226,38,32958,2,0,P|234:78|222:118,1,84,2|0,0:0|0:0,0:0:0:0:
82,186,33396,1,2,0:0:0:0:
152,152,33615,1,0,0:0:0:0:
12,220,33834,6,0,L|12:320,1,84,2|0,0:0|0:0,0:0:0:0:
82,186,34272,2,0,L|82:102,1,84,2|0,0:0|0:0,0:0:0:0:
148,228,34710,2,0,L|148:328,1,84,2|0,0:0|0:0,0:0:0:0:
280,155,35148,1,2,0:0:0:0:
214,192,35367,1,0,0:0:0:0:
352,120,35586,6,0,L|449:120,1,84,2|0,0:0|0:0,0:0:0:0:
431,199,36024,2,0,L|347:199,1,84,2|0,0:0|0:0,0:0:0:0:
350,278,36462,2,0,L|434:278,1,84,2|0,0:0|0:0,0:0:0:0:
351,357,36900,1,2,0:0:0:0:
429,357,37118,1,0,0:0:0:0:
278,317,37337,5,2,0:0:0:0:
278,317,37556,2,0,B|226:301|190:318|190:318|146:337|106:317,1,168
64,232,38213,1,2,0:0:0:0:
64,232,38432,2,0,P|48:156|128:92,1,168
186,96,39089,5,2,0:0:0:0:
244,152,39308,1,0,0:0:0:0:
189,289,39527,1,8,0:0:0:0:
245,232,39746,1,0,0:0:0:0:
189,289,39965,1,2,0:0:0:0:
109,289,40184,1,0,0:0:0:0:
54,152,40403,1,8,0:0:0:0:
53,232,40622,1,0,0:0:0:0:
112,96,40841,5,2,0:0:0:0:
54,152,41060,1,0,0:0:0:0:
244,152,41279,1,8,0:0:0:0:
186,96,41498,1,0,0:0:0:0:
189,289,41717,1,2,0:0:0:0:
54,152,41936,1,0,0:0:0:0:
245,232,42155,5,8,0:0:0:0:
245,232,42264,2,0,L|302:232,2,52.5,2|0|0,0:0|0:0|0:0,0:0:0:0:
109,289,42593,6,0,B|109:220|109:220|136:168|136:168|136:84,1,210,6|0,0:0|0:0,0:0:0:0:
322,95,43250,2,0,P|222:131|134:83,1,210,8|0,0:0|0:0,0:0:0:0:
109,289,43907,2,0,B|168:312|212:288|212:288|260:256|328:288,1,210,2|0,0:0|0:0,0:0:0:0:
460,364,44564,2,0,P|412:280|460:180,1,210,8|0,0:0|0:0,0:0:0:0:
311,280,45221,6,0,P|275:288|239:284,2,70,2|4|4,0:0|0:3|0:3,0:0:0:0:
264,140,45659,2,0,P|260:174|268:208,2,70,2|4|4,0:0|0:3|0:3,0:0:0:0:
372,212,46097,6,0,L|152:212,1,210,6|0,0:0|0:0,0:0:0:0:
12,280,46754,2,0,B|96:280|96:280|140:304|140:304|224:304,1,210,8|0,0:0|0:0,0:0:0:0:
216,120,47410,2,0,B|140:120|140:120|96:144|96:144|12:144,1,210,6|0,0:0|0:0,0:0:0:0:
162,212,48067,1,2,0:0:0:0:
256,192,48177,12,0,50038,0:0:0:0:
106,266,50476,5,2,0:0:0:0:
295,266,50695,1,0,0:0:0:0:
274,308,50805,1,0,0:0:0:0:
248,347,50914,2,0,P|193:342|126:349,1,102.374995313645,4|0,0:0|0:0,0:0:0:0:
101,360,51352,5,2,0:0:0:0:
153,184,51571,1,2,0:1:0:0:
295,266,51790,1,10,0:0:0:0:
200,102,52009,1,2,0:1:0:0:
106,266,52228,2,0,B|212:268|212:268|180:240,1,125.999996154785,2|2,0:0|0:1,0:0:0:0:
200,180,52556,1,0,0:0:0:0:
153,184,52666,1,10,0:0:0:0:
295,102,52885,1,2,0:1:0:0:
392,267,53104,6,0,B|404:206|388:164|388:164|381:183,1,125.999996154785,2|2,0:0|0:1,0:0:0:0:
429,102,53432,1,0,0:0:0:0:
456,144,53542,1,10,0:0:0:0:
382,20,53761,1,2,0:1:0:0:
288,184,53980,1,2,0:0:0:0:
429,102,54199,1,2,0:1:0:0:
288,20,54418,1,10,0:0:0:0:
476,184,54637,1,2,0:1:0:0:
241,102,54856,6,0,B|189:102|189:102|160:116|160:116|104:116,1,125.999996154785,2|2,0:0|0:1,0:0:0:0:
382,20,55294,1,10,0:0:0:0:
256,180,55513,2,0,B|204:180|204:180|175:194|175:194|119:194,1,125.999996154785,2|2,0:1|0:0,0:0:0:0:
429,102,55951,1,2,0:1:0:0:
271,258,56170,2,0,B|219:258|219:258|190:272|190:272|134:272,1,125.999996154785,10|2,0:0|0:1,0:0:0:0:
476,184,56608,1,2,0:0:0:0:
286,336,56827,2,0,B|234:336|234:336|205:350|205:350|149:350,1,125.999996154785,2|10,0:1|0:0,0:0:0:0:
36,184,57264,1,2,0:1:0:0:
271,258,57483,6,0,P|336:264|404:252,1,125.999996154785,2|2,0:0|0:1,0:0:0:0:
396,176,57812,1,0,0:0:0:0:
396,176,57921,2,0,P|333:166|271:172,1,125.999996154785,10|2,0:0|0:1,0:0:0:0:
32,264,58359,5,2,0:0:0:0:
84,84,58578,1,2,0:1:0:0:
113,372,58797,1,10,0:0:0:0:
166,193,59016,1,2,0:1:0:0:
352,264,59235,2,0,B|288:276|288:276|228:260,1,125.999996154785,2|2,0:0|0:1,0:0:0:0:
166,193,59564,1,0,0:0:0:0:
152,244,59673,1,10,0:0:0:0:
84,84,59892,1,2,0:1:0:0:
32,264,60111,5,2,0:0:0:0:
164,108,60330,1,2,0:1:0:0:
229,260,60549,2,0,B|288:276|288:276|352:264,1,125.999996154785,10|2,0:0|0:1,0:0:0:0:
296,68,60987,2,0,P|272:128|296:188,1,125.999996154785,2|2,0:0|0:1,0:0:0:0:
492,128,61425,2,0,L|364:128,1,125.999996154785,10|2,0:0|0:1,0:0:0:0:
144,155,61863,5,2,0:0:0:0:
296,68,62082,1,2,0:1:0:0:
296,243,62301,1,10,0:0:0:0:
195,67,62520,1,2,0:1:0:0:
346,155,62739,1,2,0:0:0:0:
196,246,62958,1,2,0:1:0:0:
244,4,63177,5,10,0:0:0:0:
346,155,63396,1,2,0:1:0:0:
144,155,63615,1,2,0:0:0:0:
296,68,63834,1,2,0:1:0:0:
108,76,64053,1,10,0:0:0:0:
346,155,64272,1,2,0:1:0:0:
144,155,64491,1,2,0:0:0:0:
296,68,64710,1,2,0:1:0:0:
312,292,64929,2,0,P|248:312|192:292,1,125.999996154785,10|2,0:0|0:1,0:0:0:0:
64,152,65367,6,0,L|60:296,1,125.999996154785,6|2,0:0|0:1,0:0:0:0:
132,87,65805,1,10,0:0:0:0:
262,225,66024,1,2,0:1:0:0:
262,87,66243,1,2,0:0:0:0:
132,225,66462,1,2,0:1:0:0:
327,156,66681,2,0,B|388:156|464:160,1,125.999996154785,10|2,0:0|0:1,0:0:0:0:
262,87,67118,5,2,0:0:0:0:
392,87,67337,1,2,0:1:0:0:
262,225,67556,1,10,0:0:0:0:
392,225,67775,1,2,0:1:0:0:
222,307,67994,2,0,P|160:320|92:296,1,125.999996154785,2|2,0:0|0:1,0:0:0:0:
327,156,68432,2,0,P|389:143|457:167,1,125.999996154785,10|2,0:0|0:1,0:0:0:0:
384,356,68870,6,0,P|376:292|384:224,1,125.999996154785,2|2,0:0|0:1,0:0:0:0:
388,88,69308,1,10,0:0:0:0:
266,224,69527,2,0,P|200:232|140:224,1,125.999996154785,2|2,0:1|0:0,0:0:0:0:
12,168,69965,1,2,0:1:0:0:
140,28,70184,2,0,P|202:20|264:28,1,125.999996154785,10|2,0:0|0:1,0:0:0:0:
419,154,70622,5,2,0:0:0:0:
349,78,70841,1,2,0:1:0:0:
368,246,71060,1,10,0:0:0:0:
254,120,71279,1,2,0:1:0:0:
419,154,71498,1,2,0:0:0:0:
266,224,71717,1,2,0:1:0:0:
440,64,71936,1,10,0:0:0:0:
368,246,72155,1,2,0:1:0:0:
264,28,72374,6,0,B|228:16|184:28|184:28|152:40|104:24|104:24|120:68|172:76,1,251.999992309571,6|0,0:0|0:0,0:0:0:0:
336,164,73031,2,0,P|240:132|140:240,1,251.999992309571,8|0,0:0|0:0,0:0:0:0:
272,336,73688,6,0,L|271:369,8,31.4999990386963,6|0|0|0|0|0|0|0|0,0:0|2:0|2:0|2:0|2:0|2:0|2:0|2:0|2:0,2:0:0:0:
324,184,74345,1,2,0:0:0:0:
348,276,74564,1,0,0:0:0:0:
256,248,74783,1,2,0:0:0:0:
372,368,75002,1,8,0:0:0:0:
248,168,75221,1,2,0:0:0:0:
432,300,75440,1,2,0:0:0:0:
256,248,75659,1,0,0:0:0:0:
416,212,75878,6,0,L|449:213,8,31.4999990386963,6|0|0|0|0|0|0|0|0,0:0|0:0|0:0|0:0|0:0|0:0|0:0|0:0|0:0,0:0:0:0:
312,80,76535,1,8,0:0:0:0:
256,248,76754,6,0,L|257:281,6,31.4999990386963,2|0|0|0|0|0|0,0:0|0:0|0:0|0:0|0:0|0:0|0:0,0:0:0:0:
196,176,77191,1,6,0:0:0:0:
196,176,77848,1,2,0:0:0:0:
4,176,78067,1,0,0:0:0:0:
80,72,78286,1,2,0:0:0:0:
80,264,78505,1,8,0:0:0:0:
0,92,78724,1,0,0:0:0:0:
196,176,78943,6,0,L|252:176,1,52.5,2|0,0:0|0:0,0:0:0:0:
404,240,79381,5,2,0:0:0:0:
329,215,79600,1,2,0:0:0:0:
329,136,79819,1,2,0:0:0:0:
404,112,80038,1,2,0:0:0:0:
450,176,80257,1,2,0:0:0:0:
450,176,80695,5,2,0:0:0:0:
404,112,80914,1,2,0:0:0:0:
329,136,81133,1,2,0:0:0:0:
329,215,81352,1,2,0:0:0:0:
404,240,81571,1,2,0:0:0:0:
404,112,81790,6,0,L|404:60,2,52.5,2|2|2,0:0|0:0|0:0,0:0:0:0:
254,111,82228,1,2,0:0:0:0:
329,136,82447,1,2,0:0:0:0:
255,32,82666,1,2,0:0:0:0:
232,193,82885,5,2,0:0:0:0:
147,195,83104,1,2,0:0:0:0:
119,116,83323,1,2,0:0:0:0:
185,64,83542,1,2,0:0:0:0:
254,111,83761,1,2,0:0:0:0:
254,111,84199,5,2,0:0:0:0:
185,64,84418,1,2,0:0:0:0:
119,116,84637,1,2,0:0:0:0:
147,195,84856,1,2,0:0:0:0:
232,193,85075,1,2,0:0:0:0:
480,308,85841,6,0,L|517:337,2,26.25,2|2|2,0:0|0:0|0:0,0:0:0:0:
217,117,86389,5,2,0:0:0:0:
294,117,86608,1,2,0:0:0:0:
332,183,86827,1,2,0:0:0:0:
294,249,87045,1,2,0:0:0:0:
217,249,87264,1,2,0:0:0:0:
217,249,87702,5,2,0:0:0:0:
179,183,87921,1,2,0:0:0:0:
217,117,88140,1,2,0:0:0:0:
294,117,88359,1,2,0:0:0:0:
256,183,88578,5,2,0:0:0:0:
