osu file format v14

[General]
AudioFilename: audio.mp3
AudioLeadIn: 0
PreviewTime: 185199
Countdown: 0
SampleSet: Normal
StackLeniency: 0.7
Mode: 1
LetterboxInBreaks: 0
WidescreenStoryboard: 1

[Editor]
DistanceSpacing: 0.6
BeatDivisor: 4
GridSize: 32
TimelineZoom: 1.4

[Metadata]
Title:To see the future
TitleUnicode:To see the future
Artist:LLENN (CV: Kusunoki Tomori)
ArtistUnicode:レン(CV: 楠木ともり)
Creator:KeyWee
Version:MTNT's Muzukashii
Source:ソードアート・オンライン オルタナティブ ガンゲイル・オンライン
Tags:sword art online alternative gun gale sao ggo ending ren len anime japanese jpop pop TaikOseania MTNTWarz
BeatmapID:3229040
BeatmapSetID:1578717

[Difficulty]
HPDrainRate:6
CircleSize:5
OverallDifficulty:4.5
ApproachRate:5
SliderMultiplier:1.4
SliderTickRate:1

[Events]
//Background and Video events
0,0,"Pp.jpg",0,20
//Break Periods
//Storyboard Layer 0 (Background)
//Storyboard Layer 1 (Fail)
//Storyboard Layer 2 (Pass)
//Storyboard Layer 3 (Foreground)
//Storyboard Layer 4 (Overlay)
//Storyboard Sound Samples

[TimingPoints]
-1314,437.956204379562,4,1,0,60,1,0
218,-111.111111111111,4,1,0,60,0,0
3941,-111.111111111111,4,1,0,55,0,0
10948,-111.111111111111,4,1,0,65,0,0
17956,-111.111111111111,4,1,0,70,0,0
31970,-125,4,1,0,60,0,0
38977,-111.111111111111,4,1,0,65,0,0
42481,-111.111111111111,4,1,0,80,0,0
51235,437.956204379562,4,1,0,100,1,0
51235,-99.9999999999999,4,1,0,85,0,1
79264,-125,4,1,0,55,0,0
79269,437.956204379562,4,1,0,55,1,8
79269,-125,4,1,0,55,0,0
89779,-111.111111111111,4,1,0,60,0,0
103794,-111.111111111111,4,1,0,70,0,0
117809,-125,4,1,0,60,0,0
124816,-111.111111111111,4,1,0,65,0,0
128320,-111.111111111111,4,1,0,80,0,0
137074,437.956204379562,4,1,0,100,1,0
137074,-99.9999999999999,4,1,0,85,0,1
165108,437.956204379562,4,1,0,55,1,8
165217,-125,4,1,0,55,0,0
166859,-125,4,1,0,70,0,0
180874,-125,4,1,0,75,0,0
186129,-111.111111111111,4,1,0,60,0,0
193137,-111.111111111111,4,1,0,65,0,0
194889,-111.111111111111,4,1,0,70,0,0
196640,-111.111111111111,4,1,0,80,0,0
200144,-99.9999999999999,4,1,0,85,0,1
210655,-99.9999999999999,4,1,0,85,0,0
214159,-99.9999999999999,4,1,0,85,0,1
242188,-125,4,1,0,55,0,0

[HitObjects]
256,192,437,5,8,0:0:0:0:
256,192,875,1,0,0:0:0:0:
256,192,1094,1,8,0:0:0:0:
256,192,1313,1,0,0:0:0:0:
256,192,1532,1,0,0:0:0:0:
256,192,1751,1,8,0:0:0:0:
256,192,1970,1,0,0:0:0:0:
256,192,2189,1,8,0:0:0:0:
256,192,3941,5,8,0:0:0:0:
256,192,5255,1,0,0:0:0:0:
256,192,6350,1,8,0:0:0:0:
256,192,6569,1,8,0:0:0:0:
256,192,7445,1,0,0:0:0:0:
256,192,8758,1,8,0:0:0:0:
256,192,9853,1,0,0:0:0:0:
256,192,10072,1,8,0:0:0:0:
256,192,10182,1,8,0:0:0:0:
256,192,10291,1,8,0:0:0:0:
256,192,10510,1,0,0:0:0:0:
256,192,10948,1,0,0:0:0:0:
256,192,11386,1,0,0:0:0:0:
256,192,11605,1,8,0:0:0:0:
256,192,12262,1,8,0:0:0:0:
256,192,12700,1,8,0:0:0:0:
256,192,12919,1,0,0:0:0:0:
256,192,13576,1,0,0:0:0:0:
256,192,14014,1,8,0:0:0:0:
256,192,14452,1,0,0:0:0:0:
256,192,15109,1,8,0:0:0:0:
256,192,15766,1,0,0:0:0:0:
256,192,16423,1,8,0:0:0:0:
256,192,17080,1,0,0:0:0:0:
256,192,17956,1,0,0:0:0:0:
256,192,18175,1,8,0:0:0:0:
256,192,18394,1,0,0:0:0:0:
256,192,18613,1,8,0:0:0:0:
256,192,18831,1,8,0:0:0:0:
256,192,19488,1,8,0:0:0:0:
256,192,19707,1,0,0:0:0:0:
256,192,19926,1,8,0:0:0:0:
256,192,20145,1,0,0:0:0:0:
256,192,20583,1,0,0:0:0:0:
256,192,20802,1,0,0:0:0:0:
256,192,21021,1,8,0:0:0:0:
256,192,21459,1,0,0:0:0:0:
256,192,21678,1,0,0:0:0:0:
256,192,21897,1,8,0:0:0:0:
256,192,22116,1,8,0:0:0:0:
256,192,22335,1,0,0:0:0:0:
256,192,22992,1,0,0:0:0:0:
256,192,23211,1,0,0:0:0:0:
256,192,23430,1,8,0:0:0:0:
256,192,23649,1,0,0:0:0:0:
256,192,24087,1,8,0:0:0:0:
256,192,24525,1,0,0:0:0:0:
256,192,24744,1,0,0:0:0:0:
256,192,24963,1,8,0:0:0:0:
256,192,25620,1,0,0:0:0:0:
256,192,26058,1,0,0:0:0:0:
256,192,26277,1,8,0:0:0:0:
256,192,26715,1,8,0:0:0:0:
256,192,26934,1,0,0:0:0:0:
256,192,27372,1,8,0:0:0:0:
256,192,27591,1,8,0:0:0:0:
256,192,28029,1,0,0:0:0:0:
256,192,28248,1,0,0:0:0:0:
256,192,28467,1,8,0:0:0:0:
256,192,28904,1,0,0:0:0:0:
256,192,29123,1,8,0:0:0:0:
256,192,29342,1,0,0:0:0:0:
256,192,29561,1,0,0:0:0:0:
256,192,29780,1,8,0:0:0:0:
256,192,30218,1,0,0:0:0:0:
256,192,30656,1,8,0:0:0:0:
256,192,31094,1,0,0:0:0:0:
256,192,31313,1,0,0:0:0:0:
256,192,31532,1,8,0:0:0:0:
256,192,31970,1,0,0:0:0:0:
256,192,32627,1,8,0:0:0:0:
256,192,33722,1,0,0:0:0:0:
256,192,34598,1,8,0:0:0:0:
256,192,35474,1,8,0:0:0:0:
256,192,36131,1,0,0:0:0:0:
256,192,37226,1,8,0:0:0:0:
256,192,37445,1,0,0:0:0:0:
256,192,37883,1,0,0:0:0:0:
256,192,38321,1,8,0:0:0:0:
256,192,38977,1,0,0:0:0:0:
256,192,39196,1,8,0:0:0:0:
256,192,39415,1,0,0:0:0:0:
256,192,39634,1,0,0:0:0:0:
256,192,40072,1,8,0:0:0:0:
256,192,40510,1,8,0:0:0:0:
256,192,40729,1,0,0:0:0:0:
256,192,40948,1,0,0:0:0:0:
256,192,41167,1,8,0:0:0:0:
256,192,41386,1,0,0:0:0:0:
256,192,41605,1,8,0:0:0:0:
256,192,42481,1,12,0:0:0:0:
256,192,43138,1,4,0:0:0:0:
256,192,43795,1,4,0:0:0:0:
256,192,44452,1,12,0:0:0:0:
256,192,45985,1,4,0:0:0:0:
256,192,46642,1,12,0:0:0:0:
256,192,47299,1,12,0:0:0:0:
256,192,47956,1,4,0:0:0:0:
256,192,48175,12,0,49488,0:0:0:0:
256,192,50802,5,0,0:0:0:0:
256,192,51235,1,12,0:0:0:0:
256,192,51672,1,8,0:0:0:0:
256,192,51891,1,0,0:0:0:0:
256,192,52110,1,8,0:0:0:0:
256,192,52548,1,8,0:0:0:0:
256,192,52767,1,0,0:0:0:0:
256,192,52986,1,8,0:0:0:0:
256,192,53424,1,8,0:0:0:0:
256,192,53643,1,0,0:0:0:0:
256,192,53862,1,8,0:0:0:0:
256,192,54081,1,0,0:0:0:0:
256,192,54300,1,8,0:0:0:0:
256,192,54410,1,8,0:0:0:0:
256,192,54519,1,8,0:0:0:0:
256,192,54738,1,0,0:0:0:0:
256,192,55176,1,0,0:0:0:0:
256,192,55395,1,8,0:0:0:0:
256,192,55833,1,8,0:0:0:0:
256,192,56052,1,0,0:0:0:0:
256,192,56490,1,0,0:0:0:0:
256,192,56709,1,8,0:0:0:0:
256,192,57366,1,0,0:0:0:0:
256,192,57804,1,8,0:0:0:0:
256,192,58242,1,0,0:0:0:0:
256,192,58461,1,8,0:0:0:0:
256,192,58570,1,8,0:0:0:0:
256,192,58680,1,8,0:0:0:0:
256,192,58899,1,0,0:0:0:0:
256,192,59118,1,8,0:0:0:0:
256,192,59446,1,8,0:0:0:0:
256,192,59556,1,8,0:0:0:0:
256,192,59775,1,0,0:0:0:0:
256,192,59994,1,8,0:0:0:0:
256,192,60432,1,0,0:0:0:0:
256,192,60651,1,0,0:0:0:0:
256,192,60870,1,8,0:0:0:0:
256,192,61089,1,8,0:0:0:0:
256,192,61307,1,0,0:0:0:0:
256,192,61745,1,0,0:0:0:0:
256,192,62183,1,8,0:0:0:0:
256,192,62402,1,0,0:0:0:0:
256,192,62840,1,0,0:0:0:0:
256,192,63059,1,8,0:0:0:0:
256,192,63497,1,8,0:0:0:0:
256,192,63716,1,0,0:0:0:0:
256,192,64154,1,0,0:0:0:0:
256,192,64373,1,8,0:0:0:0:
256,192,64811,1,0,0:0:0:0:
256,192,65249,1,12,0:0:0:0:
256,192,65906,1,0,0:0:0:0:
256,192,66344,1,0,0:0:0:0:
256,192,66563,1,8,0:0:0:0:
256,192,67001,1,8,0:0:0:0:
256,192,67220,1,0,0:0:0:0:
256,192,67658,1,0,0:0:0:0:
256,192,67877,1,8,0:0:0:0:
256,192,68096,1,0,0:0:0:0:
256,192,68315,1,8,0:0:0:0:
256,192,68424,1,8,0:0:0:0:
256,192,68534,1,8,0:0:0:0:
256,192,68753,1,0,0:0:0:0:
256,192,69410,1,8,0:0:0:0:
256,192,69848,1,8,0:0:0:0:
256,192,70067,1,0,0:0:0:0:
256,192,70505,1,0,0:0:0:0:
256,192,70724,1,8,0:0:0:0:
256,192,71162,1,0,0:0:0:0:
256,192,71380,1,8,0:0:0:0:
256,192,71490,1,8,0:0:0:0:
256,192,71599,1,8,0:0:0:0:
256,192,71818,1,0,0:0:0:0:
256,192,72037,1,0,0:0:0:0:
256,192,72256,1,12,0:0:0:0:
256,192,72913,1,4,0:0:0:0:
256,192,73570,1,4,0:0:0:0:
256,192,73789,1,8,0:0:0:0:
256,192,73899,1,8,0:0:0:0:
256,192,74008,1,8,0:0:0:0:
256,192,74227,1,8,0:0:0:0:
256,192,74446,1,0,0:0:0:0:
256,192,74884,1,8,0:0:0:0:
256,192,75103,1,0,0:0:0:0:
256,192,75322,1,8,0:0:0:0:
256,192,75432,1,8,0:0:0:0:
256,192,75541,1,8,0:0:0:0:
256,192,75760,1,4,0:0:0:0:
256,192,76417,1,12,0:0:0:0:
256,192,77074,1,4,0:0:0:0:
256,192,77731,1,0,0:0:0:0:
256,192,77950,1,8,0:0:0:0:
256,192,78169,1,0,0:0:0:0:
256,192,78388,1,8,0:0:0:0:
256,192,78826,1,8,0:0:0:0:
256,192,79269,1,0,0:0:0:0:
256,192,79925,1,0,0:0:0:0:
256,192,80582,1,0,0:0:0:0:
256,192,81239,1,0,0:0:0:0:
256,192,81677,1,8,0:0:0:0:
256,192,81787,1,8,0:0:0:0:
256,192,81896,1,8,0:0:0:0:
256,192,82115,1,8,0:0:0:0:
256,192,82334,1,8,0:0:0:0:
256,192,82553,1,8,0:0:0:0:
256,192,82772,1,0,0:0:0:0:
256,192,83429,1,0,0:0:0:0:
256,192,84086,1,0,0:0:0:0:
256,192,84743,1,0,0:0:0:0:
256,192,85728,1,8,0:0:0:0:
256,192,85838,1,8,0:0:0:0:
256,192,86276,1,0,0:0:0:0:
256,192,86933,1,0,0:0:0:0:
256,192,87590,1,0,0:0:0:0:
256,192,88247,1,0,0:0:0:0:
256,192,89779,5,8,0:0:0:0:
256,192,90217,1,8,0:0:0:0:
256,192,90436,1,0,0:0:0:0:
256,192,90655,1,8,0:0:0:0:
256,192,91093,1,0,0:0:0:0:
256,192,91531,1,8,0:0:0:0:
256,192,91750,1,0,0:0:0:0:
256,192,92188,1,8,0:0:0:0:
256,192,92407,1,8,0:0:0:0:
256,192,93283,1,0,0:0:0:0:
256,192,93721,1,8,0:0:0:0:
256,192,93940,1,0,0:0:0:0:
256,192,94159,1,8,0:0:0:0:
256,192,94597,1,8,0:0:0:0:
256,192,95035,1,8,0:0:0:0:
256,192,95254,1,0,0:0:0:0:
256,192,95692,1,0,0:0:0:0:
256,192,95911,1,8,0:0:0:0:
256,192,96020,1,8,0:0:0:0:
256,192,96130,1,8,0:0:0:0:
256,192,96349,1,0,0:0:0:0:
256,192,96787,1,0,0:0:0:0:
256,192,97225,1,0,0:0:0:0:
256,192,97444,1,8,0:0:0:0:
256,192,97663,1,8,0:0:0:0:
256,192,98101,1,8,0:0:0:0:
256,192,98539,1,8,0:0:0:0:
256,192,98758,1,0,0:0:0:0:
256,192,98977,1,8,0:0:0:0:
256,192,99196,1,8,0:0:0:0:
256,192,99414,1,0,0:0:0:0:
256,192,99852,1,8,0:0:0:0:
256,192,99962,1,8,0:0:0:0:
256,192,100071,1,8,0:0:0:0:
256,192,100290,1,0,0:0:0:0:
256,192,100947,1,0,0:0:0:0:
256,192,101166,1,8,0:0:0:0:
256,192,101604,1,8,0:0:0:0:
256,192,101823,1,0,0:0:0:0:
256,192,102261,1,0,0:0:0:0:
256,192,102480,1,8,0:0:0:0:
256,192,102590,1,8,0:0:0:0:
256,192,102699,1,8,0:0:0:0:
256,192,102918,1,0,0:0:0:0:
256,192,103794,1,0,0:0:0:0:
256,192,104013,1,8,0:0:0:0:
256,192,104232,1,0,0:0:0:0:
256,192,104451,1,8,0:0:0:0:
256,192,104670,1,8,0:0:0:0:
256,192,105327,1,8,0:0:0:0:
256,192,105546,1,0,0:0:0:0:
256,192,105765,1,8,0:0:0:0:
256,192,105984,1,0,0:0:0:0:
256,192,106422,1,0,0:0:0:0:
256,192,106641,1,0,0:0:0:0:
256,192,106860,1,8,0:0:0:0:
256,192,107298,1,0,0:0:0:0:
256,192,107517,1,0,0:0:0:0:
256,192,107736,1,8,0:0:0:0:
256,192,107955,1,8,0:0:0:0:
256,192,108174,1,0,0:0:0:0:
256,192,108831,1,0,0:0:0:0:
256,192,109050,1,0,0:0:0:0:
256,192,109269,1,8,0:0:0:0:
256,192,109487,1,0,0:0:0:0:
256,192,109925,1,8,0:0:0:0:
256,192,110363,1,0,0:0:0:0:
256,192,110582,1,0,0:0:0:0:
256,192,110801,1,8,0:0:0:0:
256,192,111458,1,0,0:0:0:0:
256,192,111896,1,0,0:0:0:0:
256,192,112115,1,8,0:0:0:0:
256,192,112553,1,8,0:0:0:0:
256,192,112772,1,0,0:0:0:0:
256,192,113210,1,8,0:0:0:0:
256,192,113429,1,8,0:0:0:0:
256,192,113867,1,0,0:0:0:0:
256,192,114086,1,0,0:0:0:0:
256,192,114305,1,8,0:0:0:0:
256,192,114743,1,0,0:0:0:0:
256,192,114962,1,8,0:0:0:0:
256,192,115181,1,0,0:0:0:0:
256,192,115400,1,0,0:0:0:0:
256,192,115619,1,8,0:0:0:0:
256,192,116057,1,0,0:0:0:0:
256,192,116495,1,8,0:0:0:0:
256,192,116933,1,0,0:0:0:0:
256,192,117152,1,0,0:0:0:0:
256,192,117371,1,8,0:0:0:0:
256,192,117809,1,0,0:0:0:0:
256,192,118466,1,8,0:0:0:0:
256,192,119560,1,0,0:0:0:0:
256,192,120436,1,8,0:0:0:0:
256,192,121312,1,8,0:0:0:0:
256,192,121969,1,0,0:0:0:0:
256,192,123064,1,8,0:0:0:0:
256,192,123283,1,0,0:0:0:0:
256,192,123721,1,0,0:0:0:0:
256,192,124159,1,8,0:0:0:0:
256,192,124816,1,0,0:0:0:0:
256,192,125035,1,8,0:0:0:0:
256,192,125254,1,8,0:0:0:0:
256,192,125473,1,0,0:0:0:0:
256,192,125692,1,8,0:0:0:0:
256,192,126349,1,8,0:0:0:0:
256,192,126568,1,0,0:0:0:0:
256,192,126787,1,0,0:0:0:0:
256,192,127006,1,8,0:0:0:0:
256,192,127225,1,0,0:0:0:0:
256,192,127444,1,8,0:0:0:0:
256,192,128320,1,12,0:0:0:0:
256,192,128977,1,4,0:0:0:0:
256,192,129633,1,4,0:0:0:0:
256,192,130290,1,12,0:0:0:0:
256,192,131823,1,4,0:0:0:0:
256,192,132480,1,12,0:0:0:0:
256,192,133137,1,12,0:0:0:0:
256,192,133794,1,4,0:0:0:0:
256,192,134013,12,0,135327,0:0:0:0:
256,192,136641,5,0,0:0:0:0:
256,192,137074,1,12,0:0:0:0:
256,192,137511,1,8,0:0:0:0:
256,192,137730,1,0,0:0:0:0:
256,192,137949,1,8,0:0:0:0:
256,192,138387,1,8,0:0:0:0:
256,192,138606,1,0,0:0:0:0:
256,192,138825,1,8,0:0:0:0:
256,192,139263,1,8,0:0:0:0:
256,192,139482,1,0,0:0:0:0:
256,192,139701,1,8,0:0:0:0:
256,192,139920,1,0,0:0:0:0:
256,192,140139,1,8,0:0:0:0:
256,192,140249,1,8,0:0:0:0:
256,192,140358,1,8,0:0:0:0:
256,192,140577,1,0,0:0:0:0:
256,192,141015,1,0,0:0:0:0:
256,192,141234,1,8,0:0:0:0:
256,192,141672,1,8,0:0:0:0:
256,192,141891,1,0,0:0:0:0:
256,192,142329,1,0,0:0:0:0:
256,192,142548,1,8,0:0:0:0:
256,192,143205,1,0,0:0:0:0:
256,192,143643,1,8,0:0:0:0:
256,192,144081,1,0,0:0:0:0:
256,192,144300,1,8,0:0:0:0:
256,192,144409,1,8,0:0:0:0:
256,192,144519,1,8,0:0:0:0:
256,192,144738,1,0,0:0:0:0:
256,192,144957,1,8,0:0:0:0:
256,192,145285,1,8,0:0:0:0:
256,192,145395,1,8,0:0:0:0:
256,192,145614,1,0,0:0:0:0:
256,192,145833,1,8,0:0:0:0:
256,192,146271,1,0,0:0:0:0:
256,192,146490,1,0,0:0:0:0:
256,192,146709,1,8,0:0:0:0:
256,192,146928,1,8,0:0:0:0:
256,192,147146,1,0,0:0:0:0:
256,192,147584,1,0,0:0:0:0:
256,192,148022,1,8,0:0:0:0:
256,192,148241,1,0,0:0:0:0:
256,192,148679,1,0,0:0:0:0:
256,192,148898,1,8,0:0:0:0:
256,192,149336,1,8,0:0:0:0:
256,192,149555,1,0,0:0:0:0:
256,192,149993,1,0,0:0:0:0:
256,192,150212,1,8,0:0:0:0:
256,192,150650,1,0,0:0:0:0:
256,192,151088,1,12,0:0:0:0:
256,192,151745,1,0,0:0:0:0:
256,192,152183,1,0,0:0:0:0:
256,192,152402,1,8,0:0:0:0:
256,192,152840,1,8,0:0:0:0:
256,192,153059,1,0,0:0:0:0:
256,192,153497,1,0,0:0:0:0:
256,192,153716,1,8,0:0:0:0:
256,192,153935,1,0,0:0:0:0:
256,192,154154,1,8,0:0:0:0:
256,192,154263,1,8,0:0:0:0:
256,192,154373,1,8,0:0:0:0:
256,192,154592,1,0,0:0:0:0:
256,192,155249,1,8,0:0:0:0:
256,192,155687,1,8,0:0:0:0:
256,192,155906,1,0,0:0:0:0:
256,192,156344,1,0,0:0:0:0:
256,192,156563,1,8,0:0:0:0:
256,192,157001,1,0,0:0:0:0:
256,192,157219,1,8,0:0:0:0:
256,192,157329,1,8,0:0:0:0:
256,192,157438,1,8,0:0:0:0:
256,192,157657,1,0,0:0:0:0:
256,192,157876,1,0,0:0:0:0:
256,192,158095,1,12,0:0:0:0:
256,192,158752,1,4,0:0:0:0:
256,192,159409,1,4,0:0:0:0:
256,192,159628,1,8,0:0:0:0:
256,192,159738,1,8,0:0:0:0:
256,192,159847,1,8,0:0:0:0:
256,192,160066,1,8,0:0:0:0:
256,192,160285,1,0,0:0:0:0:
256,192,160723,1,8,0:0:0:0:
256,192,160942,1,0,0:0:0:0:
256,192,161161,1,8,0:0:0:0:
256,192,161271,1,8,0:0:0:0:
256,192,161380,1,8,0:0:0:0:
256,192,161599,1,4,0:0:0:0:
256,192,162256,1,12,0:0:0:0:
256,192,162913,1,4,0:0:0:0:
256,192,163570,1,0,0:0:0:0:
256,192,163789,1,8,0:0:0:0:
256,192,164008,1,0,0:0:0:0:
256,192,164227,1,8,0:0:0:0:
256,192,164665,1,8,0:0:0:0:
256,192,165103,1,0,0:0:0:0:
256,192,166859,1,0,0:0:0:0:
256,192,167735,1,8,0:0:0:0:
256,192,168173,1,0,0:0:0:0:
256,192,168392,1,8,0:0:0:0:
256,192,168611,1,0,0:0:0:0:
256,192,169049,1,0,0:0:0:0:
256,192,169268,1,0,0:0:0:0:
256,192,169487,1,8,0:0:0:0:
256,192,170363,1,0,0:0:0:0:
256,192,171239,1,8,0:0:0:0:
256,192,171677,1,0,0:0:0:0:
256,192,171896,1,0,0:0:0:0:
256,192,172334,1,8,0:0:0:0:
256,192,172553,1,8,0:0:0:0:
256,192,172772,1,0,0:0:0:0:
256,192,172991,1,8,0:0:0:0:
256,192,173100,1,8,0:0:0:0:
256,192,173210,1,8,0:0:0:0:
256,192,173429,1,0,0:0:0:0:
256,192,173867,1,0,0:0:0:0:
256,192,174743,1,8,0:0:0:0:
256,192,175180,1,0,0:0:0:0:
256,192,175399,1,8,0:0:0:0:
256,192,175618,1,0,0:0:0:0:
256,192,176056,1,0,0:0:0:0:
256,192,176275,1,0,0:0:0:0:
256,192,176494,1,8,0:0:0:0:
256,192,177370,1,0,0:0:0:0:
256,192,177808,1,0,0:0:0:0:
256,192,178246,1,8,0:0:0:0:
256,192,178684,1,8,0:0:0:0:
256,192,179122,1,0,0:0:0:0:
256,192,179560,1,8,0:0:0:0:
256,192,179998,1,8,0:0:0:0:
256,192,180217,1,0,0:0:0:0:
256,192,180436,1,8,0:0:0:0:
256,192,180545,1,8,0:0:0:0:
256,192,180655,1,8,0:0:0:0:
256,192,180874,1,0,0:0:0:0:
256,192,181531,1,0,0:0:0:0:
256,192,181750,1,8,0:0:0:0:
256,192,182188,1,0,0:0:0:0:
256,192,182407,1,8,0:0:0:0:
256,192,182516,1,8,0:0:0:0:
256,192,182626,1,8,0:0:0:0:
256,192,182845,1,8,0:0:0:0:
256,192,183064,1,0,0:0:0:0:
256,192,183502,1,8,0:0:0:0:
256,192,183721,1,0,0:0:0:0:
256,192,183940,1,8,0:0:0:0:
256,192,184049,1,8,0:0:0:0:
256,192,184159,1,8,0:0:0:0:
256,192,184378,1,0,0:0:0:0:
256,192,186129,1,4,0:0:0:0:
256,192,187005,1,8,0:0:0:0:
256,192,187881,1,8,0:0:0:0:
256,192,188319,1,8,0:0:0:0:
256,192,188538,1,0,0:0:0:0:
256,192,188757,1,8,0:0:0:0:
256,192,189195,1,8,0:0:0:0:
256,192,189633,1,0,0:0:0:0:
256,192,190290,1,8,0:0:0:0:
256,192,190947,1,0,0:0:0:0:
256,192,191604,1,8,0:0:0:0:
256,192,192261,1,0,0:0:0:0:
256,192,192699,1,8,0:0:0:0:
256,192,193137,1,0,0:0:0:0:
256,192,194013,1,8,0:0:0:0:
256,192,194341,1,8,0:0:0:0:
256,192,194451,1,8,0:0:0:0:
256,192,194670,1,0,0:0:0:0:
256,192,194889,1,0,0:0:0:0:
256,192,194998,1,0,0:0:0:0:
256,192,195108,1,0,0:0:0:0:
256,192,195326,1,8,0:0:0:0:
256,192,195764,1,0,0:0:0:0:
256,192,196202,1,8,0:0:0:0:
256,192,196640,1,12,0:0:0:0:
256,192,197297,1,4,0:0:0:0:
256,192,197954,1,12,0:0:0:0:
256,192,198611,1,4,0:0:0:0:
256,192,199268,1,8,0:0:0:0:
256,192,199706,1,0,0:0:0:0:
256,192,200144,1,12,0:0:0:0:
256,192,200801,1,0,0:0:0:0:
256,192,201239,1,0,0:0:0:0:
256,192,201458,1,8,0:0:0:0:
256,192,201896,1,8,0:0:0:0:
256,192,202115,1,0,0:0:0:0:
256,192,202553,1,0,0:0:0:0:
256,192,202772,1,8,0:0:0:0:
256,192,202991,1,0,0:0:0:0:
256,192,203210,1,8,0:0:0:0:
256,192,203319,1,8,0:0:0:0:
256,192,203429,1,8,0:0:0:0:
256,192,203648,1,0,0:0:0:0:
256,192,204305,1,8,0:0:0:0:
256,192,204743,1,8,0:0:0:0:
256,192,204962,1,0,0:0:0:0:
256,192,205399,1,0,0:0:0:0:
256,192,205618,1,8,0:0:0:0:
256,192,206056,1,0,0:0:0:0:
256,192,206275,1,8,0:0:0:0:
256,192,206385,1,8,0:0:0:0:
256,192,206494,1,8,0:0:0:0:
256,192,206713,1,0,0:0:0:0:
256,192,206932,1,0,0:0:0:0:
256,192,207151,1,12,0:0:0:0:
256,192,207589,1,0,0:0:0:0:
256,192,207808,1,8,0:0:0:0:
256,192,208246,1,8,0:0:0:0:
256,192,208465,1,4,0:0:0:0:
256,192,208684,1,8,0:0:0:0:
256,192,208794,1,8,0:0:0:0:
256,192,208903,1,8,0:0:0:0:
256,192,209122,1,8,0:0:0:0:
256,192,209341,1,0,0:0:0:0:
256,192,209779,1,8,0:0:0:0:
256,192,209998,1,0,0:0:0:0:
256,192,210217,1,8,0:0:0:0:
256,192,210326,1,8,0:0:0:0:
256,192,210436,1,8,0:0:0:0:
256,192,210655,1,4,0:0:0:0:
256,192,211312,1,12,0:0:0:0:
256,192,211969,1,4,0:0:0:0:
256,192,212626,1,0,0:0:0:0:
256,192,212845,1,8,0:0:0:0:
256,192,213064,1,0,0:0:0:0:
256,192,213283,1,8,0:0:0:0:
256,192,213721,1,8,0:0:0:0:
256,192,214159,1,4,0:0:0:0:
256,192,214597,1,0,0:0:0:0:
256,192,214816,1,8,0:0:0:0:
256,192,215253,1,8,0:0:0:0:
256,192,215472,1,0,0:0:0:0:
256,192,215910,1,8,0:0:0:0:
256,192,216129,1,0,0:0:0:0:
256,192,216348,1,8,0:0:0:0:
256,192,216567,1,8,0:0:0:0:
256,192,216786,1,0,0:0:0:0:
256,192,217224,1,8,0:0:0:0:
256,192,217662,1,0,0:0:0:0:
256,192,218100,1,8,0:0:0:0:
256,192,218319,1,0,0:0:0:0:
256,192,218757,1,0,0:0:0:0:
256,192,218976,1,8,0:0:0:0:
256,192,219414,1,0,0:0:0:0:
256,192,219633,1,8,0:0:0:0:
256,192,219852,1,8,0:0:0:0:
256,192,220071,1,0,0:0:0:0:
256,192,220290,1,0,0:0:0:0:
256,192,220728,1,8,0:0:0:0:
256,192,221166,1,0,0:0:0:0:
256,192,221604,1,8,0:0:0:0:
256,192,221823,1,8,0:0:0:0:
256,192,222261,1,0,0:0:0:0:
256,192,222480,1,8,0:0:0:0:
256,192,222918,1,8,0:0:0:0:
256,192,223137,1,0,0:0:0:0:
256,192,223575,1,0,0:0:0:0:
256,192,223794,1,8,0:0:0:0:
256,192,224013,1,8,0:0:0:0:
256,192,224232,1,0,0:0:0:0:
256,192,224670,1,8,0:0:0:0:
256,192,225108,1,8,0:0:0:0:
256,192,225326,1,0,0:0:0:0:
256,192,225764,1,0,0:0:0:0:
256,192,225983,1,8,0:0:0:0:
256,192,226421,1,8,0:0:0:0:
256,192,226640,1,0,0:0:0:0:
256,192,226859,1,8,0:0:0:0:
256,192,227078,1,8,0:0:0:0:
256,192,227297,1,0,0:0:0:0:
256,192,227735,1,8,0:0:0:0:
256,192,228173,1,4,0:0:0:0:
256,192,228611,1,8,0:0:0:0:
256,192,229487,1,8,0:0:0:0:
256,192,229925,1,0,0:0:0:0:
256,192,230144,1,0,0:0:0:0:
256,192,230363,1,8,0:0:0:0:
256,192,230801,1,0,0:0:0:0:
256,192,231239,1,8,0:0:0:0:
256,192,231458,1,0,0:0:0:0:
256,192,231677,1,8,0:0:0:0:
256,192,232115,1,8,0:0:0:0:
256,192,232334,1,0,0:0:0:0:
256,192,232772,1,0,0:0:0:0:
256,192,232991,1,8,0:0:0:0:
256,192,233429,1,8,0:0:0:0:
256,192,233648,1,0,0:0:0:0:
256,192,233867,1,8,0:0:0:0:
256,192,234086,1,0,0:0:0:0:
256,192,234305,1,8,0:0:0:0:
256,192,234414,1,8,0:0:0:0:
256,192,234524,1,8,0:0:0:0:
256,192,234743,1,8,0:0:0:0:
256,192,234962,1,0,0:0:0:0:
256,192,235180,1,12,0:0:0:0:
256,192,235837,1,4,0:0:0:0:
256,192,236494,1,4,0:0:0:0:
256,192,236713,1,8,0:0:0:0:
256,192,236823,1,8,0:0:0:0:
256,192,236932,1,8,0:0:0:0:
256,192,237151,1,8,0:0:0:0:
256,192,237370,1,0,0:0:0:0:
256,192,237808,1,8,0:0:0:0:
256,192,238027,1,0,0:0:0:0:
256,192,238246,1,8,0:0:0:0:
256,192,238356,1,8,0:0:0:0:
256,192,238465,1,8,0:0:0:0:
256,192,238684,1,4,0:0:0:0:
256,192,239341,1,12,0:0:0:0:
256,192,239998,1,4,0:0:0:0:
256,192,242188,1,0,0:0:0:0:
256,192,242845,1,0,0:0:0:0:
256,192,243502,1,0,0:0:0:0:
256,192,244159,1,0,0:0:0:0:
256,192,244597,1,8,0:0:0:0:
256,192,244706,1,8,0:0:0:0:
256,192,244816,1,8,0:0:0:0:
256,192,245035,1,8,0:0:0:0:
256,192,245253,1,8,0:0:0:0:
256,192,245472,1,8,0:0:0:0:
256,192,245691,1,0,0:0:0:0:
256,192,246348,1,0,0:0:0:0:
256,192,247005,1,0,0:0:0:0:
256,192,247662,1,0,0:0:0:0:
256,192,248648,1,8,0:0:0:0:
256,192,248757,1,8,0:0:0:0:
256,192,249195,1,0,0:0:0:0:
256,192,249852,1,0,0:0:0:0:
256,192,250509,1,0,0:0:0:0:
256,192,251166,1,0,0:0:0:0:
256,192,251823,1,0,0:0:0:0:
