osu file format v14

[General]
AudioFilename: audio.mp3
AudioLeadIn: 0
PreviewTime: 33160
Countdown: 0
SampleSet: Soft
StackLeniency: 0.7
Mode: 0
LetterboxInBreaks: 0
WidescreenStoryboard: 0

[Editor]
Bookmarks: 3956,16035
DistanceSpacing: 2.1
BeatDivisor: 4
GridSize: 4
TimelineZoom: 1.1

[Metadata]
Title:LollyBomb
TitleUnicode:LollyBomb
Artist:LITTLE BIG
ArtistUnicode:LITTLE BIG
Creator:Lally
Version:BOOM!
Source:
Tags:single cut russian
BeatmapID:1627350
BeatmapSetID:774257

[Difficulty]
HPDrainRate:8
CircleSize:5
OverallDifficulty:8
ApproachRate:9
SliderMultiplier:2.8
SliderTickRate:1

[Events]
//Background and Video events
0,0,"pop.jpg",0,0
//Break Periods
//Storyboard Layer 0 (Background)
//Storyboard Layer 1 (Fail)
//Storyboard Layer 2 (Pass)
//Storyboard Layer 3 (Foreground)
//Storyboard Sound Samples

[TimingPoints]
1160,500,4,2,1,70,1,0
1160,-133.333333333333,4,2,1,70,0,0
17160,-100,4,2,1,70,0,0
33160,-200,4,2,1,90,0,1
35160,-100,4,2,1,90,0,1
36660,-200,4,2,1,90,0,1
37160,-100,4,2,1,90,0,1
40660,-200,4,2,1,90,0,1
41160,-100,4,2,1,90,0,1
44660,-200,4,2,1,90,0,1
45160,-100,4,2,1,90,0,1
49160,-100,4,2,1,70,0,0

[Colours]
Combo1 : 245,37,224
Combo2 : 83,166,227
Combo3 : 245,248,209
Combo4 : 244,189,224
Combo5 : 207,171,252

[HitObjects]
296,140,1160,6,0,P|328:180|328:244,1,105.000004005432,2|0,3:0|0:0,0:0:0:0:
288,280,1535,2,0,P|346:296|402:235,1,105.000004005432,2|0,0:0|0:0,0:0:0:0:
268,216,1910,2,0,P|232:240|229:307,1,105.000004005432,2|0,0:0|0:0,0:0:0:0:
272,348,2285,1,2,0:0:0:0:
226,297,2410,2,0,L|117:330,1,105.000004005432
268,216,2910,1,2,0:0:0:0:
458,110,3160,6,0,P|410:130|359:124,1,105.000004005432,2|0,0:0|0:0,0:0:0:0:
312,80,3535,2,0,P|248:56|188:72,1,105.000004005432,2|0,0:0|0:0,0:0:0:0:
168,104,3910,2,0,P|192:164|144:208,1,105.000004005432,2|0,0:0|0:0,0:0:0:0:
124,236,4285,2,0,B|144:280|124:308|124:308|144:344|211:351,1,157.500006008148,2|0,0:0|0:0,0:0:0:0:
254,342,4785,2,0,P|305:332|329:340,1,52.5000020027161,0|2,0:0|0:0,0:0:0:0:
416,268,5160,6,0,P|392:220|320:204,1,105.000004005432,2|0,0:0|0:0,0:0:0:0:
284,208,5535,2,0,P|236:216|176:188,1,105.000004005432,2|0,0:0|0:0,0:0:0:0:
136,156,5910,2,0,B|164:108|164:108|220:80,1,105.000004005432,2|0,0:0|0:0,0:0:0:0:
272,88,6285,1,2,0:0:0:0:
336,88,6410,2,0,L|456:96,1,105.000004005432
336,164,6910,1,2,0:0:0:0:
208,85,7160,6,0,P|144:53|76:85,1,105.000004005432,2|0,0:0|0:0,0:0:0:0:
76,108,7535,2,0,L|124:240,1,105.000004005432,2|0,0:0|0:0,0:0:0:0:
160,248,7910,2,0,P|196:196|256:196,1,105.000004005432,2|0,0:0|0:0,0:0:0:0:
256,248,8285,2,0,P|292:288|404:284,1,157.500006008148,2|0,0:0|0:0,0:0:0:0:
472,216,8785,2,0,P|451:231|438:254,1,52.5000020027161,0|2,0:0|0:0,0:0:0:0:
512,168,9160,22,0,P|477:116|396:112,1,105.000004005432,2|0,0:0|0:0,0:0:0:0:
380,124,9535,2,0,P|320:128|288:100,1,105.000004005432,2|0,0:0|0:0,0:0:0:0:
248,52,9910,2,0,P|188:64|160:116,1,105.000004005432,2|0,0:0|0:0,0:0:0:0:
212,136,10285,1,0,0:0:0:0:
152,160,10410,2,0,P|104:120|108:68,1,105.000004005432,2|0,0:0|0:0,0:0:0:0:
208,196,10910,1,2,0:0:0:0:
300,340,11160,6,0,P|320:284|372:248,1,105.000004005432,2|0,0:0|0:0,0:0:0:0:
416,244,11535,2,0,P|420:208|372:124,1,105.000004005432,2|0,0:0|0:0,0:0:0:0:
332,148,11910,2,0,P|294:166|230:131,1,105.000004005432,2|0,0:0|0:0,0:0:0:0:
180,168,12285,2,0,B|198:210|241:220|241:220|252:300,1,157.500006008148,2|2,0:0|0:0,0:0:0:0:
292,340,12785,2,0,P|308:316|316:278,1,52.5000020027161
428,240,13160,6,0,P|410:198|342:177,1,105.000004005432,2|0,0:0|0:0,0:0:0:0:
316,224,13535,2,0,P|268:244|208:212,1,105.000004005432,2|0,0:0|0:0,0:0:0:0:
172,184,13910,2,0,L|170:76,1,105.000004005432,2|0,0:0|0:0,0:0:0:0:
232,88,14285,1,0,0:0:0:0:
292,68,14410,2,0,P|268:35|197:35,1,105.000004005432,2|0,0:0|0:0,0:0:0:0:
112,112,14910,1,2,0:0:0:0:
144,232,15160,38,0,P|118:204|38:187,1,105.000004005432,2|0,0:0|0:0,0:0:0:0:
88,280,15535,2,0,P|37:291|0:327,1,105.000004005432,2|0,0:0|0:0,0:0:0:0:
152,300,15910,1,2,0:0:0:0:
256,192,16035,12,0,16910,0:0:0:0:
192,243,17160,6,0,P|134:265|67:221,1,140,6|2,0:0|0:0,0:0:0:0:
205,179,17660,2,0,P|263:157|330:201,1,140,2|2,0:0|0:0,0:0:0:0:
363,257,18035,1,2,0:0:0:0:
414,208,18160,2,0,B|451:162|451:162|447:120|447:120|479:74,1,140,2|0,0:0|0:0,0:0:0:0:
429,277,18660,2,0,P|399:320|375:322,1,70,8|0,0:0|0:0,0:0:0:0:
317,295,18910,2,0,P|281:283|243:295,1,70,2|0,0:0|0:0,0:0:0:0:
173,295,19160,6,0,L|291:211,1,140,2|0,0:0|0:0,0:0:0:0:
462,156,19660,2,0,L|344:240,1,140,2|2,0:0|0:0,0:0:0:0:
336,310,20035,1,0,0:0:0:0:
405,281,20160,2,0,L|475:297,1,70,2|0,0:0|0:0,0:0:0:0:
347,237,20410,2,0,L|278:221,1,70
222,257,20660,2,0,P|264:232|260:124,1,140,8|2,0:0|0:0,0:0:0:0:
88,77,21160,6,0,P|46:102|50:210,1,140,2|2,0:0|0:0,0:0:0:0:
74,248,21535,1,2,0:0:0:0:
134,292,21660,2,0,P|150:239|147:223,1,70,2|0,0:0|0:0,0:0:0:0:
187,333,21910,2,0,P|149:359|117:355,1,70,2|0,0:0|0:0,0:0:0:0:
209,268,22160,2,0,P|268:265|315:339,1,140,2|0,0:0|0:0,0:0:0:0:
134,292,22660,2,0,P|156:208|204:188,1,140,8|2,0:0|0:0,0:0:0:0:
277,206,23035,1,0,0:0:0:0:
277,206,23160,22,0,P|265:144|190:108,1,140,2|2,0:0|0:0,0:0:0:0:
138,124,23535,1,2,0:0:0:0:
71,152,23660,2,0,P|84:77|142:50,1,140,2|2,0:0|0:0,0:0:0:0:
135,194,24160,2,0,P|122:269|64:296,1,140,2|0,0:0|0:0,0:0:0:0:
27,226,24535,1,2,0:0:0:0:
64,148,24660,2,0,L|119:96,1,70,8|0,0:0|0:0,0:0:0:0:
182,133,24910,2,0,L|262:136,1,70,2|0,0:0|0:0,0:0:0:0:
438,188,25160,6,0,L|278:202,1,140,2|2,0:0|0:0,0:0:0:0:
131,258,25660,2,0,L|291:272,1,140,2|2,0:0|0:0,0:0:0:0:
359,277,26035,1,2,0:0:0:0:
298,200,26160,2,0,L|221:185,1,70,2|0,0:0|0:0,0:0:0:0:
294,130,26410,2,0,L|371:114,1,70,2|2,0:0|0:0,0:0:0:0:
436,117,26660,2,0,P|414:65|316:58,1,140,8|2,0:0|0:0,0:0:0:0:
221,252,27160,6,0,P|229:182|179:124,1,140,2|2,0:0|0:0,0:0:0:0:
116,159,27535,1,2,0:0:0:0:
116,159,27660,2,0,P|121:93|183:50,2,140,2|2|2,0:0|0:0|0:0,0:0:0:0:
128,228,28285,2,0,P|139:262|187:283,1,70
291,237,28660,2,0,L|216:214,1,70,8|2,0:0|0:0,0:0:0:0:
356,256,28910,2,0,L|431:279,1,70,2|0,0:0|0:0,0:0:0:0:
344,184,29160,2,0,L|492:229,1,140,2|0,0:0|0:0,0:0:0:0:
294,229,29660,37,2,0:0:0:0:
205,161,29910,1,2,0:0:0:0:
294,229,30160,1,2,0:0:0:0:
122,191,30410,1,0,0:0:0:0:
294,229,30660,1,8,0:0:0:0:
294,229,31160,5,2,0:0:0:0:
294,229,31285,1,2,0:0:0:0:
294,229,31410,1,2,0:0:0:0:
20,353,31660,1,2,0:0:0:0:
20,353,31785,1,0,0:0:0:0:
20,353,31910,1,2,0:0:0:0:
334,139,32160,1,2,0:0:0:0:
334,139,32285,1,2,0:0:0:0:
334,139,32410,1,0,0:0:0:0:
43,181,32660,5,12,0:0:0:0:
334,139,33160,22,0,P|369:156|392:186,1,70,6|0,0:0|0:0,0:0:0:0:
394,254,33535,1,0,0:0:0:0:
351,314,33660,2,0,L|293:267,1,70,8|2,0:0|0:0,0:0:0:0:
134,128,34160,2,0,L|188:172,1,70,2|0,0:0|0:0,0:0:0:0:
249,215,34535,1,0,0:0:0:0:
296,269,34660,2,0,P|327:255|350:228,1,70,8|2,0:0|0:0,0:0:0:0:
182,68,35160,6,0,P|132:33|63:72,1,140,2|0,0:0|0:0,0:0:0:0:
330,316,35660,2,0,P|380:351|449:312,1,140,8|2,0:0|0:0,0:0:0:0:
312,249,36160,2,0,B|271:258|261:287|261:287|215:287|188:257,1,140,2|0,0:0|0:0,0:0:0:0:
144,212,36535,1,2,0:0:0:0:
111,146,36660,54,0,B|94:115|94:115|102:87|102:87|92:39,1,105,8|0,0:0|0:0,0:0:0:0:
37,80,37160,6,0,B|28:118|28:118|71:211,1,140,2|0,0:0|0:0,0:0:0:0:
104,276,37535,1,2,0:0:0:0:
154,334,37660,2,0,P|194:305|284:322,1,140,8|2,0:0|0:0,0:0:0:0:
342,350,38035,1,0,0:0:0:0:
334,278,38160,2,0,P|297:252|204:235,1,140,2|0,0:0|0:0,0:0:0:0:
69,279,38660,2,0,P|67:214|137:170,1,140,8|2,0:0|0:0,0:0:0:0:
193,164,39035,1,0,0:0:0:0:
220,95,39160,6,0,B|173:81|173:81|137:93|137:93|71:77,1,140,2|0,0:0|0:0,0:0:0:0:
288,224,39660,2,0,B|335:238|335:238|371:226|371:226|437:242,1,140,8|2,0:0|0:0,0:0:0:0:
479,201,40035,1,0,0:0:0:0:
479,274,40160,2,0,L|470:349,1,70,2|0,0:0|0:0,0:0:0:0:
416,172,40410,2,0,L|425:97,1,70,0|2,0:0|0:0,0:0:0:0:
394,43,40660,38,0,B|356:49|364:85|364:85|354:141,1,105,8|0,0:0|0:0,0:0:0:0:
342,208,41160,6,0,B|254:180|285:84,1,140,2|0,0:0|0:0,0:0:0:0:
406,233,41660,2,0,B|496:261|463:357,1,140,8|2,0:0|0:0,0:0:0:0:
399,353,42035,1,0,0:0:0:0:
326,352,42160,2,0,B|278:349|243:280|199:292,1,140,2|0,0:0|0:0,0:0:0:0:
133,292,42535,1,2,0:0:0:0:
85,240,42660,2,0,L|27:191,1,70,8|0,0:0|0:0,0:0:0:0:
183,224,42910,2,0,L|125:175,1,70,2|0,0:0|0:0,0:0:0:0:
295,222,43160,6,0,L|189:123,1,140,2|0,0:0|0:0,0:0:0:0:
355,187,43660,2,0,L|461:286,1,140,8|2,0:0|0:0,0:0:0:0:
192,126,44160,2,0,L|86:27,1,140,2|0,0:0|0:0,0:0:0:0:
22,47,44535,1,2,0:0:0:0:
67,101,44660,38,0,B|103:133|103:133|106:141|106:141|116:141|116:141|117:149|117:149|126:152|126:152|148:172,1,105,8|0,0:0|0:0,0:0:0:0:
197,217,45160,5,2,0:0:0:0:
415,282,45410,1,0,0:0:0:0:
234,278,45660,2,0,P|270:301|319:287,1,70,8|0,0:0|0:0,0:0:0:0:
197,217,45910,2,0,P|161:194|112:208,1,70,2|0,0:0|0:0,0:0:0:0:
148,261,46160,6,0,L|192:116,1,140,2|0,0:0|0:0,0:0:0:0:
243,82,46535,1,2,0:0:0:0:
176,63,46660,2,0,L|108:47,1,70,10|0,0:0|0:0,0:0:0:0:
251,146,46910,2,0,L|321:159,1,70,2|0,0:0|0:0,0:0:0:0:
188,127,47160,6,0,L|46:95,1,140,2|0,0:0|0:0,0:0:0:0:
319,158,47660,2,0,L|461:190,1,140,8|2,0:0|0:0,0:0:0:0:
256,192,48160,12,4,49160,0:0:0:0:
